  0
SECTION
  2
HEADER
  9
$ACADVER
  1
AC1027
  9
$ACADMAINTVER
 70
    55
  9
$DWGCODEPAGE
  3
ANSI_1252
  9
$LASTSAVEDBY
  1
jackson
  9
$REQUIREDVERSIONS
160
                 0
  9
$INSBASE
 10
0.0
 20
0.0
 30
0.0
  9
$EXTMIN
 10
157.8954795920868
 20
284.0177585470327
 30
0.0
  9
$EXTMAX
 10
859.7953594515114
 20
902.7987113873066
 30
0.0
  9
$LIMMIN
 10
0.0
 20
0.0
  9
$LIMMAX
 10
1000.0
 20
750.0
  9
$ORTHOMODE
 70
     1
  9
$REGENMODE
 70
     1
  9
$FILLMODE
 70
     1
  9
$QTEXTMODE
 70
     0
  9
$MIRRTEXT
 70
     0
  9
$LTSCALE
 40
1.0
  9
$ATTMODE
 70
     1
  9
$TEXTSIZE
 40
0.2
  9
$TRACEWID
 40
0.05
  9
$TEXTSTYLE
  7
Standard
  9
$CLAYER
  8
0
  9
$CELTYPE
  6
ByLayer
  9
$CECOLOR
 62
   256
  9
$CELTSCALE
 40
1.0
  9
$DISPSILH
 70
     0
  9
$DIMSCALE
 40
50.0
  9
$DIMASZ
 40
0.18
  9
$DIMEXO
 40
0.0625
  9
$DIMDLI
 40
0.38
  9
$DIMRND
 40
0.0
  9
$DIMDLE
 40
0.0
  9
$DIMEXE
 40
0.18
  9
$DIMTP
 40
0.0
  9
$DIMTM
 40
0.0
  9
$DIMTXT
 40
0.18
  9
$DIMCEN
 40
0.09
  9
$DIMTSZ
 40
0.0
  9
$DIMTOL
 70
     0
  9
$DIMLIM
 70
     0
  9
$DIMTIH
 70
     1
  9
$DIMTOH
 70
     1
  9
$DIMSE1
 70
     0
  9
$DIMSE2
 70
     0
  9
$DIMTAD
 70
     0
  9
$DIMZIN
 70
     0
  9
$DIMBLK
  1

  9
$DIMASO
 70
     1
  9
$DIMSHO
 70
     1
  9
$DIMPOST
  1
 MM\X
  9
$DIMAPOST
  1
 IN.
  9
$DIMALT
 70
     1
  9
$DIMALTD
 70
     0
  9
$DIMALTF
 40
0.0393700787401575
  9
$DIMLFAC
 40
1.0
  9
$DIMTOFL
 70
     0
  9
$DIMTVP
 40
0.0
  9
$DIMTIX
 70
     0
  9
$DIMSOXD
 70
     0
  9
$DIMSAH
 70
     0
  9
$DIMBLK1
  1

  9
$DIMBLK2
  1

  9
$DIMSTYLE
  2
Default
  9
$DIMCLRD
 70
     0
  9
$DIMCLRE
 70
     0
  9
$DIMCLRT
 70
     0
  9
$DIMTFAC
 40
1.0
  9
$DIMGAP
 40
0.09
  9
$DIMJUST
 70
     0
  9
$DIMSD1
 70
     0
  9
$DIMSD2
 70
     0
  9
$DIMTOLJ
 70
     1
  9
$DIMTZIN
 70
     0
  9
$DIMALTZ
 70
     0
  9
$DIMALTTZ
 70
     0
  9
$DIMUPT
 70
     0
  9
$DIMDEC
 70
     0
  9
$DIMTDEC
 70
     0
  9
$DIMALTU
 70
     2
  9
$DIMALTTD
 70
     0
  9
$DIMTXSTY
  7
Standard
  9
$DIMAUNIT
 70
     0
  9
$DIMADEC
 70
     0
  9
$DIMALTRND
 40
0.0
  9
$DIMAZIN
 70
     0
  9
$DIMDSEP
 70
    46
  9
$DIMATFIT
 70
     3
  9
$DIMFRAC
 70
     0
  9
$DIMLDRBLK
  1

  9
$DIMLUNIT
 70
     2
  9
$DIMLWD
 70
    -2
  9
$DIMLWE
 70
    -2
  9
$DIMTMOVE
 70
     1
  9
$DIMFXL
 40
1.0
  9
$DIMFXLON
 70
     0
  9
$DIMJOGANG
 40
0.7853981633974483
  9
$DIMTFILL
 70
     0
  9
$DIMTFILLCLR
 70
     0
  9
$DIMARCSYM
 70
     0
  9
$DIMLTYPE
  6

  9
$DIMLTEX1
  6

  9
$DIMLTEX2
  6

  9
$DIMTXTDIRECTION
 70
     0
  9
$LUNITS
 70
     2
  9
$LUPREC
 70
     2
  9
$SKETCHINC
 40
0.1
  9
$FILLETRAD
 40
0.0
  9
$AUNITS
 70
     0
  9
$AUPREC
 70
     0
  9
$MENU
  1
.
  9
$ELEVATION
 40
0.0
  9
$PELEVATION
 40
0.0
  9
$THICKNESS
 40
0.0
  9
$LIMCHECK
 70
     0
  9
$CHAMFERA
 40
0.0
  9
$CHAMFERB
 40
0.0
  9
$CHAMFERC
 40
0.0
  9
$CHAMFERD
 40
0.0
  9
$SKPOLY
 70
     0
  9
$TDCREATE
 40
2454176.562897766
  9
$TDUCREATE
 40
2454176.854564433
  9
$TDUPDATE
 40
2457150.466027731
  9
$TDUUPDATE
 40
2457150.757694398
  9
$TDINDWG
 40
0.6032783912
  9
$TDUSRTIMER
 40
0.6032782060
  9
$USRTIMER
 70
     1
  9
$ANGBASE
 50
0.0
  9
$ANGDIR
 70
     0
  9
$PDMODE
 70
     0
  9
$PDSIZE
 40
0.0
  9
$PLINEWID
 40
0.0
  9
$SPLFRAME
 70
     0
  9
$SPLINETYPE
 70
     6
  9
$SPLINESEGS
 70
     8
  9
$HANDSEED
  5
DA7
  9
$SURFTAB1
 70
     6
  9
$SURFTAB2
 70
     6
  9
$SURFTYPE
 70
     6
  9
$SURFU
 70
     6
  9
$SURFV
 70
     6
  9
$UCSBASE
  2

  9
$UCSNAME
  2

  9
$UCSORG
 10
0.0
 20
0.0
 30
0.0
  9
$UCSXDIR
 10
1.0
 20
0.0
 30
0.0
  9
$UCSYDIR
 10
0.0
 20
1.0
 30
0.0
  9
$UCSORTHOREF
  2

  9
$UCSORTHOVIEW
 70
     0
  9
$UCSORGTOP
 10
0.0
 20
0.0
 30
0.0
  9
$UCSORGBOTTOM
 10
0.0
 20
0.0
 30
0.0
  9
$UCSORGLEFT
 10
0.0
 20
0.0
 30
0.0
  9
$UCSORGRIGHT
 10
0.0
 20
0.0
 30
0.0
  9
$UCSORGFRONT
 10
0.0
 20
0.0
 30
0.0
  9
$UCSORGBACK
 10
0.0
 20
0.0
 30
0.0
  9
$PUCSBASE
  2

  9
$PUCSNAME
  2

  9
$PUCSORG
 10
0.0
 20
0.0
 30
0.0
  9
$PUCSXDIR
 10
1.0
 20
0.0
 30
0.0
  9
$PUCSYDIR
 10
0.0
 20
1.0
 30
0.0
  9
$PUCSORTHOREF
  2

  9
$PUCSORTHOVIEW
 70
     0
  9
$PUCSORGTOP
 10
0.0
 20
0.0
 30
0.0
  9
$PUCSORGBOTTOM
 10
0.0
 20
0.0
 30
0.0
  9
$PUCSORGLEFT
 10
0.0
 20
0.0
 30
0.0
  9
$PUCSORGRIGHT
 10
0.0
 20
0.0
 30
0.0
  9
$PUCSORGFRONT
 10
0.0
 20
0.0
 30
0.0
  9
$PUCSORGBACK
 10
0.0
 20
0.0
 30
0.0
  9
$USERI1
 70
     0
  9
$USERI2
 70
     0
  9
$USERI3
 70
     0
  9
$USERI4
 70
     0
  9
$USERI5
 70
     0
  9
$USERR1
 40
0.0
  9
$USERR2
 40
0.0
  9
$USERR3
 40
0.0
  9
$USERR4
 40
0.0
  9
$USERR5
 40
0.0
  9
$WORLDVIEW
 70
     1
  9
$SHADEDGE
 70
     3
  9
$SHADEDIF
 70
    70
  9
$TILEMODE
 70
     0
  9
$MAXACTVP
 70
    64
  9
$PINSBASE
 10
0.0
 20
0.0
 30
0.0
  9
$PLIMCHECK
 70
     0
  9
$PEXTMIN
 10
-0.3463343147566178
 20
-0.615652900034668
 30
0.0
  9
$PEXTMAX
 10
8.564798468433693
 20
10.86031197662988
 30
0.0
  9
$PLIMMIN
 10
-0.2499999962453767
 20
-0.2499999962453767
  9
$PLIMMAX
 10
8.249999763458733
 20
10.74999976345873
  9
$UNITMODE
 70
     0
  9
$VISRETAIN
 70
     1
  9
$PLINEGEN
 70
     0
  9
$PSLTSCALE
 70
     1
  9
$TREEDEPTH
 70
  3020
  9
$CMLSTYLE
  2
Standard
  9
$CMLJUST
 70
     0
  9
$CMLSCALE
 40
1.0
  9
$PROXYGRAPHICS
 70
     1
  9
$MEASUREMENT
 70
     0
  9
$CELWEIGHT
370
    -1
  9
$ENDCAPS
280
     0
  9
$JOINSTYLE
280
     0
  9
$LWDISPLAY
290
     0
  9
$INSUNITS
 70
     4
  9
$HYPERLINKBASE
  1

  9
$STYLESHEET
  1

  9
$XEDIT
290
     1
  9
$CEPSNTYPE
380
     0
  9
$PSTYLEMODE
290
     1
  9
$FINGERPRINTGUID
  2
{FDEAD576-A652-11D2-9A35-0060089B3A3F}
  9
$VERSIONGUID
  2
{2BED3799-EEE1-4626-9C7D-BA09705774D5}
  9
$EXTNAMES
290
     1
  9
$PSVPSCALE
 40
0.0
  9
$OLESTARTUP
290
     0
  9
$SORTENTS
280
   127
  9
$INDEXCTL
280
     0
  9
$HIDETEXT
280
     1
  9
$XCLIPFRAME
280
     0
  9
$HALOGAP
280
     0
  9
$OBSCOLOR
 70
   257
  9
$OBSLTYPE
280
     0
  9
$INTERSECTIONDISPLAY
280
     0
  9
$INTERSECTIONCOLOR
 70
   257
  9
$DIMASSOC
280
     2
  9
$PROJECTNAME
  1

  9
$CAMERADISPLAY
290
     0
  9
$LENSLENGTH
 40
50.0
  9
$CAMERAHEIGHT
 40
0.0
  9
$STEPSPERSEC
 40
2.0
  9
$STEPSIZE
 40
6.0
  9
$3DDWFPREC
 40
2.0
  9
$PSOLWIDTH
 40
0.25
  9
$PSOLHEIGHT
 40
4.0
  9
$LOFTANG1
 40
1.570796326794896
  9
$LOFTANG2
 40
1.570796326794896
  9
$LOFTMAG1
 40
0.0
  9
$LOFTMAG2
 40
0.0
  9
$LOFTPARAM
 70
     7
  9
$LOFTNORMALS
280
     1
  9
$LATITUDE
 40
37.795
  9
$LONGITUDE
 40
-122.394
  9
$NORTHDIRECTION
 40
0.0
  9
$TIMEZONE
 70
 -8000
  9
$LIGHTGLYPHDISPLAY
280
     1
  9
$TILEMODELIGHTSYNCH
280
     1
  9
$CMATERIAL
347
93D
  9
$SOLIDHIST
280
     1
  9
$SHOWHIST
280
     1
  9
$DWFFRAME
280
     2
  9
$DGNFRAME
280
     0
  9
$REALWORLDSCALE
290
     1
  9
$INTERFERECOLOR
 62
     1
  9
$INTERFEREOBJVS
345
95F
  9
$INTERFEREVPVS
346
95C
  9
$CSHADOW
280
     0
  9
$SHADOWPLANELOCATION
 40
0.0
  0
ENDSEC
  0
SECTION
  2
CLASSES
  0
CLASS
  1
ACDBDICTIONARYWDFLT
  2
AcDbDictionaryWithDefault
  3
ObjectDBX Classes
 90
        0
 91
        1
280
     0
281
     0
  0
CLASS
  1
DICTIONARYVAR
  2
AcDbDictionaryVar
  3
ObjectDBX Classes
 90
        0
 91
       11
280
     0
281
     0
  0
CLASS
  1
DIMASSOC
  2
AcDbDimAssoc
  3
"AcDbDimAssoc|Product Desc:     AcDim ARX App For Dimension|Company:          Autodesk, Inc.|WEB Address:      www.autodesk.com"
 90
        0
 91
        2
280
     0
281
     0
  0
CLASS
  1
MATERIAL
  2
AcDbMaterial
  3
ObjectDBX Classes
 90
     1153
 91
        3
280
     0
281
     0
  0
CLASS
  1
VISUALSTYLE
  2
AcDbVisualStyle
  3
ObjectDBX Classes
 90
     4095
 91
       26
280
     0
281
     0
  0
CLASS
  1
TABLESTYLE
  2
AcDbTableStyle
  3
ObjectDBX Classes
 90
     4095
 91
        1
280
     0
281
     0
  0
CLASS
  1
SCALE
  2
AcDbScale
  3
ObjectDBX Classes
 90
     1153
 91
       33
280
     0
281
     0
  0
CLASS
  1
MLEADERSTYLE
  2
AcDbMLeaderStyle
  3
ACDB_MLEADERSTYLE_CLASS
 90
     4095
 91
        1
280
     0
281
     0
  0
CLASS
  1
CELLSTYLEMAP
  2
AcDbCellStyleMap
  3
ObjectDBX Classes
 90
     1152
 91
        1
280
     0
281
     0
  0
CLASS
  1
SORTENTSTABLE
  2
AcDbSortentsTable
  3
ObjectDBX Classes
 90
        0
 91
        1
280
     0
281
     0
  0
CLASS
  1
ACDBSECTIONVIEWSTYLE
  2
AcDbSectionViewStyle
  3
ObjectDBX Classes
 90
     1025
 91
        1
280
     0
281
     0
  0
CLASS
  1
ACDBDETAILVIEWSTYLE
  2
AcDbDetailViewStyle
  3
ObjectDBX Classes
 90
     1025
 91
        1
280
     0
281
     0
  0
ENDSEC
  0
SECTION
  2
TABLES
  0
TABLE
  2
VPORT
  5
8
330
0
100
AcDbSymbolTable
 70
     1
  0
VPORT
  5
93B
330
8
100
AcDbSymbolTableRecord
100
AcDbViewportTableRecord
  2
*Active
 70
     0
 10
0.0
 20
0.0
 11
1.0
 21
1.0
 12
694.3354769606594
 22
784.2215214779282
 13
0.0
 23
0.0
 14
0.5
 24
0.5
 15
10.0
 25
10.0
 16
0.0
 26
0.0
 36
1.0
 17
0.0
 27
0.0
 37
0.0
 40
985.9308821855872
 41
1.912037037037037
 42
50.0
 43
0.0
 44
0.0
 50
0.0
 51
0.0
 71
     0
 72
  1000
 73
     1
 74
     3
 75
     0
 76
     0
 77
     0
 78
     0
281
     0
 65
     1
110
0.0
120
0.0
130
0.0
111
1.0
121
0.0
131
0.0
112
0.0
122
1.0
132
0.0
 79
     0
146
0.0
348
95B
 60
     3
 61
     5
292
     1
282
     1
141
0.0
142
0.0
 63
   250
421
  3355443
1001
ACAD_NAV_VCDISPLAY
1070
     3
  0
ENDTAB
  0
TABLE
  2
LTYPE
  5
5
330
0
100
AcDbSymbolTable
 70
     1
  0
LTYPE
  5
14
330
5
100
AcDbSymbolTableRecord
100
AcDbLinetypeTableRecord
  2
ByBlock
 70
     0
  3

 72
    65
 73
     0
 40
0.0
  0
LTYPE
  5
15
330
5
100
AcDbSymbolTableRecord
100
AcDbLinetypeTableRecord
  2
ByLayer
 70
     0
  3

 72
    65
 73
     0
 40
0.0
  0
LTYPE
  5
16
330
5
100
AcDbSymbolTableRecord
100
AcDbLinetypeTableRecord
  2
Continuous
 70
     0
  3
Solid line
 72
    65
 73
     0
 40
0.0
  0
ENDTAB
  0
TABLE
  2
LAYER
  5
2
102
{ACAD_XDICTIONARY
360
A8C
102
}
330
0
100
AcDbSymbolTable
 70
     2
  0
LAYER
  5
10
102
{ACAD_XDICTIONARY
360
AA6
102
}
330
2
100
AcDbSymbolTableRecord
100
AcDbLayerTableRecord
  2
0
 70
     0
 62
     7
  6
Continuous
370
    -3
390
F
347
94D
348
0
  0
LAYER
  5
44B
330
2
100
AcDbSymbolTableRecord
100
AcDbLayerTableRecord
  2
Defpoints
 70
     0
 62
     7
  6
Continuous
290
     0
370
    -3
390
F
347
94D
348
0
  0
ENDTAB
  0
TABLE
  2
STYLE
  5
3
330
0
100
AcDbSymbolTable
 70
     1
  0
STYLE
  5
11
330
3
100
AcDbSymbolTableRecord
100
AcDbTextStyleTableRecord
  2
Standard
 70
     0
 40
0.0
 41
1.0
 50
0.0
 71
     0
 42
0.2
  3
ARIAL.TTF
  4

1001
ACAD
1000
Arial
1071
       34
  0
ENDTAB
  0
TABLE
  2
VIEW
  5
6
330
0
100
AcDbSymbolTable
 70
     1
  0
ENDTAB
  0
TABLE
  2
UCS
  5
7
330
0
100
AcDbSymbolTable
 70
     0
  0
ENDTAB
  0
TABLE
  2
APPID
  5
9
330
0
100
AcDbSymbolTable
 70
     9
  0
APPID
  5
12
330
9
100
AcDbSymbolTableRecord
100
AcDbRegAppTableRecord
  2
ACAD
 70
     0
  0
APPID
  5
98C
330
9
100
AcDbSymbolTableRecord
100
AcDbRegAppTableRecord
  2
ACAD_MLEADERVER
 70
     0
  0
APPID
  5
9A0
330
9
100
AcDbSymbolTableRecord
100
AcDbRegAppTableRecord
  2
ACAD_DSTYLE_DIMJAG
 70
     0
  0
APPID
  5
9A1
330
9
100
AcDbSymbolTableRecord
100
AcDbRegAppTableRecord
  2
ACAD_DSTYLE_DIMTALN
 70
     0
  0
APPID
  5
A39
330
9
100
AcDbSymbolTableRecord
100
AcDbRegAppTableRecord
  2
ACAD_DSTYLE_DIMBREAK
 70
     0
  0
APPID
  5
A40
330
9
100
AcDbSymbolTableRecord
100
AcDbRegAppTableRecord
  2
AcadAnnoPO
 70
     0
  0
APPID
  5
ABA
330
9
100
AcDbSymbolTableRecord
100
AcDbRegAppTableRecord
  2
ACAD_PSEXT
 70
     0
  0
APPID
  5
ACA
330
9
100
AcDbSymbolTableRecord
100
AcDbRegAppTableRecord
  2
ACAD_EXEMPT_FROM_CAD_STANDARDS
 70
     0
  0
APPID
  5
D39
330
9
100
AcDbSymbolTableRecord
100
AcDbRegAppTableRecord
  2
ACAD_NAV_VCDISPLAY
 70
     0
  0
ENDTAB
  0
TABLE
  2
DIMSTYLE
  5
A
330
0
100
AcDbSymbolTable
 70
     3
100
AcDbDimStyleTable
 71
     3
340
A3A
340
756
340
27
  0
DIMSTYLE
105
27
330
A
100
AcDbSymbolTableRecord
100
AcDbDimStyleTableRecord
  2
Standard
 70
     0
340
11
  0
DIMSTYLE
105
756
330
A
100
AcDbSymbolTableRecord
100
AcDbDimStyleTableRecord
  2
KRYTON
 70
     0
  3
MM\X
  4
IN.
 41
2.0
140
3.0
143
0.0393700787401575
147
0.54
170
     1
171
     1
271
     1
272
     1
274
     1
340
11
  0
DIMSTYLE
105
A3A
102
{ACAD_REACTORS
330
A50
330
8FE
330
B9C
102
}
330
A
100
AcDbSymbolTableRecord
100
AcDbDimStyleTableRecord
  2
Default
 70
     0
  3
 MM\X
  4
 IN.
 40
50.0
143
0.0393700787401575
170
     1
171
     0
271
     0
272
     0
274
     0
279
     1
340
11
1001
ACAD_DSTYLE_DIMBREAK
1070
   391
1040
0.125
1001
ACAD_DSTYLE_DIMJAG
1070
   388
1040
1.5
1001
ACAD_DSTYLE_DIMTALN
1070
   392
1070
     0
  0
ENDTAB
  0
TABLE
  2
BLOCK_RECORD
  5
1
330
0
100
AcDbSymbolTable
 70
     6
  0
BLOCK_RECORD
  5
1F
102
{ACAD_XDICTIONARY
360
CA0
102
}
330
1
100
AcDbSymbolTableRecord
100
AcDbBlockTableRecord
  2
*Model_Space
340
22
 70
     0
280
     1
281
     0
  0
BLOCK_RECORD
  5
AB0
330
1
100
AcDbSymbolTableRecord
100
AcDbBlockTableRecord
  2
*Paper_Space
340
AB1
 70
     0
280
     1
281
     0
  0
BLOCK_RECORD
  5
5D
330
1
100
AcDbSymbolTableRecord
100
AcDbBlockTableRecord
  2
*Paper_Space0
340
5E
 70
     0
280
     1
281
     0
  0
BLOCK_RECORD
  5
757
102
{ACAD_XDICTIONARY
360
759
102
}
330
1
100
AcDbSymbolTableRecord
100
AcDbBlockTableRecord
  2
joint line
340
0
102
{BLKREFS
331
75C
331
760
102
}
 70
     4
280
     1
281
     0
  0
BLOCK_RECORD
  5
8FF
330
1
100
AcDbSymbolTableRecord
100
AcDbBlockTableRecord
  2
*D2
340
0
 70
     0
280
     1
281
     0
  0
BLOCK_RECORD
  5
A51
330
1
100
AcDbSymbolTableRecord
100
AcDbBlockTableRecord
  2
*D3
340
0
 70
     0
280
     1
281
     0
  0
BLOCK_RECORD
  5
58
330
1
100
AcDbSymbolTableRecord
100
AcDbBlockTableRecord
  2
*Paper_Space4
340
59
 70
     0
280
     1
281
     0
  0
BLOCK_RECORD
  5
B9D
330
1
100
AcDbSymbolTableRecord
100
AcDbBlockTableRecord
  2
*D5
340
0
 70
     0
280
     1
281
     0
  0
ENDTAB
  0
ENDSEC
  0
SECTION
  2
BLOCKS
  0
BLOCK
  5
20
330
1F
100
AcDbEntity
  8
0
100
AcDbBlockBegin
  2
*Model_Space
 70
     0
 10
0.0
 20
0.0
 30
0.0
  3
*Model_Space
  1

  0
ENDBLK
  5
21
330
1F
100
AcDbEntity
  8
0
100
AcDbBlockEnd
  0
BLOCK
  5
AB2
330
AB0
100
AcDbEntity
 67
     1
  8
0
100
AcDbBlockBegin
  2
*Paper_Space
 70
     0
 10
0.0
 20
0.0
 30
0.0
  3
*Paper_Space
  1

  0
ENDBLK
  5
AB3
330
AB0
100
AcDbEntity
 67
     1
  8
0
100
AcDbBlockEnd
  0
BLOCK
  5
5F
330
5D
100
AcDbEntity
 67
     1
  8
0
100
AcDbBlockBegin
  2
*Paper_Space0
 70
     0
 10
0.0
 20
0.0
 30
0.0
  3
*Paper_Space0
  1

  0
VIEWPORT
  5
3B6
330
5D
100
AcDbEntity
 67
     1
  8
0
100
AcDbViewport
 10
6.681714964117093
 20
5.240074866478493
 30
0.0
 40
19.05428239869843
 41
11.47314971151058
 68
     0
 69
     0
 12
6.681714964117093
 22
5.240074866478493
 13
0.0
 23
0.0
 14
0.5
 24
0.5
 15
0.5
 25
0.5
 16
0.0
 26
0.0
 36
1.0
 17
0.0
 27
0.0
 37
0.0
 42
50.0
 43
0.0
 44
0.0
 45
11.47314971151058
 50
0.0
 51
0.0
 72
  1000
 90
    32800
  1

281
     0
 71
     1
 74
     0
110
0.0
120
0.0
130
0.0
111
1.0
121
0.0
131
0.0
112
0.0
122
1.0
132
0.0
 79
     0
146
0.0
170
     0
 61
     5
348
95B
292
     1
282
     1
141
0.0
142
0.0
 63
   250
421
  3355443
  0
VIEWPORT
  5
3B8
330
5D
100
AcDbEntity
 67
     1
  8
0
100
AcDbViewport
 10
5.24999976158142
 20
3.99999976158142
 30
0.0
 40
8.399999618530271
 41
6.399999618530272
 68
     0
 69
     0
 12
175.0
 22
192.5000000000002
 13
0.0
 23
0.0
 14
0.5
 24
0.5
 15
0.5
 25
0.5
 16
0.0
 26
0.0
 36
1.0
 17
0.0
 27
0.0
 37
0.0
 42
50.0
 43
0.0
 44
0.0
 45
370.9189189189194
 50
0.0
 51
0.0
 72
  1000
 90
    32864
  1

281
     0
 71
     1
 74
     0
110
0.0
120
0.0
130
0.0
111
1.0
121
0.0
131
0.0
112
0.0
122
1.0
132
0.0
 79
     0
146
0.0
170
     0
 61
     5
348
95B
292
     1
282
     1
141
0.0
142
0.0
 63
   250
421
  3355443
  0
ENDBLK
  5
60
330
5D
100
AcDbEntity
 67
     1
  8
0
100
AcDbBlockEnd
  0
BLOCK
  5
75A
330
757
100
AcDbEntity
  8
0
100
AcDbBlockBegin
  2
joint line
 70
     0
 10
0.0
 20
0.0
 30
0.0
  3
joint line
  1

  0
LWPOLYLINE
  5
758
330
757
100
AcDbEntity
  8
0
100
AcDbPolyline
 90
        7
 70
     0
 43
0.0
 10
40.06469683741646
 20
0.0
 10
14.66469683741647
 20
0.0
 10
0.0
 20
25.40000000000001
 10
0.0
 20
0.0
 10
0.0
 20
-25.40000000000001
 10
-14.66469683741645
 20
0.0
 10
-40.06469683741646
 20
0.0
  0
ENDBLK
  5
75B
330
757
100
AcDbEntity
  8
0
100
AcDbBlockEnd
  0
BLOCK
  5
90B
330
8FF
100
AcDbEntity
  8
0
100
AcDbBlockBegin
  2
*D2
 70
     1
 10
0.0
 20
0.0
 30
0.0
  3
*D2
  1

  0
LINE
  5
C38
330
8FF
100
AcDbEntity
  8
0
 62
     0
440
 16777216
370
    -2
100
AcDbLine
 10
419.0704795920866
 20
556.7939533185494
 30
0.0
 11
382.8861442449274
 21
556.7939533185494
 31
0.0
  0
LINE
  5
C39
330
8FF
100
AcDbEntity
  8
0
 62
     0
440
 16777216
370
    -2
100
AcDbLine
 10
419.0704795920866
 20
516.7939533185495
 30
0.0
 11
382.8861442449274
 21
516.7939533185495
 31
0.0
  0
LINE
  5
C3A
330
8FF
100
AcDbEntity
  8
0
 62
     0
440
 16777216
370
    -2
100
AcDbLine
 10
391.8861442449274
 20
565.7939533185494
 30
0.0
 11
391.8861442449274
 21
574.7939533185494
 31
0.0
  0
LINE
  5
C3B
330
8FF
100
AcDbEntity
  8
0
 62
     0
440
 16777216
370
    -2
100
AcDbLine
 10
391.8861442449274
 20
507.7939533185494
 30
0.0
 11
391.8861442449274
 21
498.7939533185494
 31
0.0
  0
SOLID
  5
C3C
330
8FF
100
AcDbEntity
  8
0
 62
     0
440
 16777216
100
AcDbTrace
 10
390.3861442449274
 20
565.7939533185494
 30
0.0
 11
393.3861442449274
 21
565.7939533185494
 31
0.0
 12
391.8861442449274
 22
556.7939533185494
 32
0.0
 13
391.8861442449274
 23
556.7939533185494
 33
0.0
  0
SOLID
  5
C3D
330
8FF
100
AcDbEntity
  8
0
 62
     0
440
 16777216
100
AcDbTrace
 10
390.3861442449274
 20
507.7939533185494
 30
0.0
 11
393.3861442449274
 21
507.7939533185494
 31
0.0
 12
391.8861442449274
 22
516.7939533185495
 32
0.0
 13
391.8861442449274
 23
516.7939533185495
 33
0.0
  0
MTEXT
  5
C3E
330
8FF
100
AcDbEntity
  8
0
 62
     0
440
 16777216
100
AcDbMText
 10
391.8861442449274
 20
545.8891102080448
 30
0.0
 40
9.0
 41
0.0
 46
0.0
 71
     5
 72
     1
  1
\A1;40 MM
 73
     1
 44
1.0
  0
MTEXT
  5
C3F
330
8FF
100
AcDbEntity
  8
0
 62
     0
440
 16777216
100
AcDbMText
 10
391.8861442449274
 20
526.5262179843067
 30
0.0
 40
9.0
 41
0.0
 46
0.0
 71
     5
 72
     1
  1
\A1;[1.5 IN.]
 73
     1
 44
1.0
  0
POINT
  5
C40
330
8FF
100
AcDbEntity
  8
Defpoints
 62
     0
440
 16777216
100
AcDbPoint
 10
422.1954795920866
 20
556.7939533185494
 30
0.0
  0
POINT
  5
C41
330
8FF
100
AcDbEntity
  8
Defpoints
 62
     0
440
 16777216
100
AcDbPoint
 10
422.1954795920866
 20
516.7939533185495
 30
0.0
  0
POINT
  5
C42
330
8FF
100
AcDbEntity
  8
Defpoints
 62
     0
440
 16777216
100
AcDbPoint
 10
391.8861442449274
 20
516.7939533185495
 30
0.0
  0
ENDBLK
  5
90C
330
8FF
100
AcDbEntity
  8
0
100
AcDbBlockEnd
  0
BLOCK
  5
A52
330
A51
100
AcDbEntity
  8
0
100
AcDbBlockBegin
  2
*D3
 70
     1
 10
0.0
 20
0.0
 30
0.0
  3
*D3
  1

  0
LINE
  5
C21
330
A51
100
AcDbEntity
  8
0
 62
     0
440
 16777216
370
    -2
100
AcDbLine
 10
422.1954795920866
 20
559.9189533185494
 30
0.0
 11
422.1954795920866
 21
588.6897618058335
 31
0.0
  0
LINE
  5
C22
330
A51
100
AcDbEntity
  8
0
 62
     0
440
 16777216
370
    -2
100
AcDbLine
 10
462.1954795920866
 20
559.9189533185494
 30
0.0
 11
462.1954795920866
 21
588.6897618058335
 31
0.0
  0
LINE
  5
C23
330
A51
100
AcDbEntity
  8
0
 62
     0
440
 16777216
370
    -2
100
AcDbLine
 10
431.1954795920867
 20
579.6897618058335
 30
0.0
 11
453.1954795920866
 21
579.6897618058335
 31
0.0
  0
LINE
  5
C24
330
A51
100
AcDbEntity
  8
0
 62
     0
440
 16777216
370
    -2
100
AcDbLine
 10
442.1954795920866
 20
579.6897618058335
 30
0.0
 11
442.1954795920866
 21
620.6655462533096
 31
0.0
  0
LINE
  5
C25
330
A51
100
AcDbEntity
  8
0
 62
     0
440
 16777216
370
    -2
100
AcDbLine
 10
442.1954795920866
 20
620.6655462533096
 30
0.0
 11
451.1954795920866
 21
620.6655462533096
 31
0.0
  0
MTEXT
  5
C26
330
A51
100
AcDbEntity
  8
0
 62
     0
440
 16777216
100
AcDbMText
 10
474.3523690873117
 20
629.7607031428049
 30
0.0
 40
9.0
 41
0.0
 46
0.0
 71
     5
 72
     1
  1
\A1;40 MM
 73
     1
 44
1.0
  0
MTEXT
  5
C27
330
A51
100
AcDbEntity
  8
0
 62
     0
440
 16777216
100
AcDbMText
 10
476.8724918703949
 20
610.3978109190668
 30
0.0
 40
9.0
 41
0.0
 46
0.0
 71
     5
 72
     1
  1
\A1;[1.5 IN.]
 73
     1
 44
1.0
  0
SOLID
  5
C28
330
A51
100
AcDbEntity
  8
0
 62
     0
440
 16777216
100
AcDbTrace
 10
431.1954795920867
 20
581.1897618058335
 30
0.0
 11
431.1954795920867
 21
578.1897618058335
 31
0.0
 12
422.1954795920866
 22
579.6897618058335
 32
0.0
 13
422.1954795920866
 23
579.6897618058335
 33
0.0
  0
SOLID
  5
C29
330
A51
100
AcDbEntity
  8
0
 62
     0
440
 16777216
100
AcDbTrace
 10
453.1954795920866
 20
581.1897618058335
 30
0.0
 11
453.1954795920866
 21
578.1897618058335
 31
0.0
 12
462.1954795920866
 22
579.6897618058335
 32
0.0
 13
462.1954795920866
 23
579.6897618058335
 33
0.0
  0
POINT
  5
C2A
330
A51
100
AcDbEntity
  8
Defpoints
 62
     0
440
 16777216
100
AcDbPoint
 10
422.1954795920866
 20
556.7939533185494
 30
0.0
  0
POINT
  5
C2B
330
A51
100
AcDbEntity
  8
Defpoints
 62
     0
440
 16777216
100
AcDbPoint
 10
462.1954795920866
 20
556.7939533185494
 30
0.0
  0
POINT
  5
C2C
330
A51
100
AcDbEntity
  8
Defpoints
 62
     0
440
 16777216
100
AcDbPoint
 10
462.1954795920866
 20
579.6897618058335
 30
0.0
  0
ENDBLK
  5
A53
330
A51
100
AcDbEntity
  8
0
100
AcDbBlockEnd
  0
BLOCK
  5
5A
330
58
100
AcDbEntity
 67
     1
  8
0
100
AcDbBlockBegin
  2
*Paper_Space4
 70
     0
 10
0.0
 20
0.0
 30
0.0
  3
*Paper_Space4
  1

  0
VIEWPORT
  5
8D
330
58
100
AcDbEntity
 67
     1
  8
0
100
AcDbViewport
 10
16.70428741029273
 20
9.999999709016693
 30
0.0
 40
47.63570599674609
 41
22.48249936441737
 68
     0
 69
     0
 12
16.70428741029273
 22
9.999999709016693
 13
0.0
 23
0.0
 14
0.5
 24
0.5
 15
0.5
 25
0.5
 16
0.0
 26
0.0
 36
1.0
 17
0.0
 27
0.0
 37
0.0
 42
50.0
 43
0.0
 44
0.0
 45
22.48249936441737
 50
0.0
 51
0.0
 72
  1000
 90
    32800
  1

281
     0
 71
     1
 74
     0
110
0.0
120
0.0
130
0.0
111
1.0
121
0.0
131
0.0
112
0.0
122
1.0
132
0.0
 79
     0
146
0.0
170
     0
 61
     5
348
95B
292
     1
282
     1
141
0.0
142
0.0
 63
   250
421
  3355443
  0
VIEWPORT
  5
8F
330
58
100
AcDbEntity
 67
     1
  8
0
100
AcDbViewport
 10
12.93082500557209
 20
9.665609875446349
 30
0.0
 40
23.84659008504624
 41
12.66255716166765
 68
     0
 69
     0
 12
87.4650996018005
 22
113.5014182633942
 13
0.0
 23
0.0
 14
0.5
 24
0.5
 15
0.5
 25
0.5
 16
0.0
 26
0.0
 36
1.0
 17
0.0
 27
0.0
 37
0.0
 42
50.0
 43
0.0
 44
0.0
 45
244.1753892479596
 50
0.0
 51
0.0
 72
  1000
 90
    32864
  1

281
     0
 71
     1
 74
     0
110
0.0
120
0.0
130
0.0
111
1.0
121
0.0
131
0.0
112
0.0
122
1.0
132
0.0
 79
     0
146
0.0
170
     0
 61
     5
348
95B
292
     1
282
     1
141
0.0
142
0.0
 63
   250
421
  3355443
  0
MTEXT
  5
3DD
330
58
100
AcDbEntity
 67
     1
  8
0
100
AcDbMText
 10
3.727752798924512
 20
1.579829956684761
 30
0.0
 40
0.5
 41
12.24228416685076
 46
0.0
 71
     1
 72
     5
  1
WALL TO SLAB CONNECTION
 73
     1
 44
1.0
  0
ENDBLK
  5
5B
330
58
100
AcDbEntity
 67
     1
  8
0
100
AcDbBlockEnd
  0
BLOCK
  5
B9E
330
B9D
100
AcDbEntity
  8
0
100
AcDbBlockBegin
  2
*D5
 70
     1
 10
0.0
 20
0.0
 30
0.0
  3
*D5
  1

  0
LINE
  5
BDE
330
B9D
100
AcDbEntity
  8
0
 62
     0
440
 16777216
370
    -2
100
AcDbLine
 10
424.205434881813
 20
513.6689533185495
 30
0.0
 11
424.205434881813
 21
493.7609529948275
 31
0.0
  0
LINE
  5
BDF
330
B9D
100
AcDbEntity
  8
0
 62
     0
440
 16777216
370
    -2
100
AcDbLine
 10
454.3218575303508
 20
513.6689533185495
 30
0.0
 11
454.3218575303508
 21
493.7609529948275
 31
0.0
  0
LINE
  5
BE0
330
B9D
100
AcDbEntity
  8
0
 62
     0
440
 16777216
370
    -2
100
AcDbLine
 10
433.2054348818131
 20
502.7609529948275
 30
0.0
 11
445.3218575303508
 21
502.7609529948275
 31
0.0
  0
LINE
  5
BE1
330
B9D
100
AcDbEntity
  8
0
 62
     0
440
 16777216
370
    -2
100
AcDbLine
 10
439.2636462060819
 20
502.7609529948275
 30
0.0
 11
439.2636462060819
 21
432.0471057915533
 31
0.0
  0
LINE
  5
BE2
330
B9D
100
AcDbEntity
  8
0
 62
     0
440
 16777216
370
    -2
100
AcDbLine
 10
439.2636462060819
 20
432.0471057915533
 30
0.0
 11
448.2636462060819
 21
432.0471057915533
 31
0.0
  0
MTEXT
  5
BE3
330
B9D
100
AcDbEntity
  8
0
 62
     0
440
 16777216
100
AcDbMText
 10
471.2363610764775
 20
441.1453322581291
 30
0.0
 40
9.0
 41
0.0
 46
0.0
 71
     5
 72
     1
  1
\A1;30 MM
 73
     1
 44
1.0
  0
MTEXT
  5
BE4
330
B9D
100
AcDbEntity
  8
0
 62
     0
440
 16777216
100
AcDbMText
 10
473.9406584843902
 20
421.7793704573105
 30
0.0
 40
9.0
 41
0.0
 46
0.0
 71
     5
 72
     1
  1
\A1;[1.2 IN.]
 73
     1
 44
1.0
  0
SOLID
  5
BE5
330
B9D
100
AcDbEntity
  8
0
 62
     0
440
 16777216
100
AcDbTrace
 10
433.2054348818131
 20
504.2609529948276
 30
0.0
 11
433.2054348818131
 21
501.2609529948275
 31
0.0
 12
424.205434881813
 22
502.7609529948275
 32
0.0
 13
424.205434881813
 23
502.7609529948275
 33
0.0
  0
SOLID
  5
BE6
330
B9D
100
AcDbEntity
  8
0
 62
     0
440
 16777216
100
AcDbTrace
 10
445.3218575303508
 20
504.2609529948276
 30
0.0
 11
445.3218575303508
 21
501.2609529948275
 31
0.0
 12
454.3218575303508
 22
502.7609529948275
 32
0.0
 13
454.3218575303508
 23
502.7609529948275
 33
0.0
  0
POINT
  5
BE7
330
B9D
100
AcDbEntity
  8
Defpoints
 62
     0
440
 16777216
100
AcDbPoint
 10
424.205434881813
 20
516.7939533185495
 30
0.0
  0
POINT
  5
BE8
330
B9D
100
AcDbEntity
  8
Defpoints
 62
     0
440
 16777216
100
AcDbPoint
 10
454.3218575303508
 20
516.7939533185495
 30
0.0
  0
POINT
  5
BE9
330
B9D
100
AcDbEntity
  8
Defpoints
 62
     0
440
 16777216
100
AcDbPoint
 10
454.3218575303508
 20
502.7609529948275
 30
0.0
  0
ENDBLK
  5
B9F
330
B9D
100
AcDbEntity
  8
0
100
AcDbBlockEnd
  0
ENDSEC
  0
SECTION
  2
ENTITIES
  0
LINE
  5
407
102
{ACAD_REACTORS
330
775
102
}
330
1F
100
AcDbEntity
  8
0
100
AcDbLine
 10
177.8954795920867
 20
407.5078421994694
 30
0.0
 11
177.8954795920868
 21
877.3987113873067
 31
0.0
  0
LINE
  5
40B
330
1F
100
AcDbEntity
  8
0
100
AcDbLine
 10
834.3953594515115
 20
556.7939533185493
 30
0.0
 11
419.1954795920866
 21
556.7939533185494
 31
0.0
  0
LINE
  5
40C
102
{ACAD_REACTORS
330
775
102
}
330
1F
100
AcDbEntity
  8
0
100
AcDbLine
 10
177.8954795920867
 20
407.5078421994694
 30
0.0
 11
177.8954795920867
 21
362.7585448788
 31
0.0
  0
LINE
  5
41C
102
{ACAD_REACTORS
330
775
102
}
330
1F
100
AcDbEntity
  8
0
100
AcDbLine
 10
419.1954795920866
 20
556.7939533185494
 30
0.0
 11
419.1954795920866
 21
877.3987113873067
 31
0.0
  0
LEADER
  5
444
330
1F
100
AcDbEntity
  8
0
100
AcDbLeader
  3
Standard
 73
     0
 74
     0
 75
     1
 40
26.96261214188267
 41
220.9665757162347
 76
     3
 10
420.1454795920867
 20
433.0295647114694
 30
0.0
 10
542.9455018037388
 20
593.5609787597793
 30
0.0
 10
551.9455018037388
 20
593.5609787597793
 30
0.0
340
445
213
1.4079502529421
223
0.0
233
0.0
1001
ACAD
1000
DSTYLE
1002
{
1070
   147
1040
0.09
1070
    77
1070
     0
1070
    40
1040
50.0
1002
}
  0
MTEXT
  5
445
102
{ACAD_REACTORS
330
444
102
}
330
1F
100
AcDbEntity
  8
0
100
AcDbMText
 10
555.0375515507966
 20
593.5609787597793
 30
0.0
 40
9.0
 41
0.0
 46
0.0
 71
     1
 72
     1
  1
KRYSTOL WATERSTOP TREATMENT\P1 {\H1.0003x;kg/}m{\H0.7x;\S2^ ;\H1.429x; (}0.2 lb. /sq.ft.) 
 73
     1
 44
1.0
  0
LEADER
  5
448
330
1F
100
AcDbEntity
  8
0
100
AcDbLeader
  3
Standard
 73
     0
 74
     0
 75
     1
 40
26.95907230559345
 41
238.5184174624829
 76
     3
 10
447.5954795920865
 20
532.6702704553675
 30
0.0
 10
542.9455018037388
 20
652.7777989760643
 30
0.0
 10
551.9455018037388
 20
652.7777989760643
 30
0.0
340
449
213
1.510534961488247
223
16.90746055897739
233
0.0
1001
ACAD
1000
DSTYLE
1002
{
1070
    40
1040
50.0
1002
}
  0
MTEXT
  5
449
102
{ACAD_REACTORS
330
448
102
}
330
1F
100
AcDbEntity
  8
0
100
AcDbMText
 10
554.9349668422506
 20
635.8703384170869
 30
0.0
 40
9.0
 41
0.0
 46
0.0
 71
     4
 72
     1
  1
KRYSTOL WATERSTOP GROUT External\P3.33 kg/m (2.23 lb. /ft.)
 73
     1
 44
1.0
  0
MTEXT
  5
63E
102
{ACAD_XDICTIONARY
360
D10
102
}
330
1F
100
AcDbEntity
  8
0
100
AcDbMText
 10
227.5006735320635
 20
315.7210987562187
 30
0.0
 40
11.0
 41
542.2866187768258
 46
0.0
 71
     1
 72
     5
  1
{\H1.0909x;NEW CONSTRUCTION - WALL TO SLAB - (WALL INBOARD OF SLAB)}\P\pi276.37;{\H0.81818x;REFER TO APPLICATION INSTRUCTION 4.12 }
 73
     1
 44
1.0
  0
LINE
  5
686
330
1F
100
AcDbEntity
  8
0
100
AcDbLine
 10
422.1954795920866
 20
556.7939533185494
 30
0.0
 11
422.1954795920866
 21
518.6939533185497
 31
0.0
  0
LINE
  5
69F
102
{ACAD_REACTORS
330
775
102
}
330
1F
100
AcDbEntity
  8
0
100
AcDbLine
 10
419.1954795920866
 20
556.7939533185494
 30
0.0
 11
419.1954795920866
 21
362.7585448788
 31
0.0
  0
LINE
  5
6A0
102
{ACAD_REACTORS
330
775
102
}
330
1F
100
AcDbEntity
  8
0
100
AcDbLine
 10
419.1954795920866
 20
362.7585448788
 30
0.0
 11
177.8954795920867
 21
362.7585448788
 31
0.0
  0
LINE
  5
6A1
330
1F
100
AcDbEntity
  8
0
100
AcDbLine
 10
419.1954795920866
 20
362.7585448788
 30
0.0
 11
834.3953594515113
 21
362.7585448788
 31
0.0
  0
INSERT
  5
75C
330
1F
100
AcDbEntity
  8
0
100
AcDbBlockReference
  2
joint line
 10
834.3953594515115
 20
459.7762490986746
 30
0.0
 50
270.0
  0
LINE
  5
75E
330
1F
100
AcDbEntity
  8
0
100
AcDbLine
 10
834.3953594515115
 20
499.8409459360911
 30
0.0
 11
834.3953594515115
 21
576.7939533185494
 31
0.0
  0
LINE
  5
75F
330
1F
100
AcDbEntity
  8
0
100
AcDbLine
 10
834.3953594515115
 20
419.7115522612581
 30
0.0
 11
834.3953594515113
 21
342.7585448788
 31
0.0
  0
INSERT
  5
760
102
{ACAD_REACTORS
330
775
102
}
330
1F
100
AcDbEntity
  8
0
100
AcDbBlockReference
  2
joint line
 10
298.5454795920867
 20
877.3987113873067
 30
0.0
  0
LINE
  5
761
102
{ACAD_REACTORS
330
775
102
}
330
1F
100
AcDbEntity
  8
0
100
AcDbLine
 10
157.8954795920868
 20
877.3987113873067
 30
0.0
 11
283.8807827546702
 21
877.3987113873067
 31
0.0
  0
LINE
  5
762
102
{ACAD_REACTORS
330
775
102
}
330
1F
100
AcDbEntity
  8
0
100
AcDbLine
 10
338.6101764295032
 20
877.3987113873067
 30
0.0
 11
439.1954795920865
 21
877.3987113873067
 31
0.0
  0
HATCH
  5
775
330
1F
100
AcDbEntity
  8
0
100
AcDbHatch
 10
0.0
 20
0.0
 30
0.0
210
0.0
220
0.0
230
1.0
  2
AR-CONC
 70
     0
 71
     1
 91
        1
 92
        7
 72
     0
 73
     1
 93
       13
 10
177.8954795920867
 20
407.5078421994694
 10
177.8954795920867
 20
362.7585448787999
 10
419.1954795920867
 20
362.7585448788
 10
419.1954795920866
 20
556.7939533185494
 10
419.1954795920866
 20
877.3987113873067
 10
338.6101764295032
 20
877.3987113873067
 10
313.2101764295032
 20
877.3987113873067
 10
298.5454795920867
 20
902.7987113873066
 10
298.5454795920867
 20
877.3987113873067
 10
298.5454795920867
 20
851.9987113873067
 10
283.8807827546703
 20
877.3987113873067
 10
258.4807827546702
 20
877.3987113873067
 10
177.8954795920867
 20
877.3987113873067
 97
        8
330
762
330
760
330
761
330
407
330
40C
330
6A0
330
69F
330
41C
 75
     0
 76
     1
 52
0.0
 41
10.0
 77
     0
 78
    13
 53
50.0
 43
0.0
 44
202.2500842351521
 45
71.72601826007535
 46
-6.27521349825951
 79
     2
 49
7.5
 49
-82.5
 53
355.0
 43
0.0
 44
202.2500842351521
 45
-13.8751333613
 46
75.21921337000119
 79
     2
 49
6.0
 49
-66.0
 53
100.4514
 43
5.977168
 44
201.7271502351522
 45
57.85093817140215
 46
68.94395420609535
 79
     2
 49
6.374019
 49
-70.1142112
 53
46.1842
 43
0.0
 44
222.2500842351522
 45
106.7241048625644
 46
-16.5519014329018
 79
     2
 49
11.25
 49
-123.75
 53
96.6356
 43
8.893674499999999
 44
220.8707535351521
 45
93.46627055487033
 46
97.41178709004417
 79
     2
 49
9.561028799999998
 49
-105.1713
 53
351.1842000000001
 43
0.0
 44
222.2500842351522
 45
93.46619451336271
 46
97.41186009253247
 79
     2
 49
9.0
 49
-99.0
 53
21.0
 43
10.0
 44
217.2500842351521
 45
59.69070521184616
 46
-40.26188906653388
 79
     2
 49
7.5
 49
-82.5
 53
326.0
 43
10.0
 44
217.2500842351521
 45
24.33153319215817
 46
72.5150045046853
 79
     2
 49
6.0
 49
-66.0
 53
71.45140000000001
 43
14.9742233
 44
213.8949236351521
 45
84.02226285814899
 46
32.25304967099524
 79
     2
 49
6.374019
 49
-70.1142112
 53
37.5
 43
0.0
 44
202.2500842351521
 45
1.215985531729066
 46
33.28938538313115
 79
     6
 49
0.0
 49
-65.19999999999999
 49
0.0
 49
-67.0
 49
0.0
 49
-66.25
 53
7.499999999999999
 43
0.0
 44
202.2500842351521
 45
26.30695374421486
 46
39.44117118823603
 79
     6
 49
0.0
 49
-38.2
 49
0.0
 49
-63.7
 49
0.0
 49
-25.25
 53
327.5
 43
-22.3
 44
202.2500842351521
 45
53.3822436172409
 46
-2.255487173437979
 79
     6
 49
0.0
 49
-25.0
 49
0.0
 49
-78.0
 49
0.0
 49
-103.5
 53
317.5
 43
-32.3
 44
202.2500842351521
 45
58.31861693423862
 46
10.01049823323176
 79
     6
 49
0.0
 49
-32.5
 49
0.0
 49
-51.79999999999999
 49
0.0
 49
-73.5
 47
3.38729164788968
 98
        1
 10
244.3209823810462
 20
595.1250733642711
  0
HATCH
  5
788
330
1F
100
AcDbEntity
  8
0
100
AcDbHatch
 10
0.0
 20
0.0
 30
0.0
210
0.0
220
0.0
230
1.0
  2
AR-CONC
 70
     0
 71
     0
 91
        1
 92
        5
 93
       13
 72
     1
 10
834.3953594515115
 20
419.7115522612581
 11
834.3953594515115
 21
445.1115522612583
 72
     1
 10
834.3953594515115
 20
445.1115522612583
 11
859.7953594515114
 21
459.7762490986746
 72
     1
 10
859.7953594515114
 20
459.7762490986746
 11
834.3953594515115
 21
459.7762490986746
 72
     1
 10
834.3953594515115
 20
459.7762490986746
 11
808.9953594515113
 21
459.7762490986746
 72
     1
 10
808.9953594515113
 20
459.7762490986746
 11
834.3953594515115
 21
474.4409459360911
 72
     1
 10
834.3953594515115
 20
474.4409459360911
 11
834.3953594515115
 21
499.8409459360911
 72
     1
 10
834.3953594515115
 20
499.8409459360911
 11
834.3953594515115
 21
556.7939533185493
 72
     1
 10
834.3953594515115
 20
556.7939533185493
 11
447.5954795920864
 21
556.7939533185494
 72
     1
 10
447.5954795920864
 20
556.7939533185494
 11
447.5954795920866
 21
518.6939533185494
 72
     1
 10
447.5954795920866
 20
518.6939533185494
 11
422.1954795920865
 21
518.6939533185494
 72
     4
 94
        3
 73
     0
 74
     0
 95
       25
 96
       21
 40
0.0
 40
0.0
 40
0.0
 40
0.0
 40
6.964999605766905
 40
24.56695880582135
 40
44.26789002516438
 40
53.25147836723553
 40
61.70857404335454
 40
67.61280159434473
 40
70.40692720693863
 40
74.9991863047991
 40
81.39527658773992
 40
90.49156161183752
 40
97.82946066574304
 40
106.8147722830879
 40
117.8294520754429
 40
128.0599336868258
 40
138.7392496739504
 40
147.6452449757123
 40
152.9236720961682
 40
156.6060501703399
 40
156.6060501703399
 40
156.6060501703399
 40
156.6060501703399
 10
422.1954795920866
 20
518.6939533185494
 10
421.6712172698738
 20
516.4112927593873
 10
419.8220382889331
 20
508.3598884379601
 10
424.6874014993917
 20
493.5914452746433
 10
418.7387470449794
 20
478.1702702338122
 10
423.1043448045572
 20
466.0044183430438
 10
420.950918385766
 20
458.291797266812
 10
421.178835262497
 20
452.5119013356957
 10
422.586966864195
 20
448.2263221730078
 10
421.4265433458487
 20
443.6233193473795
 10
420.5179780250487
 20
437.0000250690274
 10
421.799918837617
 20
429.392145098776
 10
421.3270840138211
 20
420.91949534047
 10
421.248249570971
 20
411.8088156487628
 10
421.4251231770835
 20
401.7276597103897
 10
420.1834075836767
 20
391.104149866678
 10
421.7363391595674
 20
381.1782448352019
 10
420.1672864279547
 20
372.8898189969539
 10
421.3204448414983
 20
366.9757624320231
 10
421.133569676795
 20
363.9868264849302
 10
421.0567746796754
 20
362.7585448788
 97
        0
 72
     1
 10
421.0567746796754
 20
362.7585448788
 11
834.3953594515111
 21
362.7585448788
 72
     1
 10
834.3953594515111
 20
362.7585448788
 11
834.3953594515115
 21
419.7115522612582
 97
        0
 75
     0
 76
     1
 52
0.0
 41
10.0
 77
     0
 78
    13
 53
50.0
 43
0.0
 44
202.2500842351521
 45
71.72601826007535
 46
-6.27521349825951
 79
     2
 49
7.5
 49
-82.5
 53
355.0
 43
0.0
 44
202.2500842351521
 45
-13.8751333613
 46
75.21921337000119
 79
     2
 49
6.0
 49
-66.0
 53
100.4514
 43
5.977168
 44
201.7271502351522
 45
57.85093817140215
 46
68.94395420609535
 79
     2
 49
6.374019
 49
-70.1142112
 53
46.1842
 43
0.0
 44
222.2500842351522
 45
106.7241048625644
 46
-16.5519014329018
 79
     2
 49
11.25
 49
-123.75
 53
96.6356
 43
8.893674499999999
 44
220.8707535351521
 45
93.46627055487033
 46
97.41178709004417
 79
     2
 49
9.561028799999998
 49
-105.1713
 53
351.1842000000001
 43
0.0
 44
222.2500842351522
 45
93.46619451336271
 46
97.41186009253247
 79
     2
 49
9.0
 49
-99.0
 53
21.0
 43
10.0
 44
217.2500842351521
 45
59.69070521184616
 46
-40.26188906653388
 79
     2
 49
7.5
 49
-82.5
 53
326.0
 43
10.0
 44
217.2500842351521
 45
24.33153319215817
 46
72.5150045046853
 79
     2
 49
6.0
 49
-66.0
 53
71.45140000000001
 43
14.9742233
 44
213.8949236351521
 45
84.02226285814899
 46
32.25304967099524
 79
     2
 49
6.374019
 49
-70.1142112
 53
37.5
 43
0.0
 44
202.2500842351521
 45
1.215985531729066
 46
33.28938538313115
 79
     6
 49
0.0
 49
-65.19999999999999
 49
0.0
 49
-67.0
 49
0.0
 49
-66.25
 53
7.499999999999999
 43
0.0
 44
202.2500842351521
 45
26.30695374421486
 46
39.44117118823603
 79
     6
 49
0.0
 49
-38.2
 49
0.0
 49
-63.7
 49
0.0
 49
-25.25
 53
327.5
 43
-22.3
 44
202.2500842351521
 45
53.3822436172409
 46
-2.255487173437979
 79
     6
 49
0.0
 49
-25.0
 49
0.0
 49
-78.0
 49
0.0
 49
-103.5
 53
317.5
 43
-32.3
 44
202.2500842351521
 45
58.31861693423862
 46
10.01049823323176
 79
     6
 49
0.0
 49
-32.5
 49
0.0
 49
-51.79999999999999
 49
0.0
 49
-73.5
 47
1.671859158509763
 98
        1
 10
591.8046623095838
 20
401.9238114370564
  0
LINE
  5
7A1
102
{ACAD_REACTORS
330
92F
102
}
330
1F
100
AcDbEntity
  8
0
100
AcDbLine
 10
422.1954795920866
 20
556.7939533185494
 30
0.0
 11
462.1954795920866
 21
556.7939533185494
 31
0.0
  0
LINE
  5
7A2
102
{ACAD_REACTORS
330
92F
330
A6D
102
}
330
1F
100
AcDbEntity
  8
0
100
AcDbLine
 10
462.1954795920866
 20
556.7939533185494
 30
0.0
 11
455.1424003637481
 21
516.7939533185495
 31
0.0
  0
LINE
  5
7A3
102
{ACAD_REACTORS
330
92F
102
}
330
1F
100
AcDbEntity
  8
0
100
AcDbLine
 10
422.1954795920866
 20
556.7939533185494
 30
0.0
 11
422.1954795920866
 21
516.7939533185495
 31
0.0
  0
LINE
  5
7A4
102
{ACAD_REACTORS
330
919
330
92F
102
}
330
1F
100
AcDbEntity
  8
0
100
AcDbLine
 10
422.1954795920866
 20
516.7939533185495
 30
0.0
 11
455.1424003637481
 21
516.7939533185495
 31
0.0
  0
DIMENSION
  5
8FE
102
{ACAD_XDICTIONARY
360
90D
102
}
102
{ACAD_REACTORS
330
919
102
}
330
1F
100
AcDbEntity
  8
0
100
AcDbDimension
280
     0
  2
*D2
 10
391.8861442449274
 20
516.7939533185495
 30
0.0
 11
391.8861442449274
 21
536.7939533185496
 31
0.0
 70
    33
 71
     5
 42
40.0
 73
     0
 74
     0
 75
     0
  3
Default
100
AcDbAlignedDimension
 13
422.1954795920866
 23
556.7939533185494
 33
0.0
 14
422.1954795920866
 24
516.7939533185495
 34
0.0
1001
ACAD
1000
DSTYLE
1002
{
1070
   171
1070
     1
1070
   148
1040
0.5
1002
}
  0
HATCH
  5
92F
330
1F
100
AcDbEntity
  8
0
100
AcDbHatch
 10
0.0
 20
0.0
 30
0.0
210
0.0
220
0.0
230
1.0
  2
CS42
 70
     0
 71
     1
 91
        1
 92
        7
 72
     0
 73
     1
 93
        4
 10
422.1954795920866
 20
516.7939533185495
 10
455.1424003637481
 20
516.7939533185495
 10
462.1954795920866
 20
556.7939533185494
 10
422.1954795920866
 20
556.7939533185494
 97
        4
330
7A1
330
7A3
330
7A4
330
7A2
 75
     0
 76
     1
 52
180.0
 41
0.5
 77
     0
 78
    46
 53
180.0
 43
-0.0000000000000006
 44
197.2500842351521
 45
-5.0
 46
-4.999999999999999
 79
     2
 49
0.375
 49
-9.625
 53
180.0
 43
-0.1745000000000006
 44
197.2530842351521
 45
-5.0
 46
-4.999999999999999
 79
     2
 49
0.375
 49
-9.625
 53
180.0
 43
-0.3490000000000006
 44
197.2620842351521
 45
-5.0
 46
-4.999999999999999
 79
     2
 49
0.375
 49
-9.625
 53
180.0
 43
-0.5225000000000005
 44
197.2775842351521
 45
-5.0
 46
-4.999999999999999
 79
     2
 49
0.375
 49
-9.625
 53
180.0
 43
-0.6960000000000006
 44
197.2985842351521
 45
-5.0
 46
-4.999999999999999
 79
     2
 49
0.375
 49
-9.625
 53
180.0
 43
-0.8680000000000005
 44
197.3260842351521
 45
-5.0
 46
-4.999999999999999
 79
     2
 49
0.375
 49
-9.625
 53
180.0
 43
-1.0395
 44
197.3595842351521
 45
-5.0
 46
-4.999999999999999
 79
     2
 49
0.375
 49
-9.625
 53
180.0
 43
-1.2095
 44
197.3985842351521
 45
-5.0
 46
-4.999999999999999
 79
     2
 49
0.375
 49
-9.625
 53
180.0
 43
-1.378
 44
197.4435842351521
 45
-5.0
 46
-4.999999999999999
 79
     2
 49
0.375
 49
-9.625
 53
180.0
 43
-1.545
 44
197.4945842351521
 45
-5.0
 46
-4.999999999999999
 79
     2
 49
0.375
 49
-9.625
 53
180.0
 43
-1.71
 44
197.5515842351521
 45
-5.0
 46
-4.999999999999999
 79
     2
 49
0.375
 49
-9.625
 53
180.0
 43
-1.873
 44
197.6140842351521
 45
-5.0
 46
-4.999999999999999
 79
     2
 49
0.375
 49
-9.625
 53
180.0
 43
-2.0335
 44
197.6825842351521
 45
-5.0
 46
-4.999999999999999
 79
     2
 49
0.375
 49
-9.625
 53
180.0
 43
-2.192
 44
197.7560842351521
 45
-5.0
 46
-4.999999999999999
 79
     2
 49
0.375
 49
-9.625
 53
180.0
 43
-2.3475
 44
197.8355842351521
 45
-5.0
 46
-4.999999999999999
 79
     2
 49
0.375
 49
-9.625
 53
180.0
 43
-2.5
 44
197.9200842351521
 45
-5.0
 46
-4.999999999999999
 79
     2
 49
0.375
 49
-9.625
 53
180.0
 43
-2.6495
 44
198.0100842351521
 45
-5.0
 46
-4.999999999999999
 79
     2
 49
0.375
 49
-9.625
 53
180.0
 43
-2.796
 44
198.1050842351521
 45
-5.0
 46
-4.999999999999999
 79
     2
 49
0.375
 49
-9.625
 53
180.0
 43
-2.939
 44
198.2050842351521
 45
-5.0
 46
-4.999999999999999
 79
     2
 49
0.375
 49
-9.625
 53
180.0
 43
-3.0785
 44
198.3100842351521
 45
-5.0
 46
-4.999999999999999
 79
     2
 49
0.375
 49
-9.625
 53
180.0
 43
-3.214
 44
198.4200842351521
 45
-5.0
 46
-4.999999999999999
 79
     2
 49
0.375
 49
-9.625
 53
180.0
 43
-3.3455
 44
198.5345842351521
 45
-5.0
 46
-4.999999999999999
 79
     2
 49
0.375
 49
-9.625
 53
180.0
 43
-3.4735
 44
198.6535842351521
 45
-5.0
 46
-4.999999999999999
 79
     2
 49
0.375
 49
-9.625
 53
180.0
 43
-3.5965
 44
198.7765842351521
 45
-5.0
 46
-4.999999999999999
 79
     2
 49
0.375
 49
-9.625
 53
180.0
 43
-3.7155
 44
198.9045842351521
 45
-5.0
 46
-4.999999999999999
 79
     2
 49
0.375
 49
-9.625
 53
180.0
 43
-3.83
 44
199.0360842351521
 45
-5.0
 46
-4.999999999999999
 79
     2
 49
0.375
 49
-9.625
 53
180.0
 43
-3.94
 44
199.1715842351521
 45
-5.0
 46
-4.999999999999999
 79
     2
 49
0.375
 49
-9.625
 53
180.0
 43
-4.044999999999999
 44
199.3110842351521
 45
-5.0
 46
-4.999999999999999
 79
     2
 49
0.375
 49
-9.625
 53
180.0
 43
-4.144999999999999
 44
199.4540842351521
 45
-5.0
 46
-4.999999999999999
 79
     2
 49
0.375
 49
-9.625
 53
180.0
 43
-4.24
 44
199.6005842351521
 45
-5.0
 46
-4.999999999999999
 79
     2
 49
0.375
 49
-9.625
 53
180.0
 43
-4.33
 44
199.7500842351521
 45
-5.0
 46
-4.999999999999999
 79
     2
 49
0.375
 49
-9.625
 53
180.0
 43
-4.4145
 44
199.9025842351521
 45
-5.0
 46
-4.999999999999999
 79
     2
 49
0.375
 49
-9.625
 53
180.0
 43
-4.493999999999999
 44
200.0580842351521
 45
-5.0
 46
-4.999999999999999
 79
     2
 49
0.375
 49
-9.625
 53
180.0
 43
-4.567499999999999
 44
200.2165842351522
 45
-5.0
 46
-4.999999999999999
 79
     2
 49
0.375
 49
-9.625
 53
180.0
 43
-4.636
 44
200.3770842351522
 45
-5.0
 46
-4.999999999999999
 79
     2
 49
0.375
 49
-9.625
 53
180.0
 43
-4.6985
 44
200.5400842351521
 45
-5.0
 46
-4.999999999999999
 79
     2
 49
0.375
 49
-9.625
 53
180.0
 43
-4.7555
 44
200.7050842351521
 45
-5.0
 46
-4.999999999999999
 79
     2
 49
0.375
 49
-9.625
 53
180.0
 43
-4.806499999999999
 44
200.8720842351522
 45
-5.0
 46
-4.999999999999999
 79
     2
 49
0.375
 49
-9.625
 53
180.0
 43
-4.851499999999999
 44
201.0405842351521
 45
-5.0
 46
-4.999999999999999
 79
     2
 49
0.375
 49
-9.625
 53
180.0
 43
-4.8905
 44
201.2105842351521
 45
-5.0
 46
-4.999999999999999
 79
     2
 49
0.375
 49
-9.625
 53
180.0
 43
-4.923999999999999
 44
201.3820842351521
 45
-5.0
 46
-4.999999999999999
 79
     2
 49
0.375
 49
-9.625
 53
180.0
 43
-4.951499999999999
 44
201.5540842351521
 45
-5.0
 46
-4.999999999999999
 79
     2
 49
0.375
 49
-9.625
 53
180.0
 43
-4.9725
 44
201.7275842351522
 45
-5.0
 46
-4.999999999999999
 79
     2
 49
0.375
 49
-9.625
 53
180.0
 43
-4.988
 44
201.9010842351522
 45
-5.0
 46
-4.999999999999999
 79
     2
 49
0.375
 49
-9.625
 53
180.0
 43
-4.996999999999999
 44
202.0755842351522
 45
-5.0
 46
-4.999999999999999
 79
     2
 49
0.375
 49
-9.625
 53
180.0
 43
-5.0
 44
202.2500842351521
 45
-5.0
 46
-4.999999999999999
 79
     2
 49
0.375
 49
-9.625
 47
0.1414344929803562
 98
        1
 10
436.5989115316765
 20
538.0815425620744
  0
DIMENSION
  5
A50
102
{ACAD_XDICTIONARY
360
A60
102
}
102
{ACAD_REACTORS
330
A6D
102
}
330
1F
100
AcDbEntity
  8
0
100
AcDbDimension
280
     0
  2
*D3
 10
462.1954795920866
 20
579.6897618058335
 30
0.0
 11
455.6954795920866
 21
620.6655462533096
 31
0.0
 70
    32
 71
     5
 42
40.0
 73
     0
 74
     0
 75
     0
  3
Default
100
AcDbAlignedDimension
 13
422.1954795920866
 23
556.7939533185494
 33
0.0
 14
462.1954795920866
 24
556.7939533185494
 34
0.0
100
AcDbRotatedDimension
1001
ACAD
1000
DSTYLE
1002
{
1070
   148
1040
0.5
1070
   171
1070
     1
1070
   271
1070
     0
1002
}
  0
DIMENSION
  5
B9C
330
1F
100
AcDbEntity
  8
0
100
AcDbDimension
280
     0
  2
*D5
 10
454.3218575303508
 20
502.7609529948275
 30
0.0
 11
452.7636462060819
 21
432.0471057915533
 31
0.0
 70
    32
 71
     5
 42
30.11642264853776
 73
     0
 74
     0
 75
     0
  3
Default
100
AcDbAlignedDimension
 13
424.205434881813
 23
516.7939533185495
 33
0.0
 14
454.3218575303508
 24
516.7939533185495
 34
0.0
100
AcDbRotatedDimension
1001
ACAD
1000
DSTYLE
1002
{
1070
   171
1070
     1
1002
}
  0
LINE
  5
C93
330
1F
100
AcDbEntity
  8
0
100
AcDbLine
 10
422.1954795920866
 20
516.7939533185495
 30
0.0
 11
422.1954795920866
 21
362.7585448788
 31
0.0
  0
HATCH
  5
C9F
330
1F
100
AcDbEntity
  8
0
100
AcDbHatch
 10
0.0
 20
0.0
 30
0.0
210
0.0
220
0.0
230
1.0
  2
HEX
 70
     0
 71
     0
 91
        1
 92
        7
 72
     0
 73
     1
 93
        5
 10
422.1954795920866
 20
516.7939533185495
 10
422.1954795920866
 20
556.7939533185494
 10
419.1954795920866
 20
556.7939533185494
 10
419.1954795920866
 20
362.7585448788
 10
422.1954795920867
 20
362.7585448788
 97
        0
 75
     0
 76
     1
 52
0.0
 41
1.0
 77
     0
 78
     3
 53
0.0
 43
0.0
 44
0.0
 45
0.0
 46
0.216506351
 79
     2
 49
0.125
 49
-0.25
 53
120.0
 43
0.0
 44
0.0
 45
-0.1875000000466704
 46
-0.1082531755
 79
     2
 49
0.125
 49
-0.25
 53
60.0
 43
0.125
 44
0.0
 45
-0.1875000000466704
 46
0.1082531755
 79
     2
 49
0.125
 49
-0.25
 47
0.3391649907642744
 98
        1
 10
420.5385124225686
 20
478.622524251826
1001
ACAD
1010
0.0
1020
0.0
1030
0.0
  0
VIEWPORT
  5
AB7
102
{ACAD_XDICTIONARY
360
AB8
102
}
330
AB0
100
AcDbEntity
 67
     1
  8
0
100
AcDbViewport
 10
1.977021532596179
 20
5.096511713970707
 30
0.0
 40
13.28121884096576
 41
6.946109611739959
 68
     1
 69
     1
 12
1.977021532596179
 22
5.096511713970707
 13
0.0
 23
0.0
 14
0.5
 24
0.5
 15
0.5
 25
0.5
 16
0.0
 26
0.0
 36
1.0
 17
0.0
 27
0.0
 37
0.0
 42
50.0
 43
0.0
 44
0.0
 45
6.946109611739959
 50
0.0
 51
0.0
 72
  1000
 90
   819232
  1

281
     0
 71
     1
 74
     0
110
0.0
120
0.0
130
0.0
111
1.0
121
0.0
131
0.0
112
0.0
122
1.0
132
0.0
 79
     0
146
0.0
170
     0
 61
     5
348
95B
292
     1
282
     1
141
0.0
142
0.0
 63
   250
421
  3355443
  0
VIEWPORT
  5
ABC
102
{ACAD_XDICTIONARY
360
ABD
102
}
330
AB0
100
AcDbEntity
 67
     1
  8
0
100
AcDbViewport
 10
4.109232076838537
 20
5.122329538297606
 30
0.0
 40
8.911132783190311
 41
11.47596487666455
 68
     2
 69
     2
 12
521.8119900452667
 22
590.5507946789713
 13
0.0
 23
0.0
 14
0.5
 24
0.5
 15
10.0
 25
10.0
 16
0.0
 26
0.0
 36
1.0
 17
0.0
 27
0.0
 37
0.0
 42
50.0
 43
0.0
 44
0.0
 45
1147.596487666455
 50
0.0
 51
0.0
 72
  1000
 90
   819296
  1

281
     0
 71
     1
 74
     0
110
0.0
120
0.0
130
0.0
111
1.0
121
0.0
131
0.0
112
0.0
122
1.0
132
0.0
 79
     0
146
0.0
170
     0
 61
     5
348
95B
292
     1
282
     1
141
0.0
142
0.0
 63
   250
421
  3355443
  0
ENDSEC
  0
SECTION
  2
OBJECTS
  0
DICTIONARY
  5
C
330
0
100
AcDbDictionary
281
     1
  3
ACAD_CIP_PREVIOUS_PRODUCT_INFO
350
D28
  3
ACAD_COLOR
350
73
  3
ACAD_DETAILVIEWSTYLE
350
D20
  3
ACAD_GROUP
350
D
  3
ACAD_LAYOUT
350
1A
  3
ACAD_MATERIAL
350
72
  3
ACAD_MLEADERSTYLE
350
98A
  3
ACAD_MLINESTYLE
350
17
  3
ACAD_PLOTSETTINGS
350
19
  3
ACAD_PLOTSTYLENAME
350
E
  3
ACAD_SCALELIST
350
968
  3
ACAD_SECTIONVIEWSTYLE
350
D1E
  3
ACAD_TABLESTYLE
350
966
  3
ACAD_VISUALSTYLE
350
955
  3
AcadDim
350
441
  3
ACDB_RECOMPOSE_DATA
350
DA6
  3
AcDbVariableDictionary
350
66
  0
DICTIONARY
  5
A8C
330
2
100
AcDbDictionary
280
     1
281
     1
  3
ACAD_LAYERSTATES
360
A8D
  0
DICTIONARY
  5
AA6
330
10
100
AcDbDictionary
280
     1
281
     1
  3
ADSK_XREC_LAYER_RECONCILED
360
AA7
  0
DICTIONARY
  5
CA0
330
1F
100
AcDbDictionary
280
     1
281
     1
  3
ACAD_SORTENTS
360
CA1
  0
DICTIONARY
  5
759
330
757
100
AcDbDictionary
280
     1
281
     1
  0
DICTIONARY
  5
D10
330
63E
100
AcDbDictionary
280
     1
281
     1
  3
ACAD_MTEXT_2008_RT
360
DA2
  0
DICTIONARY
  5
90D
330
8FE
100
AcDbDictionary
280
     1
281
     1
  3
ACAD_DIMASSOC
360
919
  0
DICTIONARY
  5
A60
330
A50
100
AcDbDictionary
280
     1
281
     1
  3
ACAD_DIMASSOC
360
A6D
  0
DICTIONARY
  5
AB8
330
AB7
100
AcDbDictionary
280
     1
281
     1
  3
ASDK_XREC_ANNOTATION_SCALE_INFO
360
AB9
  0
DICTIONARY
  5
ABD
330
ABC
100
AcDbDictionary
280
     1
281
     1
  3
ASDK_XREC_ANNOTATION_SCALE_INFO
360
ABE
  0
XRECORD
  5
D28
102
{ACAD_REACTORS
330
C
102
}
330
C
100
AcDbXrecord
280
     1
300
ACD
300
2014
300
ACD_F_S
  0
DICTIONARY
  5
73
102
{ACAD_REACTORS
330
C
102
}
330
C
100
AcDbDictionary
281
     1
  0
DICTIONARY
  5
D20
102
{ACAD_REACTORS
330
C
102
}
330
C
100
AcDbDictionary
281
     1
  3
Imperial24
350
D21
  0
DICTIONARY
  5
D
102
{ACAD_REACTORS
330
C
102
}
330
C
100
AcDbDictionary
281
     1
  0
DICTIONARY
  5
1A
102
{ACAD_REACTORS
330
C
102
}
330
C
100
AcDbDictionary
281
     1
  3
Layout1
350
59
  3
Layout2
350
5E
  3
Layout3
350
AB1
  3
Model
350
22
  0
DICTIONARY
  5
72
102
{ACAD_REACTORS
330
C
102
}
330
C
100
AcDbDictionary
281
     1
  3
ByBlock
350
945
  3
ByLayer
350
93D
  3
Global
350
94D
  0
DICTIONARY
  5
98A
102
{ACAD_REACTORS
330
C
102
}
330
C
100
AcDbDictionary
281
     1
  3
Standard
350
98B
  0
DICTIONARY
  5
17
102
{ACAD_REACTORS
330
C
102
}
330
C
100
AcDbDictionary
281
     1
  3
Standard
350
18
  0
DICTIONARY
  5
19
102
{ACAD_REACTORS
330
C
102
}
330
C
100
AcDbDictionary
281
     1
  0
ACDBDICTIONARYWDFLT
  5
E
102
{ACAD_REACTORS
330
C
102
}
330
C
100
AcDbDictionary
281
     1
  3
Normal
350
F
100
AcDbDictionaryWithDefault
340
F
  0
DICTIONARY
  5
968
102
{ACAD_REACTORS
330
C
102
}
330
C
100
AcDbDictionary
281
     1
  3
A0
350
969
  3
A1
350
AF0
  3
A2
350
AF1
  3
A3
350
AF2
  3
A4
350
AF3
  3
A5
350
AF4
  3
A6
350
AF5
  3
A7
350
AF6
  3
A8
350
AF7
  3
A9
350
AF8
  3
B0
350
AF9
  3
B1
350
AFA
  3
B2
350
AFB
  3
B3
350
AFC
  3
B4
350
AFD
  3
B5
350
AFE
  3
B6
350
AFF
  3
B7
350
B00
  3
B8
350
B01
  3
B9
350
B02
  3
C0
350
B03
  3
C1
350
B04
  3
C2
350
B05
  3
C3
350
B06
  3
C4
350
B07
  3
C5
350
B08
  3
C6
350
B09
  3
C7
350
B0A
  3
C8
350
B0B
  3
C9
350
B0C
  3
D0
350
B0D
  3
D1
350
B0E
  3
D2
350
B0F
  0
DICTIONARY
  5
D1E
102
{ACAD_REACTORS
330
C
102
}
330
C
100
AcDbDictionary
281
     1
  3
Imperial24
350
D1F
  0
DICTIONARY
  5
966
102
{ACAD_REACTORS
330
C
102
}
330
C
100
AcDbDictionary
281
     1
  3
Standard
350
967
  0
DICTIONARY
  5
955
102
{ACAD_REACTORS
330
C
102
}
330
C
100
AcDbDictionary
281
     1
  3
2dWireframe
350
95B
  3
3D Hidden
350
95D
  3
3dWireframe
350
95C
  3
Basic
350
95A
  3
Brighten
350
961
  3
ColorChange
350
965
  3
Conceptual
350
95E
  3
Dim
350
960
  3
EdgeColorOff
350
D1D
  3
Facepattern
350
964
  3
Flat
350
956
  3
FlatWithEdges
350
957
  3
Gouraud
350
958
  3
GouraudWithEdges
350
959
  3
Hidden
350
D15
  3
JitterOff
350
D1B
  3
Linepattern
350
963
  3
OverhangOff
350
D1C
  3
Realistic
350
95F
  3
Shaded
350
D1A
  3
Shaded with edges
350
D19
  3
Shades of Gray
350
D16
  3
Sketchy
350
D17
  3
Thicken
350
962
  3
Wireframe
350
D14
  3
X-Ray
350
D18
  0
XRECORD
  5
441
102
{ACAD_REACTORS
330
C
102
}
330
C
100
AcDbXrecord
280
     1
 90
   990106
  3

 60
     0
 61
     0
 62
     1
 63
     1
 64
     0
 65
     0
 66
     0
 67
     3
 68
     1
 69
     0
 70
     0
 71
     0
 72
     0
 40
0.0
170
     2
340
445
  0
XRECORD
  5
DA6
102
{ACAD_REACTORS
330
C
102
}
330
C
100
AcDbXrecord
280
     1
 90
        1
330
63E
330
967
330
D1F
330
D21
  0
DICTIONARY
  5
66
102
{ACAD_REACTORS
330
C
102
}
330
C
100
AcDbDictionary
281
     1
  3
CANNOSCALE
350
B28
  3
CMLEADERSTYLE
350
B26
  3
CTABLESTYLE
350
B25
  3
CVIEWDETAILSTYLE
350
D8F
  3
CVIEWSECTIONSTYLE
350
D90
  3
DIMASSOC
350
67
  3
HIDETEXT
350
6B
  3
LAYEREVAL
350
D91
  3
LAYERNOTIFY
350
D92
  3
LIGHTINGUNITS
350
B29
  3
MSLTSCALE
350
B27
  0
DICTIONARY
  5
A8D
102
{ACAD_REACTORS
330
A8C
102
}
330
A8C
100
AcDbDictionary
281
     1
  0
XRECORD
  5
AA7
102
{ACAD_REACTORS
330
AA6
102
}
330
AA6
100
AcDbXrecord
280
     1
290
     1
  0
SORTENTSTABLE
  5
CA1
102
{ACAD_REACTORS
330
CA0
102
}
330
CA0
100
AcDbSortentsTable
330
1F
331
407
  5
407
331
69F
  5
6A0
331
8FE
  5
92F
331
75F
  5
760
331
448
  5
449
331
6A0
  5
6A1
331
760
  5
761
331
449
  5
63E
331
92F
  5
A50
331
788
  5
7A1
331
6A1
  5
75C
331
C93
  5
C94
331
B9C
  5
C93
331
761
  5
762
331
7A1
  5
7A2
331
762
  5
775
331
7A2
  5
7A3
331
A50
  5
B9C
331
41C
  5
444
331
40B
  5
40C
331
444
  5
445
331
7A3
  5
7A4
331
75C
  5
75E
331
40C
  5
41C
331
445
  5
448
331
7A4
  5
8FE
331
C9F
  5
40B
331
775
  5
788
331
686
  5
69F
331
63E
  5
686
331
75E
  5
75F
  0
XRECORD
  5
DA2
102
{ACAD_REACTORS
330
D10
102
}
330
D10
100
AcDbXrecord
280
     1
 40
590972.0
  1
{\H1.0909x;NEW CONSTRUCTION - WALL TO SLAB - (WALL INBOARD OF SLAB)}\P\pxqr;{\H0.81818x;REFER TO APPLICATION INSTRUCTION 4.12 }
  0
DIMASSOC
  5
919
102
{ACAD_REACTORS
330
90D
102
}
330
90D
100
AcDbDimAssoc
330
8FE
 90
        2
 70
     0
 71
     0
  1
AcDbOsnapPointRef
 72
    13
331
7A4
 73
     2
 91
        0
 40
0.0
 10
0.0
 20
0.0
 30
2.000000000000000E+50
 75
     0
  0
DIMASSOC
  5
A6D
102
{ACAD_REACTORS
330
A60
102
}
330
A60
100
AcDbDimAssoc
330
A50
 90
        2
 70
     0
 71
     0
  1
AcDbOsnapPointRef
 72
    13
331
7A2
 73
     2
 91
        0
 40
0.0
 10
0.0
 20
0.0
 30
2.000000000000000E+50
 75
     0
  0
XRECORD
  5
AB9
102
{ACAD_REACTORS
330
AB8
102
}
330
AB8
100
AcDbXrecord
280
     1
 90
        1
340
969
  0
XRECORD
  5
ABE
102
{ACAD_REACTORS
330
ABD
102
}
330
ABD
100
AcDbXrecord
280
     1
 90
        1
340
AFA
  0
ACDBDETAILVIEWSTYLE
  5
D21
102
{ACAD_XDICTIONARY
360
D8C
102
}
102
{ACAD_REACTORS
330
D20
102
}
330
D20
100
AcDbModelDocViewStyle
 70
     0
  3
Imperial24
290
     0
100
AcDbDetailViewStyle
 70
     0
 71
     0
 90
        3
 71
     1
340
11
 62
   256
 40
0.24
340
0
 62
   256
 40
0.24
300

 40
0.36
280
     3
 71
     2
340
16
 90
       25
 62
   256
 71
     3
340
11
 62
   256
 40
0.24
 90
        1
 40
0.75
 90
        1
300
%<\AcVar ViewType \f "%tc1">% %<\AcVar ViewDetailId>%\PSCALE %<\AcVar ViewScale \f "%sn">%
 71
     4
340
16
 90
       25
 62
   256
340
16
 90
       25
 62
   256
280
     0
  0
LAYOUT
  5
59
102
{ACAD_XDICTIONARY
360
A91
102
}
102
{ACAD_REACTORS
330
1A
102
}
330
1A
100
AcDbPlotSettings
  1

  2
none_device
  4
Letter_(8.50_x_11.00_Inches)
  6

 40
6.349999904632568
 41
6.349999904632568
 42
6.350006103515625
 43
6.350006103515625
 44
215.8999938964844
 45
279.3999938964844
 46
0.0
 47
0.0
 48
0.0
 49
0.0
140
0.0
141
0.0
142
1.0
143
2.5
 70
   672
 72
     0
 73
     1
 74
     5
  7

 75
     0
147
0.25
 76
     1
 77
     2
 78
   300
148
0.0
149
0.0
100
AcDbLayout
  1
Layout1
 70
     1
 71
     1
 10
-0.6250006007397269
 20
-0.6249999906134418
 11
26.87499879852055
 21
20.62499940864683
 12
0.0
 22
0.0
 32
0.0
 14
1.007529963048968
 24
0.9229404614596592
 34
0.0
 15
24.85412004809521
 25
15.99688845628017
 35
0.0
146
0.0
 13
0.0
 23
0.0
 33
0.0
 16
1.0
 26
0.0
 36
0.0
 17
0.0
 27
1.0
 37
0.0
 76
     0
330
58
331
8D
  0
LAYOUT
  5
5E
102
{ACAD_XDICTIONARY
360
A9B
102
}
102
{ACAD_REACTORS
330
1A
102
}
330
1A
100
AcDbPlotSettings
  1

  2
none_device
  4
Letter_(8.50_x_11.00_Inches)
  6

 40
6.349999904632568
 41
6.349999904632568
 42
6.350006103515625
 43
6.350006103515625
 44
215.8999938964844
 45
279.3999938964844
 46
0.0
 47
0.0
 48
0.0
 49
0.0
140
0.0
141
0.0
142
1.0
143
1.0
 70
   688
 72
     0
 73
     1
 74
     5
  7

 75
    16
147
1.0
 76
     1
 77
     2
 78
   300
148
0.0
149
0.0
100
AcDbLayout
  1
Layout2
 70
     1
 71
     2
 10
-0.2500002402958907
 20
-0.2499999962453767
 11
10.74999951940821
 21
8.249999763458731
 12
0.0
 22
0.0
 32
0.0
 14
1.049999952316284
 24
0.7999999523162842
 34
0.0
 15
9.449999570846555
 25
7.199999570846556
 35
0.0
146
0.0
 13
0.0
 23
0.0
 33
0.0
 16
1.0
 26
0.0
 36
0.0
 17
0.0
 27
1.0
 37
0.0
 76
     0
330
5D
331
3B6
  0
LAYOUT
  5
AB1
102
{ACAD_XDICTIONARY
360
B17
102
}
102
{ACAD_REACTORS
330
1A
102
}
330
1A
100
AcDbPlotSettings
  1

  2
none_device
  4
Letter_(8.50_x_11.00_Inches)
  6

 40
6.349999904632568
 41
6.349999904632568
 42
6.350006103515625
 43
6.350006103515625
 44
215.8999938964844
 45
279.3999938964844
 46
0.0
 47
0.0
 48
0.0
 49
0.0
140
0.0
141
0.0
142
1.0
143
1.0
 70
   688
 72
     0
 73
     0
 74
     5
  7

 75
    16
147
1.0
 76
     0
 77
     2
 78
   300
148
0.0
149
0.0
100
AcDbLayout
  1
Layout3
 70
     1
 71
     3
 10
-0.2499999962453767
 20
-0.2499999962453767
 11
8.249999763458733
 21
10.74999976345873
 12
0.0
 22
0.0
 32
0.0
 14
-0.3463343147566178
 24
-0.615652900034668
 34
0.0
 15
8.564798468433693
 25
10.86031197662988
 35
0.0
146
0.0
 13
0.0
 23
0.0
 33
0.0
 16
1.0
 26
0.0
 36
0.0
 17
0.0
 27
1.0
 37
0.0
 76
     0
330
AB0
331
AB7
1001
ACAD_PSEXT
1000
None
1000
None
1000
Not applicable
1000
The layout will not be plotted unless a new plotter configuration name is selected.
1070
     0
  0
LAYOUT
  5
22
102
{ACAD_REACTORS
330
1A
102
}
330
1A
100
AcDbPlotSettings
  1

  2
none_device
  4
ANSI_A_(8.50_x_11.00_Inches)
  6

 40
6.349999904632568
 41
19.04999923706055
 42
6.350006103515625
 43
19.04998779296875
 44
215.8999938964844
 45
279.3999938964844
 46
0.0
 47
0.0
 48
0.0
 49
0.0
140
0.0
141
0.0
142
1.0
143
2.584895464708373
 70
 11952
 72
     0
 73
     1
 74
     0
  7

 75
     0
147
0.3868628397755418
 76
     0
 77
     2
 78
   300
148
0.0
149
0.0
100
AcDbLayout
  1
Model
 70
     1
 71
     0
 10
0.0
 20
0.0
 11
12.0
 21
9.0
 12
0.0
 22
0.0
 32
0.0
 14
0.0
 24
0.0
 34
0.0
 15
0.0
 25
0.0
 35
0.0
146
0.0
 13
0.0
 23
0.0
 33
0.0
 16
1.0
 26
0.0
 36
0.0
 17
0.0
 27
1.0
 37
0.0
 76
     0
330
1F
331
93B
  0
MATERIAL
  5
945
102
{ACAD_XDICTIONARY
360
946
102
}
102
{ACAD_REACTORS
330
72
102
}
330
72
100
AcDbMaterial
  1
ByBlock
 72
     0
 43
0.0008202099737533
 43
0.0
 43
0.0
 43
0.0
 43
0.0
 43
0.0008202099737533
 43
0.0
 43
0.0
 43
0.0
 43
0.0
 43
1.0
 43
0.0
 43
0.0
 43
0.0
 43
0.0
 43
1.0
 77
     0
 47
0.0008202099737533
 47
0.0
 47
0.0
 47
0.0
 47
0.0
 47
0.0008202099737533
 47
0.0
 47
0.0
 47
0.0
 47
0.0
 47
1.0
 47
0.0
 47
0.0
 47
0.0
 47
0.0
 47
1.0
171
     0
 49
0.0008202099737533
 49
0.0
 49
0.0
 49
0.0
 49
0.0
 49
0.0008202099737533
 49
0.0
 49
0.0
 49
0.0
 49
0.0
 49
1.0
 49
0.0
 49
0.0
 49
0.0
 49
0.0
 49
1.0
175
     0
142
0.0008202099737533
142
0.0
142
0.0
142
0.0
142
0.0
142
0.0008202099737533
142
0.0
142
0.0
142
0.0
142
0.0
142
1.0
142
0.0
142
0.0
142
0.0
142
0.0
142
1.0
179
     0
144
0.0008202099737533
144
0.0
144
0.0
144
0.0
144
0.0
144
0.0008202099737533
144
0.0
144
0.0
144
0.0
144
0.0
144
1.0
144
0.0
144
0.0
144
0.0
144
0.0
144
1.0
147
0.0008202099737533
147
0.0
147
0.0
147
0.0
147
0.0
147
0.0008202099737533
147
0.0
147
0.0
147
0.0
147
0.0
147
1.0
147
0.0
147
0.0
147
0.0
147
0.0
147
1.0
  0
MATERIAL
  5
93D
102
{ACAD_XDICTIONARY
360
93E
102
}
102
{ACAD_REACTORS
330
72
102
}
330
72
100
AcDbMaterial
  1
ByLayer
 72
     0
 43
0.0008202099737533
 43
0.0
 43
0.0
 43
0.0
 43
0.0
 43
0.0008202099737533
 43
0.0
 43
0.0
 43
0.0
 43
0.0
 43
1.0
 43
0.0
 43
0.0
 43
0.0
 43
0.0
 43
1.0
 77
     0
 47
0.0008202099737533
 47
0.0
 47
0.0
 47
0.0
 47
0.0
 47
0.0008202099737533
 47
0.0
 47
0.0
 47
0.0
 47
0.0
 47
1.0
 47
0.0
 47
0.0
 47
0.0
 47
0.0
 47
1.0
171
     0
 49
0.0008202099737533
 49
0.0
 49
0.0
 49
0.0
 49
0.0
 49
0.0008202099737533
 49
0.0
 49
0.0
 49
0.0
 49
0.0
 49
1.0
 49
0.0
 49
0.0
 49
0.0
 49
0.0
 49
1.0
175
     0
142
0.0008202099737533
142
0.0
142
0.0
142
0.0
142
0.0
142
0.0008202099737533
142
0.0
142
0.0
142
0.0
142
0.0
142
1.0
142
0.0
142
0.0
142
0.0
142
0.0
142
1.0
179
     0
144
0.0008202099737533
144
0.0
144
0.0
144
0.0
144
0.0
144
0.0008202099737533
144
0.0
144
0.0
144
0.0
144
0.0
144
1.0
144
0.0
144
0.0
144
0.0
144
0.0
144
1.0
147
0.0008202099737533
147
0.0
147
0.0
147
0.0
147
0.0
147
0.0008202099737533
147
0.0
147
0.0
147
0.0
147
0.0
147
1.0
147
0.0
147
0.0
147
0.0
147
0.0
147
1.0
  0
MATERIAL
  5
94D
102
{ACAD_XDICTIONARY
360
94E
102
}
102
{ACAD_REACTORS
330
72
102
}
330
72
100
AcDbMaterial
  1
Global
 72
     0
 43
0.0008202099737533
 43
0.0
 43
0.0
 43
0.0
 43
0.0
 43
0.0008202099737533
 43
0.0
 43
0.0
 43
0.0
 43
0.0
 43
1.0
 43
0.0
 43
0.0
 43
0.0
 43
0.0
 43
1.0
 77
     0
 47
0.0008202099737533
 47
0.0
 47
0.0
 47
0.0
 47
0.0
 47
0.0008202099737533
 47
0.0
 47
0.0
 47
0.0
 47
0.0
 47
1.0
 47
0.0
 47
0.0
 47
0.0
 47
0.0
 47
1.0
171
     0
 49
0.0008202099737533
 49
0.0
 49
0.0
 49
0.0
 49
0.0
 49
0.0008202099737533
 49
0.0
 49
0.0
 49
0.0
 49
0.0
 49
1.0
 49
0.0
 49
0.0
 49
0.0
 49
0.0
 49
1.0
175
     0
142
0.0008202099737533
142
0.0
142
0.0
142
0.0
142
0.0
142
0.0008202099737533
142
0.0
142
0.0
142
0.0
142
0.0
142
1.0
142
0.0
142
0.0
142
0.0
142
0.0
142
1.0
179
     0
144
0.0008202099737533
144
0.0
144
0.0
144
0.0
144
0.0
144
0.0008202099737533
144
0.0
144
0.0
144
0.0
144
0.0
144
1.0
144
0.0
144
0.0
144
0.0
144
0.0
144
1.0
147
0.0008202099737533
147
0.0
147
0.0
147
0.0
147
0.0
147
0.0008202099737533
147
0.0
147
0.0
147
0.0
147
0.0
147
1.0
147
0.0
147
0.0
147
0.0
147
0.0
147
1.0
  0
MLEADERSTYLE
  5
98B
102
{ACAD_REACTORS
330
98A
102
}
330
98A
100
AcDbMLeaderStyle
179
     2
170
     2
171
     1
172
     0
 90
        2
 40
0.0
 41
0.0
173
     1
 91
-1056964608
340
14
 92
       -2
290
     1
 42
0.09
291
     1
 43
0.36
  3
Standard
 44
0.18
300

342
11
174
     1
178
     6
175
     1
176
     0
 93
-1056964608
 45
0.18
292
     0
297
     0
 46
0.18
 94
-1056964608
 47
1.0
 49
1.0
140
1.0
293
     1
141
0.0
294
     1
177
     0
142
1.0
295
     1
296
     0
143
0.125
271
     0
272
     9
273
     9
298
     0
  0
MLINESTYLE
  5
18
102
{ACAD_REACTORS
330
17
102
}
330
17
100
AcDbMlineStyle
  2
STANDARD
 70
     0
  3

 62
   256
 51
90.0
 52
90.0
 71
     2
 49
0.5
 62
   256
  6
BYLAYER
 49
-0.5
 62
   256
  6
BYLAYER
  0
ACDBPLACEHOLDER
  5
F
102
{ACAD_REACTORS
330
E
102
}
330
E
  0
SCALE
  5
969
102
{ACAD_REACTORS
330
968
102
}
330
968
100
AcDbScale
 70
     0
300
1:1
140
1.0
141
1.0
290
     1
  0
SCALE
  5
AF0
102
{ACAD_REACTORS
330
968
102
}
330
968
100
AcDbScale
 70
     0
300
1:2
140
1.0
141
2.0
290
     0
  0
SCALE
  5
AF1
102
{ACAD_REACTORS
330
968
102
}
330
968
100
AcDbScale
 70
     0
300
1:4
140
1.0
141
4.0
290
     0
  0
SCALE
  5
AF2
102
{ACAD_REACTORS
330
968
102
}
330
968
100
AcDbScale
 70
     0
300
1:5
140
1.0
141
5.0
290
     0
  0
SCALE
  5
AF3
102
{ACAD_REACTORS
330
968
102
}
330
968
100
AcDbScale
 70
     0
300
1:8
140
1.0
141
8.0
290
     0
  0
SCALE
  5
AF4
102
{ACAD_REACTORS
330
968
102
}
330
968
100
AcDbScale
 70
     0
300
1:10
140
1.0
141
10.0
290
     0
  0
SCALE
  5
AF5
102
{ACAD_REACTORS
330
968
102
}
330
968
100
AcDbScale
 70
     0
300
1:16
140
1.0
141
16.0
290
     0
  0
SCALE
  5
AF6
102
{ACAD_REACTORS
330
968
102
}
330
968
100
AcDbScale
 70
     0
300
1:20
140
1.0
141
20.0
290
     0
  0
SCALE
  5
AF7
102
{ACAD_REACTORS
330
968
102
}
330
968
100
AcDbScale
 70
     0
300
1:30
140
1.0
141
30.0
290
     0
  0
SCALE
  5
AF8
102
{ACAD_REACTORS
330
968
102
}
330
968
100
AcDbScale
 70
     0
300
1:40
140
1.0
141
40.0
290
     0
  0
SCALE
  5
AF9
102
{ACAD_REACTORS
330
968
102
}
330
968
100
AcDbScale
 70
     0
300
1:50
140
1.0
141
50.0
290
     0
  0
SCALE
  5
AFA
102
{ACAD_REACTORS
330
968
102
}
330
968
100
AcDbScale
 70
     0
300
1:100
140
1.0
141
100.0
290
     0
  0
SCALE
  5
AFB
102
{ACAD_REACTORS
330
968
102
}
330
968
100
AcDbScale
 70
     0
300
2:1
140
2.0
141
1.0
290
     0
  0
SCALE
  5
AFC
102
{ACAD_REACTORS
330
968
102
}
330
968
100
AcDbScale
 70
     0
300
4:1
140
4.0
141
1.0
290
     0
  0
SCALE
  5
AFD
102
{ACAD_REACTORS
330
968
102
}
330
968
100
AcDbScale
 70
     0
300
8:1
140
8.0
141
1.0
290
     0
  0
SCALE
  5
AFE
102
{ACAD_REACTORS
330
968
102
}
330
968
100
AcDbScale
 70
     0
300
10:1
140
10.0
141
1.0
290
     0
  0
SCALE
  5
AFF
102
{ACAD_REACTORS
330
968
102
}
330
968
100
AcDbScale
 70
     0
300
100:1
140
100.0
141
1.0
290
     0
  0
SCALE
  5
B00
102
{ACAD_REACTORS
330
968
102
}
330
968
100
AcDbScale
 70
     0
300
1/128" = 1'-0"
140
0.0078125
141
12.0
290
     0
  0
SCALE
  5
B01
102
{ACAD_REACTORS
330
968
102
}
330
968
100
AcDbScale
 70
     0
300
1/64" = 1'-0"
140
0.015625
141
12.0
290
     0
  0
SCALE
  5
B02
102
{ACAD_REACTORS
330
968
102
}
330
968
100
AcDbScale
 70
     0
300
1/32" = 1'-0"
140
0.03125
141
12.0
290
     0
  0
SCALE
  5
B03
102
{ACAD_REACTORS
330
968
102
}
330
968
100
AcDbScale
 70
     0
300
1/16" = 1'-0"
140
0.0625
141
12.0
290
     0
  0
SCALE
  5
B04
102
{ACAD_REACTORS
330
968
102
}
330
968
100
AcDbScale
 70
     0
300
3/32" = 1'-0"
140
0.09375
141
12.0
290
     0
  0
SCALE
  5
B05
102
{ACAD_REACTORS
330
968
102
}
330
968
100
AcDbScale
 70
     0
300
1/8" = 1'-0"
140
0.125
141
12.0
290
     0
  0
SCALE
  5
B06
102
{ACAD_REACTORS
330
968
102
}
330
968
100
AcDbScale
 70
     0
300
3/16" = 1'-0"
140
0.1875
141
12.0
290
     0
  0
SCALE
  5
B07
102
{ACAD_REACTORS
330
968
102
}
330
968
100
AcDbScale
 70
     0
300
1/4" = 1'-0"
140
0.25
141
12.0
290
     0
  0
SCALE
  5
B08
102
{ACAD_REACTORS
330
968
102
}
330
968
100
AcDbScale
 70
     0
300
3/8" = 1'-0"
140
0.375
141
12.0
290
     0
  0
SCALE
  5
B09
102
{ACAD_REACTORS
330
968
102
}
330
968
100
AcDbScale
 70
     0
300
1/2" = 1'-0"
140
0.5
141
12.0
290
     0
  0
SCALE
  5
B0A
102
{ACAD_REACTORS
330
968
102
}
330
968
100
AcDbScale
 70
     0
300
3/4" = 1'-0"
140
0.75
141
12.0
290
     0
  0
SCALE
  5
B0B
102
{ACAD_REACTORS
330
968
102
}
330
968
100
AcDbScale
 70
     0
300
1" = 1'-0"
140
1.0
141
12.0
290
     0
  0
SCALE
  5
B0C
102
{ACAD_REACTORS
330
968
102
}
330
968
100
AcDbScale
 70
     0
300
1-1/2" = 1'-0"
140
1.5
141
12.0
290
     0
  0
SCALE
  5
B0D
102
{ACAD_REACTORS
330
968
102
}
330
968
100
AcDbScale
 70
     0
300
3" = 1'-0"
140
3.0
141
12.0
290
     0
  0
SCALE
  5
B0E
102
{ACAD_REACTORS
330
968
102
}
330
968
100
AcDbScale
 70
     0
300
6" = 1'-0"
140
6.0
141
12.0
290
     0
  0
SCALE
  5
B0F
102
{ACAD_REACTORS
330
968
102
}
330
968
100
AcDbScale
 70
     0
300
1'-0" = 1'-0"
140
12.0
141
12.0
290
     0
  0
ACDBSECTIONVIEWSTYLE
  5
D1F
102
{ACAD_XDICTIONARY
360
D8A
102
}
102
{ACAD_REACTORS
330
D1E
102
}
330
D1E
100
AcDbModelDocViewStyle
 70
     0
  3
Imperial24
290
     0
100
AcDbSectionViewStyle
 70
     0
 71
     0
 90
       78
 71
     1
340
11
 62
   256
 40
0.24
340
0
340
0
 62
   256
 40
0.24
300
I, O, Q, S, X, Z
 40
0.48
 90
        3
 40
0.18
 90
        1
 71
     2
340
16
 90
       25
 62
   256
340
16
 90
       50
 62
   256
 40
0.24
 40
0.0
 40
0.24
 71
     3
340
11
 62
   256
 40
0.24
 90
        1
 40
0.75
 90
        1
300
%<\AcVar ViewType \f "%tc1">% %<\AcVar ViewSectionStartId>%-%<\AcVar ViewSectionEndId>%\PSCALE %<\AcVar ViewScale \f "%sn">%
 71
     4
 62
   256
 62
   257
300
ANSI31
 40
1.0
 90
        0
290
     0
290
     0
 90
        6
 40
0.0
 40
1.570796326794896
 40
0.2617993877991494
 40
1.308996938995747
 40
-0.2617993877991494
 40
1.832595714594046
  0
TABLESTYLE
  5
967
102
{ACAD_XDICTIONARY
360
B22
102
}
102
{ACAD_REACTORS
330
966
102
}
330
966
100
AcDbTableStyle
280
     0
  3
Standard
 70
     0
 71
     0
 40
0.06
 41
0.06
280
     0
281
     0
  7
Standard
140
0.18
170
     2
 62
     0
 63
     7
283
     0
 90
      512
 91
        0
  1

274
    -2
284
     1
 64
     0
275
    -2
285
     1
 65
     0
276
    -2
286
     1
 66
     0
277
    -2
287
     1
 67
     0
278
    -2
288
     1
 68
     0
279
    -2
289
     1
 69
     0
  7
Standard
140
0.25
170
     5
 62
     0
 63
     7
283
     0
 90
      512
 91
        0
  1

274
    -2
284
     1
 64
     0
275
    -2
285
     1
 65
     0
276
    -2
286
     1
 66
     0
277
    -2
287
     1
 67
     0
278
    -2
288
     1
 68
     0
279
    -2
289
     1
 69
     0
  7
Standard
140
0.18
170
     5
 62
     0
 63
     7
283
     0
 90
      512
 91
        0
  1

274
    -2
284
     1
 64
     0
275
    -2
285
     1
 65
     0
276
    -2
286
     1
 66
     0
277
    -2
287
     1
 67
     0
278
    -2
288
     1
 68
     0
279
    -2
289
     1
 69
     0
  0
VISUALSTYLE
  5
95B
102
{ACAD_REACTORS
330
955
102
}
330
955
100
AcDbVisualStyle
  2
2dWireframe
 70
     4
177
     3
291
     0
 70
    58
 90
        0
176
     1
 90
        2
176
     1
 90
        0
176
     1
 90
        0
176
     1
 40
0.6
176
     1
 40
30.0
176
     1
 62
     7
420
 16777215
176
     1
 90
        1
176
     1
 90
        4
176
     1
 62
     7
176
     1
 62
   257
176
     1
 90
        1
176
     1
 90
        1
176
     1
 40
1.0
176
     1
 90
        0
176
     1
 62
   257
176
     1
 40
1.0
176
     1
 90
        1
176
     1
 90
        6
176
     1
 90
        2
176
     1
 62
     7
176
     1
 90
        5
176
     1
 90
        0
176
     1
 90
        0
176
     1
290
     0
176
     1
 90
        1
176
     1
 40
0.0
176
     1
 90
        0
176
     1
290
     1
176
     1
290
     1
176
     1
290
     0
176
     1
290
     0
176
     1
290
     0
176
     1
290
     0
176
     1
290
     0
176
     1
290
     0
176
     1
290
     0
176
     1
 90
       50
176
     1
 40
0.0
176
     1
 40
1.0
176
     1
 90
        0
176
     1
 62
    18
420
        0
176
     1
 90
       50
176
     1
 90
        3
176
     1
 62
     5
420
      255
176
     1
290
     0
176
     1
 90
       50
176
     1
 90
       50
176
     1
 90
       50
176
     1
290
     0
176
     1
 90
       50
176
     1
 62
   256
176
     0
 40
1.0
176
     0
 90
        2
176
     1
  1
strokes_ogs.tif
176
     1
290
     0
176
     1
 40
1.0
176
     1
 40
1.0
176
     1
  0
VISUALSTYLE
  5
95D
102
{ACAD_REACTORS
330
955
102
}
330
955
100
AcDbVisualStyle
  2
3D Hidden
 70
     6
177
     3
291
     0
 70
    58
 90
        1
176
     1
 90
        2
176
     1
 90
        2
176
     1
 90
        0
176
     1
 40
0.6
176
     1
 40
30.0
176
     1
 62
     7
420
 16777215
176
     1
 90
        2
176
     1
 90
        2
176
     1
 62
     7
176
     1
 62
   257
176
     1
 90
        2
176
     1
 90
        1
176
     1
 40
40.0
176
     1
 90
        0
176
     1
 62
   257
176
     1
 40
1.0
176
     1
 90
        1
176
     1
 90
        6
176
     1
 90
        2
176
     1
 62
     7
176
     1
 90
        3
176
     1
 90
        0
176
     1
 90
        0
176
     1
290
     0
176
     1
 90
        1
176
     1
 40
0.0
176
     1
 90
        0
176
     1
290
     0
176
     1
290
     1
176
     1
290
     1
176
     1
290
     0
176
     1
290
     0
176
     1
290
     0
176
     1
290
     0
176
     1
290
     0
176
     1
290
     0
176
     1
 90
       50
176
     1
 40
0.0
176
     1
 40
1.0
176
     1
 90
        0
176
     1
 62
    18
420
        0
176
     1
 90
       50
176
     1
 90
        3
176
     1
 62
     5
420
      255
176
     1
290
     0
176
     1
 90
       50
176
     1
 90
       50
176
     1
 90
       50
176
     1
290
     0
176
     1
 90
       50
176
     1
 62
   256
176
     0
 40
1.0
176
     0
 90
        2
176
     1
  1
strokes_ogs.tif
176
     1
290
     0
176
     1
 40
1.0
176
     1
 40
1.0
176
     1
  0
VISUALSTYLE
  5
95C
102
{ACAD_REACTORS
330
955
102
}
330
955
100
AcDbVisualStyle
  2
3dWireframe
 70
     5
177
     3
291
     0
 70
    58
 90
        0
176
     1
 90
        2
176
     1
 90
        0
176
     1
 90
        0
176
     1
 40
0.6
176
     1
 40
30.0
176
     1
 62
     7
420
 16777215
176
     1
 90
        1
176
     1
 90
        4
176
     1
 62
     7
176
     1
 62
   257
176
     1
 90
        1
176
     1
 90
        1
176
     1
 40
1.0
176
     1
 90
        0
176
     1
 62
   257
176
     1
 40
1.0
176
     1
 90
        1
176
     1
 90
        6
176
     1
 90
        2
176
     1
 62
     7
176
     1
 90
        5
176
     1
 90
        0
176
     1
 90
        0
176
     1
290
     0
176
     1
 90
        1
176
     1
 40
0.0
176
     1
 90
        0
176
     1
290
     0
176
     1
290
     1
176
     1
290
     1
176
     1
290
     0
176
     1
290
     0
176
     1
290
     0
176
     1
290
     0
176
     1
290
     0
176
     1
290
     0
176
     1
 90
       50
176
     1
 40
0.0
176
     1
 40
1.0
176
     1
 90
        0
176
     1
 62
    18
420
        0
176
     1
 90
       50
176
     1
 90
        3
176
     1
 62
     5
420
      255
176
     1
290
     0
176
     1
 90
       50
176
     1
 90
       50
176
     1
 90
       50
176
     1
290
     0
176
     1
 90
       50
176
     1
 62
   256
176
     0
 40
1.0
176
     0
 90
        2
176
     1
  1
strokes_ogs.tif
176
     1
290
     0
176
     1
 40
1.0
176
     1
 40
1.0
176
     1
  0
VISUALSTYLE
  5
95A
102
{ACAD_REACTORS
330
955
102
}
330
955
100
AcDbVisualStyle
  2
Basic
 70
     7
177
     3
291
     1
 70
    58
 90
        1
176
     1
 90
        0
176
     1
 90
        1
176
     1
 90
        0
176
     1
 40
0.6
176
     1
 40
30.0
176
     1
 62
     7
420
 16777215
176
     1
 90
        0
176
     1
 90
        4
176
     1
 62
     7
176
     1
 62
   257
176
     1
 90
        1
176
     1
 90
        1
176
     1
 40
1.0
176
     1
 90
        8
176
     1
 62
     7
176
     1
 40
1.0
176
     1
 90
        1
176
     1
 90
        6
176
     1
 90
        2
176
     1
 62
     7
176
     1
 90
        5
176
     1
 90
        0
176
     1
 90
        0
176
     1
290
     0
176
     1
 90
        1
176
     1
 40
0.0
176
     1
 90
        0
176
     1
290
     0
176
     1
290
     1
176
     1
290
     1
176
     1
290
     0
176
     1
290
     0
176
     1
290
     0
176
     1
290
     0
176
     1
290
     0
176
     1
290
     0
176
     1
 90
       50
176
     1
 40
0.0
176
     1
 40
1.0
176
     1
 90
        0
176
     1
 62
    18
420
        0
176
     1
 90
       50
176
     1
 90
        3
176
     1
 62
     5
420
      255
176
     1
290
     0
176
     1
 90
       50
176
     1
 90
       50
176
     1
 90
       50
176
     1
290
     0
176
     1
 90
       50
176
     1
 62
   256
176
     0
 40
1.0
176
     0
 90
        2
176
     1
  1
strokes_ogs.tif
176
     1
290
     0
176
     1
 40
1.0
176
     1
 40
1.0
176
     1
  0
VISUALSTYLE
  5
961
102
{ACAD_REACTORS
330
955
102
}
330
955
100
AcDbVisualStyle
  2
Brighten
 70
    12
177
     3
291
     1
 70
    58
 90
        2
176
     1
 90
        2
176
     1
 90
        0
176
     1
 90
        0
176
     1
 40
0.6
176
     1
 40
30.0
176
     1
 62
     7
420
 16777215
176
     1
 90
        1
176
     1
 90
        4
176
     1
 62
     7
176
     1
 62
   257
176
     1
 90
        1
176
     1
 90
        1
176
     1
 40
1.0
176
     1
 90
        8
176
     1
 62
     7
176
     1
 40
1.0
176
     1
 90
        1
176
     1
 90
        6
176
     1
 90
        2
176
     1
 62
     7
176
     1
 90
        5
176
     1
 90
        0
176
     1
 90
        0
176
     1
290
     0
176
     1
 90
        1
176
     1
 40
50.0
176
     1
 90
        0
176
     1
290
     0
176
     1
290
     1
176
     1
290
     1
176
     1
290
     0
176
     1
290
     0
176
     1
290
     0
176
     1
290
     0
176
     1
290
     0
176
     1
290
     0
176
     1
 90
       50
176
     1
 40
0.0
176
     1
 40
1.0
176
     1
 90
        0
176
     1
 62
    18
420
        0
176
     1
 90
       50
176
     1
 90
        3
176
     1
 62
     5
420
      255
176
     1
290
     0
176
     1
 90
       50
176
     1
 90
       50
176
     1
 90
       50
176
     1
290
     0
176
     1
 90
       50
176
     1
 62
   256
176
     0
 40
1.0
176
     0
 90
        2
176
     1
  1
strokes_ogs.tif
176
     1
290
     0
176
     1
 40
1.0
176
     1
 40
1.0
176
     1
  0
VISUALSTYLE
  5
965
102
{ACAD_REACTORS
330
955
102
}
330
955
100
AcDbVisualStyle
  2
ColorChange
 70
    16
177
     3
291
     1
 70
    58
 90
        2
176
     1
 90
        2
176
     1
 90
        3
176
     1
 90
        0
176
     1
 40
0.6
176
     1
 40
30.0
176
     1
 62
     8
420
  8421504
176
     1
 90
        1
176
     1
 90
        4
176
     1
 62
     7
176
     1
 62
   257
176
     1
 90
        1
176
     1
 90
        1
176
     1
 40
1.0
176
     1
 90
        8
176
     1
 62
     8
420
  8421504
176
     1
 40
1.0
176
     1
 90
        1
176
     1
 90
        6
176
     1
 90
        2
176
     1
 62
     7
176
     1
 90
        5
176
     1
 90
        0
176
     1
 90
        0
176
     1
290
     0
176
     1
 90
        1
176
     1
 40
0.0
176
     1
 90
        0
176
     1
290
     0
176
     1
290
     1
176
     1
290
     1
176
     1
290
     0
176
     1
290
     0
176
     1
290
     0
176
     1
290
     0
176
     1
290
     0
176
     1
290
     0
176
     1
 90
       50
176
     1
 40
0.0
176
     1
 40
1.0
176
     1
 90
        0
176
     1
 62
    18
420
        0
176
     1
 90
       50
176
     1
 90
        3
176
     1
 62
     5
420
      255
176
     1
290
     0
176
     1
 90
       50
176
     1
 90
       50
176
     1
 90
       50
176
     1
290
     0
176
     1
 90
       50
176
     1
 62
   256
176
     0
 40
1.0
176
     0
 90
        2
176
     1
  1
strokes_ogs.tif
176
     1
290
     0
176
     1
 40
1.0
176
     1
 40
1.0
176
     1
  0
VISUALSTYLE
  5
95E
102
{ACAD_REACTORS
330
955
102
}
330
955
100
AcDbVisualStyle
  2
Conceptual
 70
     9
177
     3
291
     0
 70
    58
 90
        3
176
     1
 90
        2
176
     1
 90
        0
176
     1
 90
        0
176
     1
 40
0.6
176
     1
 40
30.0
176
     1
 62
     7
420
 16777215
176
     1
 90
        2
176
     1
 90
        2
176
     1
 62
     7
176
     1
 62
   257
176
     1
 90
        1
176
     1
 90
        1
176
     1
 40
40.0
176
     1
 90
        8
176
     1
 62
     7
176
     1
 40
1.0
176
     1
 90
        1
176
     1
 90
        6
176
     1
 90
        2
176
     1
 62
     7
176
     1
 90
        3
176
     1
 90
        0
176
     1
 90
        0
176
     1
290
     0
176
     1
 90
        1
176
     1
 40
0.0
176
     1
 90
        0
176
     1
290
     0
176
     1
290
     1
176
     1
290
     1
176
     1
290
     0
176
     1
290
     0
176
     1
290
     0
176
     1
290
     0
176
     1
290
     0
176
     1
290
     0
176
     1
 90
       50
176
     1
 40
0.0
176
     1
 40
1.0
176
     1
 90
        0
176
     1
 62
    18
420
        0
176
     1
 90
       50
176
     1
 90
        3
176
     1
 62
     5
420
      255
176
     1
290
     0
176
     1
 90
       50
176
     1
 90
       50
176
     1
 90
       50
176
     1
290
     0
176
     1
 90
       50
176
     1
 62
   256
176
     0
 40
1.0
176
     0
 90
        2
176
     1
  1
strokes_ogs.tif
176
     1
290
     0
176
     1
 40
1.0
176
     1
 40
1.0
176
     1
  0
VISUALSTYLE
  5
960
102
{ACAD_REACTORS
330
955
102
}
330
955
100
AcDbVisualStyle
  2
Dim
 70
    11
177
     3
291
     1
 70
    58
 90
        2
176
     1
 90
        2
176
     1
 90
        0
176
     1
 90
        0
176
     1
 40
0.6
176
     1
 40
30.0
176
     1
 62
     7
420
 16777215
176
     1
 90
        1
176
     1
 90
        4
176
     1
 62
     7
176
     1
 62
   257
176
     1
 90
        1
176
     1
 90
        1
176
     1
 40
1.0
176
     1
 90
        8
176
     1
 62
     7
176
     1
 40
1.0
176
     1
 90
        1
176
     1
 90
        6
176
     1
 90
        2
176
     1
 62
     7
176
     1
 90
        5
176
     1
 90
        0
176
     1
 90
        0
176
     1
290
     0
176
     1
 90
        1
176
     1
 40
-50.0
176
     1
 90
        0
176
     1
290
     0
176
     1
290
     1
176
     1
290
     1
176
     1
290
     0
176
     1
290
     0
176
     1
290
     0
176
     1
290
     0
176
     1
290
     0
176
     1
290
     0
176
     1
 90
       50
176
     1
 40
0.0
176
     1
 40
1.0
176
     1
 90
        0
176
     1
 62
    18
420
        0
176
     1
 90
       50
176
     1
 90
        3
176
     1
 62
     5
420
      255
176
     1
290
     0
176
     1
 90
       50
176
     1
 90
       50
176
     1
 90
       50
176
     1
290
     0
176
     1
 90
       50
176
     1
 62
   256
176
     0
 40
1.0
176
     0
 90
        2
176
     1
  1
strokes_ogs.tif
176
     1
290
     0
176
     1
 40
1.0
176
     1
 40
1.0
176
     1
  0
VISUALSTYLE
  5
D1D
102
{ACAD_REACTORS
330
955
102
}
330
955
100
AcDbVisualStyle
  2
EdgeColorOff
 70
    22
177
     3
291
     1
 70
    58
 90
        2
176
     0
 90
        2
176
     0
 90
        0
176
     0
 90
        0
176
     0
 40
0.6
176
     0
 40
30.0
176
     0
 62
     7
420
 16777215
176
     0
 90
        1
176
     0
 90
        4
176
     0
 62
     7
176
     0
 62
   257
176
     0
 90
        1
176
     0
 90
        1
176
     0
 40
1.0
176
     0
 90
        8
176
     2
 62
     7
176
     0
 40
1.0
176
     0
 90
        1
176
     0
 90
        6
176
     0
 90
        2
176
     0
 62
     7
176
     0
 90
        5
176
     0
 90
        0
176
     0
 90
        0
176
     0
290
     0
176
     0
 90
        1
176
     0
 40
0.0
176
     0
 90
        0
176
     0
290
     0
176
     0
290
     1
176
     0
290
     1
176
     0
290
     0
176
     0
290
     0
176
     0
290
     0
176
     0
290
     0
176
     0
290
     0
176
     0
290
     0
176
     0
 90
       50
176
     0
 40
0.0
176
     0
 40
1.0
176
     0
 90
        0
176
     0
 62
    18
420
        0
176
     0
 90
       50
176
     0
 90
        3
176
     0
 62
     5
420
      255
176
     0
290
     0
176
     0
 90
       50
176
     0
 90
       50
176
     0
 90
       50
176
     0
290
     0
176
     0
 90
       50
176
     0
 62
   256
176
     0
 40
1.0
176
     0
 90
        2
176
     0
  1
strokes_ogs.tif
176
     0
290
     0
176
     0
 40
1.0
176
     0
 40
1.0
176
     0
  0
VISUALSTYLE
  5
964
102
{ACAD_REACTORS
330
955
102
}
330
955
100
AcDbVisualStyle
  2
Facepattern
 70
    15
177
     3
291
     1
 70
    58
 90
        2
176
     1
 90
        2
176
     1
 90
        0
176
     1
 90
        0
176
     1
 40
0.6
176
     1
 40
30.0
176
     1
 62
     7
420
 16777215
176
     1
 90
        1
176
     1
 90
        4
176
     1
 62
     7
176
     1
 62
   257
176
     1
 90
        1
176
     1
 90
        1
176
     1
 40
1.0
176
     1
 90
        8
176
     1
 62
     7
176
     1
 40
1.0
176
     1
 90
        1
176
     1
 90
        6
176
     1
 90
        2
176
     1
 62
     7
176
     1
 90
        5
176
     1
 90
        0
176
     1
 90
        0
176
     1
290
     0
176
     1
 90
        1
176
     1
 40
0.0
176
     1
 90
        0
176
     1
290
     0
176
     1
290
     1
176
     1
290
     1
176
     1
290
     0
176
     1
290
     0
176
     1
290
     0
176
     1
290
     0
176
     1
290
     0
176
     1
290
     0
176
     1
 90
       50
176
     1
 40
0.0
176
     1
 40
1.0
176
     1
 90
        0
176
     1
 62
    18
420
        0
176
     1
 90
       50
176
     1
 90
        3
176
     1
 62
     5
420
      255
176
     1
290
     0
176
     1
 90
       50
176
     1
 90
       50
176
     1
 90
       50
176
     1
290
     0
176
     1
 90
       50
176
     1
 62
   256
176
     0
 40
1.0
176
     0
 90
        2
176
     1
  1
strokes_ogs.tif
176
     1
290
     0
176
     1
 40
1.0
176
     1
 40
1.0
176
     1
  0
VISUALSTYLE
  5
956
102
{ACAD_REACTORS
330
955
102
}
330
955
100
AcDbVisualStyle
  2
Flat
 70
     0
177
     3
291
     1
 70
    58
 90
        2
176
     1
 90
        1
176
     1
 90
        1
176
     1
 90
        2
176
     1
 40
0.6
176
     1
 40
30.0
176
     1
 62
     7
420
 16777215
176
     1
 90
        0
176
     1
 90
        4
176
     1
 62
     7
176
     1
 62
   257
176
     1
 90
        1
176
     1
 90
        1
176
     1
 40
1.0
176
     1
 90
        8
176
     1
 62
     7
176
     1
 40
1.0
176
     1
 90
        1
176
     1
 90
        6
176
     1
 90
        2
176
     1
 62
     7
176
     1
 90
        5
176
     1
 90
        0
176
     1
 90
        0
176
     1
290
     0
176
     1
 90
       13
176
     1
 40
0.0
176
     1
 90
        0
176
     1
290
     0
176
     1
290
     1
176
     1
290
     1
176
     1
290
     0
176
     1
290
     0
176
     1
290
     0
176
     1
290
     0
176
     1
290
     0
176
     1
290
     0
176
     1
 90
       50
176
     1
 40
0.0
176
     1
 40
1.0
176
     1
 90
        0
176
     1
 62
    18
420
        0
176
     1
 90
       50
176
     1
 90
        3
176
     1
 62
     5
420
      255
176
     1
290
     0
176
     1
 90
       50
176
     1
 90
       50
176
     1
 90
       50
176
     1
290
     0
176
     1
 90
       50
176
     1
 62
   256
176
     0
 40
1.0
176
     0
 90
        2
176
     1
  1
strokes_ogs.tif
176
     1
290
     0
176
     1
 40
1.0
176
     1
 40
1.0
176
     1
  0
VISUALSTYLE
  5
957
102
{ACAD_REACTORS
330
955
102
}
330
955
100
AcDbVisualStyle
  2
FlatWithEdges
 70
     1
177
     3
291
     1
 70
    58
 90
        2
176
     1
 90
        1
176
     1
 90
        1
176
     1
 90
        2
176
     1
 40
0.6
176
     1
 40
30.0
176
     1
 62
     7
420
 16777215
176
     1
 90
        1
176
     1
 90
        4
176
     1
 62
     7
176
     1
 62
   257
176
     1
 90
        1
176
     1
 90
        1
176
     1
 40
1.0
176
     1
 90
        0
176
     1
 62
   257
176
     1
 40
1.0
176
     1
 90
        1
176
     1
 90
        6
176
     1
 90
        2
176
     1
 62
     7
176
     1
 90
        5
176
     1
 90
        0
176
     1
 90
        0
176
     1
290
     0
176
     1
 90
       13
176
     1
 40
0.0
176
     1
 90
        0
176
     1
290
     0
176
     1
290
     1
176
     1
290
     1
176
     1
290
     0
176
     1
290
     0
176
     1
290
     0
176
     1
290
     0
176
     1
290
     0
176
     1
290
     0
176
     1
 90
       50
176
     1
 40
0.0
176
     1
 40
1.0
176
     1
 90
        0
176
     1
 62
    18
420
        0
176
     1
 90
       50
176
     1
 90
        3
176
     1
 62
     5
420
      255
176
     1
290
     0
176
     1
 90
       50
176
     1
 90
       50
176
     1
 90
       50
176
     1
290
     0
176
     1
 90
       50
176
     1
 62
   256
176
     0
 40
1.0
176
     0
 90
        2
176
     1
  1
strokes_ogs.tif
176
     1
290
     0
176
     1
 40
1.0
176
     1
 40
1.0
176
     1
  0
VISUALSTYLE
  5
958
102
{ACAD_REACTORS
330
955
102
}
330
955
100
AcDbVisualStyle
  2
Gouraud
 70
     2
177
     3
291
     1
 70
    58
 90
        2
176
     1
 90
        2
176
     1
 90
        1
176
     1
 90
        2
176
     1
 40
0.6
176
     1
 40
30.0
176
     1
 62
     7
420
 16777215
176
     1
 90
        0
176
     1
 90
        4
176
     1
 62
     7
176
     1
 62
   257
176
     1
 90
        1
176
     1
 90
        1
176
     1
 40
1.0
176
     1
 90
        0
176
     1
 62
     7
176
     1
 40
1.0
176
     1
 90
        1
176
     1
 90
        6
176
     1
 90
        2
176
     1
 62
     7
176
     1
 90
        5
176
     1
 90
        0
176
     1
 90
        0
176
     1
290
     0
176
     1
 90
       13
176
     1
 40
0.0
176
     1
 90
        0
176
     1
290
     0
176
     1
290
     1
176
     1
290
     1
176
     1
290
     0
176
     1
290
     0
176
     1
290
     0
176
     1
290
     0
176
     1
290
     0
176
     1
290
     0
176
     1
 90
       50
176
     1
 40
0.0
176
     1
 40
1.0
176
     1
 90
        0
176
     1
 62
    18
420
        0
176
     1
 90
       50
176
     1
 90
        3
176
     1
 62
     5
420
      255
176
     1
290
     0
176
     1
 90
       50
176
     1
 90
       50
176
     1
 90
       50
176
     1
290
     0
176
     1
 90
       50
176
     1
 62
   256
176
     0
 40
1.0
176
     0
 90
        2
176
     1
  1
strokes_ogs.tif
176
     1
290
     0
176
     1
 40
1.0
176
     1
 40
1.0
176
     1
  0
VISUALSTYLE
  5
959
102
{ACAD_REACTORS
330
955
102
}
330
955
100
AcDbVisualStyle
  2
GouraudWithEdges
 70
     3
177
     3
291
     1
 70
    58
 90
        2
176
     1
 90
        2
176
     1
 90
        1
176
     1
 90
        2
176
     1
 40
0.6
176
     1
 40
30.0
176
     1
 62
     7
420
 16777215
176
     1
 90
        1
176
     1
 90
        4
176
     1
 62
     7
176
     1
 62
   257
176
     1
 90
        1
176
     1
 90
        1
176
     1
 40
1.0
176
     1
 90
        0
176
     1
 62
   257
176
     1
 40
1.0
176
     1
 90
        1
176
     1
 90
        6
176
     1
 90
        2
176
     1
 62
     7
176
     1
 90
        5
176
     1
 90
        0
176
     1
 90
        0
176
     1
290
     0
176
     1
 90
       13
176
     1
 40
0.0
176
     1
 90
        0
176
     1
290
     0
176
     1
290
     1
176
     1
290
     1
176
     1
290
     0
176
     1
290
     0
176
     1
290
     0
176
     1
290
     0
176
     1
290
     0
176
     1
290
     0
176
     1
 90
       50
176
     1
 40
0.0
176
     1
 40
1.0
176
     1
 90
        0
176
     1
 62
    18
420
        0
176
     1
 90
       50
176
     1
 90
        3
176
     1
 62
     5
420
      255
176
     1
290
     0
176
     1
 90
       50
176
     1
 90
       50
176
     1
 90
       50
176
     1
290
     0
176
     1
 90
       50
176
     1
 62
   256
176
     0
 40
1.0
176
     0
 90
        2
176
     1
  1
strokes_ogs.tif
176
     1
290
     0
176
     1
 40
1.0
176
     1
 40
1.0
176
     1
  0
VISUALSTYLE
  5
D15
102
{ACAD_REACTORS
330
955
102
}
330
955
100
AcDbVisualStyle
  2
Hidden
 70
     6
177
     3
291
     0
 70
    58
 90
        1
176
     1
 90
        2
176
     1
 90
        2
176
     1
 90
        0
176
     1
 40
0.6
176
     1
 40
30.0
176
     1
 62
     7
420
 16777215
176
     1
 90
        2
176
     1
 90
        2
176
     1
 62
     7
176
     1
 62
   257
176
     1
 90
        2
176
     1
 90
        1
176
     1
 40
40.0
176
     1
 90
        0
176
     1
 62
   257
176
     1
 40
1.0
176
     1
 90
        1
176
     1
 90
        6
176
     1
 90
        2
176
     1
 62
     7
176
     1
 90
        3
176
     1
 90
        0
176
     1
 90
        0
176
     1
290
     0
176
     1
 90
        1
176
     1
 40
0.0
176
     1
 90
        0
176
     1
290
     0
176
     1
290
     1
176
     1
290
     1
176
     1
290
     0
176
     1
290
     0
176
     1
290
     0
176
     1
290
     0
176
     1
290
     0
176
     1
290
     0
176
     1
 90
       50
176
     1
 40
0.0
176
     1
 40
1.0
176
     1
 90
        0
176
     1
 62
    18
420
        0
176
     1
 90
       50
176
     1
 90
        3
176
     1
 62
     5
420
      255
176
     1
290
     0
176
     1
 90
       50
176
     1
 90
       50
176
     1
 90
       50
176
     1
290
     0
176
     1
 90
       50
176
     1
 62
   256
176
     0
 40
1.0
176
     0
 90
        2
176
     1
  1
strokes_ogs.tif
176
     1
290
     0
176
     1
 40
1.0
176
     1
 40
1.0
176
     1
  0
VISUALSTYLE
  5
D1B
102
{ACAD_REACTORS
330
955
102
}
330
955
100
AcDbVisualStyle
  2
JitterOff
 70
    20
177
     3
291
     1
 70
    58
 90
        2
176
     0
 90
        2
176
     0
 90
        0
176
     0
 90
        0
176
     0
 40
0.6
176
     0
 40
30.0
176
     0
 62
     7
420
 16777215
176
     0
 90
        1
176
     0
 90
        4
176
     0
 62
     7
176
     0
 62
   257
176
     0
 90
        1
176
     0
 90
        1
176
     0
 40
1.0
176
     0
 90
       10
176
     2
 62
     7
176
     0
 40
1.0
176
     0
 90
        1
176
     0
 90
        6
176
     0
 90
        2
176
     0
 62
     7
176
     0
 90
        5
176
     0
 90
        0
176
     0
 90
        0
176
     0
290
     0
176
     0
 90
        1
176
     0
 40
0.0
176
     0
 90
        0
176
     0
290
     0
176
     0
290
     1
176
     0
290
     1
176
     0
290
     0
176
     0
290
     0
176
     0
290
     0
176
     0
290
     0
176
     0
290
     0
176
     0
290
     0
176
     0
 90
       50
176
     0
 40
0.0
176
     0
 40
1.0
176
     0
 90
        0
176
     0
 62
    18
420
        0
176
     0
 90
       50
176
     0
 90
        3
176
     0
 62
     5
420
      255
176
     0
290
     0
176
     0
 90
       50
176
     0
 90
       50
176
     0
 90
       50
176
     0
290
     0
176
     0
 90
       50
176
     0
 62
   256
176
     0
 40
1.0
176
     0
 90
        2
176
     0
  1
strokes_ogs.tif
176
     0
290
     0
176
     0
 40
1.0
176
     0
 40
1.0
176
     0
  0
VISUALSTYLE
  5
963
102
{ACAD_REACTORS
330
955
102
}
330
955
100
AcDbVisualStyle
  2
Linepattern
 70
    14
177
     3
291
     1
 70
    58
 90
        2
176
     1
 90
        2
176
     1
 90
        0
176
     1
 90
        0
176
     1
 40
0.6
176
     1
 40
30.0
176
     1
 62
     7
420
 16777215
176
     1
 90
        1
176
     1
 90
        4
176
     1
 62
     7
176
     1
 62
   257
176
     1
 90
        7
176
     1
 90
        7
176
     1
 40
1.0
176
     1
 90
        8
176
     1
 62
     7
176
     1
 40
1.0
176
     1
 90
        1
176
     1
 90
        6
176
     1
 90
        2
176
     1
 62
     7
176
     1
 90
        5
176
     1
 90
        0
176
     1
 90
        0
176
     1
290
     0
176
     1
 90
        1
176
     1
 40
0.0
176
     1
 90
        0
176
     1
290
     0
176
     1
290
     1
176
     1
290
     1
176
     1
290
     0
176
     1
290
     0
176
     1
290
     0
176
     1
290
     0
176
     1
290
     0
176
     1
290
     0
176
     1
 90
       50
176
     1
 40
0.0
176
     1
 40
1.0
176
     1
 90
        0
176
     1
 62
    18
420
        0
176
     1
 90
       50
176
     1
 90
        3
176
     1
 62
     5
420
      255
176
     1
290
     0
176
     1
 90
       50
176
     1
 90
       50
176
     1
 90
       50
176
     1
290
     0
176
     1
 90
       50
176
     1
 62
   256
176
     0
 40
1.0
176
     0
 90
        2
176
     1
  1
strokes_ogs.tif
176
     1
290
     0
176
     1
 40
1.0
176
     1
 40
1.0
176
     1
  0
VISUALSTYLE
  5
D1C
102
{ACAD_REACTORS
330
955
102
}
330
955
100
AcDbVisualStyle
  2
OverhangOff
 70
    21
177
     3
291
     1
 70
    58
 90
        2
176
     0
 90
        2
176
     0
 90
        0
176
     0
 90
        0
176
     0
 40
0.6
176
     0
 40
30.0
176
     0
 62
     7
420
 16777215
176
     0
 90
        1
176
     0
 90
        4
176
     0
 62
     7
176
     0
 62
   257
176
     0
 90
        1
176
     0
 90
        1
176
     0
 40
1.0
176
     0
 90
        9
176
     2
 62
     7
176
     0
 40
1.0
176
     0
 90
        1
176
     0
 90
        6
176
     0
 90
        2
176
     0
 62
     7
176
     0
 90
        5
176
     0
 90
        0
176
     0
 90
        0
176
     0
290
     0
176
     0
 90
        1
176
     0
 40
0.0
176
     0
 90
        0
176
     0
290
     0
176
     0
290
     1
176
     0
290
     1
176
     0
290
     0
176
     0
290
     0
176
     0
290
     0
176
     0
290
     0
176
     0
290
     0
176
     0
290
     0
176
     0
 90
       50
176
     0
 40
0.0
176
     0
 40
1.0
176
     0
 90
        0
176
     0
 62
    18
420
        0
176
     0
 90
       50
176
     0
 90
        3
176
     0
 62
     5
420
      255
176
     0
290
     0
176
     0
 90
       50
176
     0
 90
       50
176
     0
 90
       50
176
     0
290
     0
176
     0
 90
       50
176
     0
 62
   256
176
     0
 40
1.0
176
     0
 90
        2
176
     0
  1
strokes_ogs.tif
176
     0
290
     0
176
     0
 40
1.0
176
     0
 40
1.0
176
     0
  0
VISUALSTYLE
  5
95F
102
{ACAD_REACTORS
330
955
102
}
330
955
100
AcDbVisualStyle
  2
Realistic
 70
     8
177
     3
291
     0
 70
    58
 90
        2
176
     1
 90
        2
176
     1
 90
        0
176
     1
 90
        0
176
     1
 40
0.6
176
     1
 40
30.0
176
     1
 62
     7
420
 16777215
176
     1
 90
        1
176
     1
 90
        0
176
     1
 62
     7
176
     1
 62
   257
176
     1
 90
        1
176
     1
 90
        1
176
     1
 40
1.0
176
     1
 90
        8
176
     1
 62
     8
420
  7895160
176
     1
 40
1.0
176
     1
 90
        1
176
     1
 90
        6
176
     1
 90
        2
176
     1
 62
     7
176
     1
 90
        5
176
     1
 90
        0
176
     1
 90
        0
176
     1
290
     0
176
     1
 90
       13
176
     1
 40
0.0
176
     1
 90
        0
176
     1
290
     0
176
     1
290
     1
176
     1
290
     1
176
     1
290
     0
176
     1
290
     0
176
     1
290
     0
176
     1
290
     0
176
     1
290
     0
176
     1
290
     0
176
     1
 90
       50
176
     1
 40
0.0
176
     1
 40
1.0
176
     1
 90
        0
176
     1
 62
    18
420
        0
176
     1
 90
       50
176
     1
 90
        3
176
     1
 62
     5
420
      255
176
     1
290
     0
176
     1
 90
       50
176
     1
 90
       50
176
     1
 90
       50
176
     1
290
     0
176
     1
 90
       50
176
     1
 62
   256
176
     0
 40
1.0
176
     0
 90
        2
176
     1
  1
strokes_ogs.tif
176
     1
290
     0
176
     1
 40
1.0
176
     1
 40
1.0
176
     1
  0
VISUALSTYLE
  5
D1A
102
{ACAD_REACTORS
330
955
102
}
330
955
100
AcDbVisualStyle
  2
Shaded
 70
    27
177
     3
291
     0
 70
    58
 90
        2
176
     1
 90
        2
176
     1
 90
        1
176
     1
 90
        2
176
     1
 40
0.6
176
     1
 40
30.0
176
     1
 62
     7
420
 16777215
176
     1
 90
        0
176
     1
 90
        4
176
     1
 62
     7
176
     1
 62
   257
176
     1
 90
        1
176
     1
 90
        1
176
     1
 40
1.0
176
     1
 90
        8
176
     1
 62
   257
176
     1
 40
1.0
176
     1
 90
        1
176
     1
 90
        6
176
     1
 90
        2
176
     1
 62
     8
420
  7895160
176
     1
 90
        3
176
     1
 90
        0
176
     1
 90
        0
176
     1
290
     0
176
     1
 90
        5
176
     1
 40
0.0
176
     1
 90
        0
176
     1
290
     0
176
     1
290
     1
176
     1
290
     1
176
     1
290
     0
176
     1
290
     0
176
     1
290
     0
176
     1
290
     0
176
     1
290
     0
176
     1
290
     0
176
     1
 90
       50
176
     1
 40
0.0
176
     1
 40
1.0
176
     1
 90
        0
176
     1
 62
    18
420
        0
176
     1
 90
       50
176
     1
 90
        3
176
     1
 62
     5
420
      255
176
     1
290
     0
176
     1
 90
       50
176
     1
 90
       50
176
     1
 90
       50
176
     1
290
     0
176
     1
 90
       50
176
     1
 62
   256
176
     0
 40
1.0
176
     0
 90
        2
176
     1
  1
strokes_ogs.tif
176
     1
290
     0
176
     1
 40
1.0
176
     1
 40
1.0
176
     1
  0
VISUALSTYLE
  5
D19
102
{ACAD_REACTORS
330
955
102
}
330
955
100
AcDbVisualStyle
  2
Shaded with edges
 70
    26
177
     3
291
     0
 70
    58
 90
        2
176
     1
 90
        2
176
     1
 90
        1
176
     1
 90
        2
176
     1
 40
0.6
176
     1
 40
30.0
176
     1
 62
     7
420
 16777215
176
     1
 90
        1
176
     1
 90
       10
176
     1
 62
     7
176
     1
 62
   257
176
     1
 90
        2
176
     1
 90
        1
176
     1
 40
1.0
176
     1
 90
        8
176
     1
 62
   257
176
     1
 40
1.0
176
     1
 90
        1
176
     1
 90
        6
176
     1
 90
        2
176
     1
 62
     7
176
     1
 90
        3
176
     1
 90
        0
176
     1
 90
        0
176
     1
290
     0
176
     1
 90
        5
176
     1
 40
0.0
176
     1
 90
        0
176
     1
290
     0
176
     1
290
     1
176
     1
290
     1
176
     1
290
     0
176
     1
290
     0
176
     1
290
     0
176
     1
290
     0
176
     1
290
     0
176
     1
290
     0
176
     1
 90
       50
176
     1
 40
0.0
176
     1
 40
1.0
176
     1
 90
        0
176
     1
 62
    18
420
        0
176
     1
 90
       50
176
     1
 90
        3
176
     1
 62
     5
420
      255
176
     1
290
     0
176
     1
 90
       50
176
     1
 90
       50
176
     1
 90
       50
176
     1
290
     0
176
     1
 90
       50
176
     1
 62
   256
176
     0
 40
1.0
176
     0
 90
        2
176
     1
  1
strokes_ogs.tif
176
     1
290
     0
176
     1
 40
1.0
176
     1
 40
1.0
176
     1
  0
VISUALSTYLE
  5
D16
102
{ACAD_REACTORS
330
955
102
}
330
955
100
AcDbVisualStyle
  2
Shades of Gray
 70
    23
177
     3
291
     0
 70
    58
 90
        2
176
     1
 90
        2
176
     1
 90
        3
176
     1
 90
        0
176
     1
 40
0.6
176
     1
 40
30.0
176
     1
 62
     7
420
 16777215
176
     1
 90
        2
176
     1
 90
        2
176
     1
 62
     7
176
     1
 62
     7
176
     1
 90
        1
176
     1
 90
        1
176
     1
 40
40.0
176
     1
 90
        8
176
     1
 62
     7
176
     1
 40
1.0
176
     1
 90
        1
176
     1
 90
        6
176
     1
 90
        2
176
     1
 62
     7
176
     1
 90
        3
176
     1
 90
        0
176
     1
 90
        0
176
     1
290
     0
176
     1
 90
        1
176
     1
 40
0.0
176
     1
 90
        0
176
     1
290
     0
176
     1
290
     1
176
     1
290
     1
176
     1
290
     0
176
     1
290
     0
176
     1
290
     0
176
     1
290
     0
176
     1
290
     0
176
     1
290
     0
176
     1
 90
       50
176
     1
 40
0.0
176
     1
 40
1.0
176
     1
 90
        0
176
     1
 62
    18
420
        0
176
     1
 90
       50
176
     1
 90
        3
176
     1
 62
     5
420
      255
176
     1
290
     0
176
     1
 90
       50
176
     1
 90
       50
176
     1
 90
       50
176
     1
290
     0
176
     1
 90
       50
176
     1
 62
   256
176
     0
 40
1.0
176
     0
 90
        2
176
     1
  1
strokes_ogs.tif
176
     1
290
     0
176
     1
 40
1.0
176
     1
 40
1.0
176
     1
  0
VISUALSTYLE
  5
D17
102
{ACAD_REACTORS
330
955
102
}
330
955
100
AcDbVisualStyle
  2
Sketchy
 70
    24
177
     3
291
     0
 70
    58
 90
        1
176
     1
 90
        2
176
     1
 90
        2
176
     1
 90
        0
176
     1
 40
0.6
176
     1
 40
30.0
176
     1
 62
     7
420
 16777215
176
     1
 90
        2
176
     1
 90
        2
176
     1
 62
     7
176
     1
 62
     7
176
     1
 90
        1
176
     1
 90
        1
176
     1
 40
40.0
176
     1
 90
       11
176
     1
 62
     7
176
     1
 40
1.0
176
     1
 90
        1
176
     1
 90
        6
176
     1
 90
        2
176
     1
 62
     7
176
     1
 90
        6
176
     1
 90
        0
176
     1
 90
        0
176
     1
290
     0
176
     1
 90
        1
176
     1
 40
0.0
176
     1
 90
        0
176
     1
290
     0
176
     1
290
     1
176
     1
290
     1
176
     1
290
     0
176
     1
290
     0
176
     1
290
     0
176
     1
290
     0
176
     1
290
     0
176
     1
290
     0
176
     1
 90
       50
176
     1
 40
0.0
176
     1
 40
1.0
176
     1
 90
        0
176
     1
 62
    18
420
        0
176
     1
 90
       50
176
     1
 90
        3
176
     1
 62
     5
420
      255
176
     1
290
     0
176
     1
 90
       50
176
     1
 90
       50
176
     1
 90
       50
176
     1
290
     0
176
     1
 90
       50
176
     1
 62
   256
176
     0
 40
1.0
176
     0
 90
        2
176
     1
  1
strokes_ogs.tif
176
     1
290
     0
176
     1
 40
1.0
176
     1
 40
1.0
176
     1
  0
VISUALSTYLE
  5
962
102
{ACAD_REACTORS
330
955
102
}
330
955
100
AcDbVisualStyle
  2
Thicken
 70
    13
177
     3
291
     1
 70
    58
 90
        2
176
     1
 90
        2
176
     1
 90
        0
176
     1
 90
        0
176
     1
 40
0.6
176
     1
 40
30.0
176
     1
 62
     7
420
 16777215
176
     1
 90
        1
176
     1
 90
        4
176
     1
 62
     7
176
     1
 62
   257
176
     1
 90
        1
176
     1
 90
        1
176
     1
 40
1.0
176
     1
 90
       12
176
     1
 62
     7
176
     1
 40
1.0
176
     1
 90
        1
176
     1
 90
        6
176
     1
 90
        2
176
     1
 62
     7
176
     1
 90
        5
176
     1
 90
        0
176
     1
 90
        0
176
     1
290
     0
176
     1
 90
        1
176
     1
 40
0.0
176
     1
 90
        0
176
     1
290
     0
176
     1
290
     1
176
     1
290
     1
176
     1
290
     0
176
     1
290
     0
176
     1
290
     0
176
     1
290
     0
176
     1
290
     0
176
     1
290
     0
176
     1
 90
       50
176
     1
 40
0.0
176
     1
 40
1.0
176
     1
 90
        0
176
     1
 62
    18
420
        0
176
     1
 90
       50
176
     1
 90
        3
176
     1
 62
     5
420
      255
176
     1
290
     0
176
     1
 90
       50
176
     1
 90
       50
176
     1
 90
       50
176
     1
290
     0
176
     1
 90
       50
176
     1
 62
   256
176
     0
 40
1.0
176
     0
 90
        2
176
     1
  1
strokes_ogs.tif
176
     1
290
     0
176
     1
 40
1.0
176
     1
 40
1.0
176
     1
  0
VISUALSTYLE
  5
D14
102
{ACAD_REACTORS
330
955
102
}
330
955
100
AcDbVisualStyle
  2
Wireframe
 70
     5
177
     3
291
     0
 70
    58
 90
        0
176
     1
 90
        2
176
     1
 90
        0
176
     1
 90
        0
176
     1
 40
0.6
176
     1
 40
30.0
176
     1
 62
     7
420
 16777215
176
     1
 90
        1
176
     1
 90
        4
176
     1
 62
     7
176
     1
 62
   257
176
     1
 90
        1
176
     1
 90
        1
176
     1
 40
1.0
176
     1
 90
        0
176
     1
 62
   257
176
     1
 40
1.0
176
     1
 90
        1
176
     1
 90
        6
176
     1
 90
        2
176
     1
 62
     7
176
     1
 90
        3
176
     1
 90
        0
176
     1
 90
        0
176
     1
290
     0
176
     1
 90
        1
176
     1
 40
0.0
176
     1
 90
        0
176
     1
290
     0
176
     1
290
     1
176
     1
290
     1
176
     1
290
     0
176
     1
290
     0
176
     1
290
     0
176
     1
290
     0
176
     1
290
     0
176
     1
290
     0
176
     1
 90
       50
176
     1
 40
0.0
176
     1
 40
1.0
176
     1
 90
        0
176
     1
 62
    18
420
        0
176
     1
 90
       50
176
     1
 90
        3
176
     1
 62
     5
420
      255
176
     1
290
     0
176
     1
 90
       50
176
     1
 90
       50
176
     1
 90
       50
176
     1
290
     0
176
     1
 90
       50
176
     1
 62
   256
176
     0
 40
1.0
176
     0
 90
        2
176
     1
  1
strokes_ogs.tif
176
     1
290
     0
176
     1
 40
1.0
176
     1
 40
1.0
176
     1
  0
VISUALSTYLE
  5
D18
102
{ACAD_REACTORS
330
955
102
}
330
955
100
AcDbVisualStyle
  2
X-Ray
 70
    25
177
     3
291
     0
 70
    58
 90
        2
176
     1
 90
        2
176
     1
 90
        1
176
     1
 90
        1
176
     1
 40
0.5
176
     1
 40
30.0
176
     1
 62
     7
420
 16777215
176
     1
 90
        1
176
     1
 90
        0
176
     1
 62
     7
176
     1
 62
   257
176
     1
 90
        1
176
     1
 90
        1
176
     1
 40
1.0
176
     1
 90
        8
176
     1
 62
     7
176
     1
 40
1.0
176
     1
 90
        1
176
     1
 90
        6
176
     1
 90
        2
176
     1
 62
     7
176
     1
 90
        3
176
     1
 90
        0
176
     1
 90
        0
176
     1
290
     0
176
     1
 90
       13
176
     1
 40
0.0
176
     1
 90
        0
176
     1
290
     0
176
     1
290
     1
176
     1
290
     1
176
     1
290
     0
176
     1
290
     0
176
     1
290
     0
176
     1
290
     0
176
     1
290
     0
176
     1
290
     0
176
     1
 90
       50
176
     1
 40
0.0
176
     1
 40
1.0
176
     1
 90
        0
176
     1
 62
    18
420
        0
176
     1
 90
       50
176
     1
 90
        3
176
     1
 62
     5
420
      255
176
     1
290
     0
176
     1
 90
       50
176
     1
 90
       50
176
     1
 90
       50
176
     1
290
     0
176
     1
 90
       50
176
     1
 62
   256
176
     0
 40
1.0
176
     0
 90
        2
176
     1
  1
strokes_ogs.tif
176
     1
290
     0
176
     1
 40
1.0
176
     1
 40
1.0
176
     1
  0
DICTIONARYVAR
  5
B28
102
{ACAD_REACTORS
330
66
102
}
330
66
100
DictionaryVariables
280
     0
  1
1:1
  0
DICTIONARYVAR
  5
B26
102
{ACAD_REACTORS
330
66
102
}
330
66
100
DictionaryVariables
280
     0
  1
STANDARD
  0
DICTIONARYVAR
  5
B25
102
{ACAD_REACTORS
330
66
102
}
330
66
100
DictionaryVariables
280
     0
  1
STANDARD
  0
DICTIONARYVAR
  5
D8F
102
{ACAD_REACTORS
330
66
102
}
330
66
100
DictionaryVariables
280
     0
  1
Imperial24
  0
DICTIONARYVAR
  5
D90
102
{ACAD_REACTORS
330
66
102
}
330
66
100
DictionaryVariables
280
     0
  1
Imperial24
  0
DICTIONARYVAR
  5
67
102
{ACAD_REACTORS
330
66
102
}
330
66
100
DictionaryVariables
280
     0
  1
2
  0
DICTIONARYVAR
  5
6B
102
{ACAD_REACTORS
330
66
102
}
330
66
100
DictionaryVariables
280
     0
  1
1
  0
DICTIONARYVAR
  5
D91
102
{ACAD_REACTORS
330
66
102
}
330
66
100
DictionaryVariables
280
     0
  1
1
  0
DICTIONARYVAR
  5
D92
102
{ACAD_REACTORS
330
66
102
}
330
66
100
DictionaryVariables
280
     0
  1
15
  0
DICTIONARYVAR
  5
B29
102
{ACAD_REACTORS
330
66
102
}
330
66
100
DictionaryVariables
280
     0
  1
0
  0
DICTIONARYVAR
  5
B27
102
{ACAD_REACTORS
330
66
102
}
330
66
100
DictionaryVariables
280
     0
  1
0
  0
DICTIONARY
  5
D8C
330
D21
100
AcDbDictionary
280
     1
281
     1
  3
ACAD_XREC_ROUNDTRIP
360
DA5
  0
DICTIONARY
  5
A91
330
59
100
AcDbDictionary
280
     1
281
     1
  0
DICTIONARY
  5
A9B
330
5E
100
AcDbDictionary
280
     1
281
     1
  0
DICTIONARY
  5
B17
330
AB1
100
AcDbDictionary
280
     1
281
     1
  0
DICTIONARY
  5
946
330
945
100
AcDbDictionary
280
     1
281
     1
  3
BUMPTILE
360
948
  3
DIFFUSETILE
360
947
  3
OPACITYTILE
360
94B
  3
REFLECTIONTILE
360
94A
  3
REFRACTIONTILE
360
94C
  3
SPECULARTILE
360
949
  0
DICTIONARY
  5
93E
330
93D
100
AcDbDictionary
280
     1
281
     1
  3
BUMPTILE
360
940
  3
DIFFUSETILE
360
93F
  3
OPACITYTILE
360
943
  3
REFLECTIONTILE
360
942
  3
REFRACTIONTILE
360
944
  3
SPECULARTILE
360
941
  0
DICTIONARY
  5
94E
330
94D
100
AcDbDictionary
280
     1
281
     1
  3
BUMPTILE
360
950
  3
DIFFUSETILE
360
94F
  3
OPACITYTILE
360
953
  3
REFLECTIONTILE
360
952
  3
REFRACTIONTILE
360
954
  3
SPECULARTILE
360
951
  0
DICTIONARY
  5
D8A
330
D1F
100
AcDbDictionary
280
     1
281
     1
  3
ACAD_XREC_ROUNDTRIP
360
DA4
  0
DICTIONARY
  5
B22
330
967
100
AcDbDictionary
280
     1
281
     1
  3
ACAD_ROUNDTRIP_2008_TABLESTYLE_CELLSTYLEMAP
360
DA3
  0
XRECORD
  5
DA5
102
{ACAD_REACTORS
330
D8C
102
}
330
D8C
100
AcDbXrecord
280
     1
102
DISPLAYNAME
  1
Imperial24
102
FLAGS
 90
        0
  0
XRECORD
  5
948
102
{ACAD_REACTORS
330
946
102
}
330
946
100
AcDbXrecord
280
     1
270
     1
271
     1
  0
XRECORD
  5
947
102
{ACAD_REACTORS
330
946
102
}
330
946
100
AcDbXrecord
280
     1
270
     1
271
     1
  0
XRECORD
  5
94B
102
{ACAD_REACTORS
330
946
102
}
330
946
100
AcDbXrecord
280
     1
270
     1
271
     1
  0
XRECORD
  5
94A
102
{ACAD_REACTORS
330
946
102
}
330
946
100
AcDbXrecord
280
     1
270
     1
271
     1
  0
XRECORD
  5
94C
102
{ACAD_REACTORS
330
946
102
}
330
946
100
AcDbXrecord
280
     1
270
     1
271
     1
  0
XRECORD
  5
949
102
{ACAD_REACTORS
330
946
102
}
330
946
100
AcDbXrecord
280
     1
270
     1
271
     1
  0
XRECORD
  5
940
102
{ACAD_REACTORS
330
93E
102
}
330
93E
100
AcDbXrecord
280
     1
270
     1
271
     1
  0
XRECORD
  5
93F
102
{ACAD_REACTORS
330
93E
102
}
330
93E
100
AcDbXrecord
280
     1
270
     1
271
     1
  0
XRECORD
  5
943
102
{ACAD_REACTORS
330
93E
102
}
330
93E
100
AcDbXrecord
280
     1
270
     1
271
     1
  0
XRECORD
  5
942
102
{ACAD_REACTORS
330
93E
102
}
330
93E
100
AcDbXrecord
280
     1
270
     1
271
     1
  0
XRECORD
  5
944
102
{ACAD_REACTORS
330
93E
102
}
330
93E
100
AcDbXrecord
280
     1
270
     1
271
     1
  0
XRECORD
  5
941
102
{ACAD_REACTORS
330
93E
102
}
330
93E
100
AcDbXrecord
280
     1
270
     1
271
     1
  0
XRECORD
  5
950
102
{ACAD_REACTORS
330
94E
102
}
330
94E
100
AcDbXrecord
280
     1
270
     1
271
     1
  0
XRECORD
  5
94F
102
{ACAD_REACTORS
330
94E
102
}
330
94E
100
AcDbXrecord
280
     1
270
     1
271
     1
  0
XRECORD
  5
953
102
{ACAD_REACTORS
330
94E
102
}
330
94E
100
AcDbXrecord
280
     1
270
     1
271
     1
  0
XRECORD
  5
952
102
{ACAD_REACTORS
330
94E
102
}
330
94E
100
AcDbXrecord
280
     1
270
     1
271
     1
  0
XRECORD
  5
954
102
{ACAD_REACTORS
330
94E
102
}
330
94E
100
AcDbXrecord
280
     1
270
     1
271
     1
  0
XRECORD
  5
951
102
{ACAD_REACTORS
330
94E
102
}
330
94E
100
AcDbXrecord
280
     1
270
     1
271
     1
  0
XRECORD
  5
DA4
102
{ACAD_REACTORS
330
D8A
102
}
330
D8A
100
AcDbXrecord
280
     1
102
DISPLAYNAME
  1
Imperial24
102
FLAGS
 90
        0
  0
CELLSTYLEMAP
  5
DA3
102
{ACAD_REACTORS
330
B22
102
}
330
B22
100
AcDbCellStyleMap
 90
        3
300
CELLSTYLE
  1
TABLEFORMAT_BEGIN
 90
        5
170
     1
 91
        0
 92
    32768
 62
   257
 93
        1
300
CONTENTFORMAT
  1
CONTENTFORMAT_BEGIN
 90
        0
 91
        0
 92
      512
 93
        0
300

 40
0.0
140
1.0
 94
        5
 62
     0
340
11
144
0.25
309
CONTENTFORMAT_END
171
     0
 94
        0
309
TABLEFORMAT_END
  1
CELLSTYLE_BEGIN
 90
        1
 91
        1
300
_TITLE
309
CELLSTYLE_END
300
CELLSTYLE
  1
TABLEFORMAT_BEGIN
 90
        5
170
     1
 91
        0
 92
        0
 62
   257
 93
        1
300
CONTENTFORMAT
  1
CONTENTFORMAT_BEGIN
 90
        0
 91
        0
 92
      512
 93
        0
300

 40
0.0
140
1.0
 94
        5
 62
     0
340
11
144
0.18
309
CONTENTFORMAT_END
171
     0
 94
        0
309
TABLEFORMAT_END
  1
CELLSTYLE_BEGIN
 90
        2
 91
        1
300
_HEADER
309
CELLSTYLE_END
300
CELLSTYLE
  1
TABLEFORMAT_BEGIN
 90
        5
170
     1
 91
        0
 92
        0
 62
   257
 93
        1
300
CONTENTFORMAT
  1
CONTENTFORMAT_BEGIN
 90
        0
 91
        0
 92
      512
 93
        0
300

 40
0.0
140
1.0
 94
        2
 62
     0
340
11
144
0.18
309
CONTENTFORMAT_END
171
     0
 94
        0
309
TABLEFORMAT_END
  1
CELLSTYLE_BEGIN
 90
        3
 91
        2
300
_DATA
309
CELLSTYLE_END
  0
ENDSEC
  0
SECTION
  2
ACDSDATA
 70
     2
 71
     6
  0
ACDSSCHEMA
 90
        0
  1
AcDb_Thumbnail_Schema
  2
AcDbDs::ID
280
    10
 91
        8
  2
Thumbnail_Data
280
    15
 91
        0
101
ACDSRECORD
 95
        0
 90
        1
  2
AcDbDs::TreatedAsObjectData
280
     1
291
     1
101
ACDSRECORD
 95
        0
 90
        2
  2
AcDbDs::Legacy
280
     1
291
     1
101
ACDSRECORD
  1
AcDbDs::ID
 90
        3
  2
AcDs:Indexable
280
     1
291
     1
101
ACDSRECORD
  1
AcDbDs::ID
 90
        4
  2
AcDbDs::HandleAttribute
280
     7
282
     1
  0
ACDSSCHEMA
 90
        1
  1
AcDbDs::TreatedAsObjectDataSchema
  2
AcDbDs::TreatedAsObjectData
280
     1
 91
        0
  0
ACDSSCHEMA
 90
        2
  1
AcDbDs::LegacySchema
  2
AcDbDs::Legacy
280
     1
 91
        0
  0
ACDSSCHEMA
 90
        3
  1
AcDbDs::IndexedPropertySchema
  2
AcDs:Indexable
280
     1
 91
        0
  0
ACDSSCHEMA
 90
        4
  1
AcDbDs::HandleAttributeSchema
  2
AcDbDs::HandleAttribute
280
     7
 91
        1
284
     1
  0
ACDSRECORD
 90
        0
  2
AcDbDs::ID
280
    10
320
22
  2
Thumbnail_Data
280
    15
 94
     2139
310
89504E470D0A1A0A0000000D494844520000010000000085080300000083A6D68B00000300504C5445212830000000C8C8C80000000000000000000000000000000000000000000000000000330000660000990000CC0000FF0033000033330033660033990033CC0033FF0066000066330066660066990066CC0066FF0099
310
000099330099660099990099CC0099FF00CC0000CC3300CC6600CC9900CCCC00CCFF00FF0000FF3300FF6600FF9900FFCC00FFFF3300003300333300663300993300CC3300FF3333003333333333663333993333CC3333FF3366003366333366663366993366CC3366FF3399003399333399663399993399CC3399FF33CC00
310
33CC3333CC6633CC9933CCCC33CCFF33FF0033FF3333FF6633FF9933FFCC33FFFF6600006600336600666600996600CC6600FF6633006633336633666633996633CC6633FF6666006666336666666666996666CC6666FF6699006699336699666699996699CC6699FF66CC0066CC3366CC6666CC9966CCCC66CCFF66FF0066
310
FF3366FF6666FF9966FFCC66FFFF9900009900339900669900999900CC9900FF9933009933339933669933999933CC9933FF9966009966339966669966999966CC9966FF9999009999339999669999999999CC9999FF99CC0099CC3399CC6699CC9999CCCC99CCFF99FF0099FF3399FF6699FF9999FFCC99FFFFCC0000CC00
310
33CC0066CC0099CC00CCCC00FFCC3300CC3333CC3366CC3399CC33CCCC33FFCC6600CC6633CC6666CC6699CC66CCCC66FFCC9900CC9933CC9966CC9999CC99CCCC99FFCCCC00CCCC33CCCC66CCCC99CCCCCCCCCCFFCCFF00CCFF33CCFF66CCFF99CCFFCCCCFFFFFF0000FF0033FF0066FF0099FF00CCFF00FFFF3300FF3333
310
FF3366FF3399FF33CCFF33FFFF6600FF6633FF6666FF6699FF66CCFF66FFFF9900FF9933FF9966FF9999FF99CCFF99FFFFCC00FFCC33FFCC66FFCC99FFCCCCFFCCFFFFFF00FFFF33FFFF66FFFF99FFFFCCFFFFFF0000000D0D0D1A1A1A2828283535354343435050505D5D5D6B6B6B787878868686939393A1A1A1AEAEAEBB
310
BBBBC9C9C9D6D6D6E4E4E4F1F1F1FFFFFF000000000000000000000000000000000000000000000000000000000000B21171F6000003474944415478DAED9BC18E1C310844FDFFFFFBEED166A76DC074CF4A4994C1549DA239ACE2321405A6C710044110044110044110044110044110044110044110044110044110044110
310
044110044110841BD09E004440F714A0D575477C11B0FFD840F4BE2FDE9F9616A2C8757EA604F0CDC7EF706843C0BC7AD6EF9D22C0883FAF6CE84300990B826E1A100FEEF2A089F5E5F9C7930920BDF036296004D00A22A31101107D51AB1420ED89682782B12CB43242D300C53C68458017C1363E601A5FA21E58756C6184
310
18311F6841005B36180D6C1301DC047C132BCC7D9F7C3C0137C50E681401990BBCA5E6D432B80C20BDBA4133FB9951CF639F70A806582394D5C6E3CB20B93FEE6384881D32309A55813801E843C043A0B710411EBC5FD789D07C2D232F1BE712105B2212D17C837A04B06A1E6F08BA1ED18F2260BD0C931BE5B1CE951270CA
310
40C4B601588FB88EB9E8388980ACFFC188E0B53573664920343EECBF4F028E2C892CC74F92FCE7F7456C5AE0CF6B3685D636CD3935E0E95AB18A374CCF7430013615B85C11EED5E8A74580820440EC0A4C31649C4CC07C080A39F027A8E50409DAEFFCF112011F0DC33FA272E3AE3E9E00F2EEF8AAFDF1FC7BA130F3D4ADC5
310
AE60849275187370EF8393E1413650ABA7015B520409B07EC98ED2B3BE922D226A5401F6A26015CDA7C1D32E65B12735F676702D90DB1048A624FE67C6B899B297F1010F52707FAFB367C40D554A95C1BD06BEBA201E1BC16CB13497958F27004243EC629CE137E87F34382E9602B8C188ED846D37F8B2C6DB3A59F6994D35
310
0D701F4C841407BB304512FC6C0E80721190D42FA60CA4818D75C146472875FE2C5CF1F3007BC044FD536E0A35447B0BC3D628E286A624FF4A3EB8AC1204C97EB0F7FC5712109A9F8D27A78254EC06534DF766C83D0E4405C4F156AD0A8CF419D01390B651C46A31E217A81F1F01E98AA833F58E81648B286861A925EB70B0
310
6D3DC813C0C32C65549D08F9C3B00F06DDD53EFA5CCAD580EDC6B7C607127D8C1F15386EAACD03E2C54EC7FB72FDEFBEA1833733860203117342766567EC4F0699DFA7B406988B33DD8E1988796B60DF0B19C9B21DD50622779F0FDA01E8DA1281B179C1F77FEC63CBE0BFC1680E11200204412894B1DDAB9F0890FFF95B34
310
FD9FFFD92F9F3E18515100F5150000000049454E44AE4260824260824F9A5FDDB6A560F312AB440073698264612552CE390041DC577AC8DC508710E72BC0E83944691AEA0042D9B9FCD9630345384EE026D3512980A018E5EB50F3E3BFA61B147BCC64FF37C12E54BF401F1939AED688C3E7D72482C40194E7DD9736E75E1E
310
084525D9A213E46E63705B241887C28BFC4216EE01100482945DEF4840C2F97270F0DC42F773100AC7EB807C38F580154EE6D052F7732114AE25C91EE10AC96A40A6FB391F0A97E56FA538F99EC56834B114BA9FB3A130B5C8726E3DF63D9720764AE4BA9F0BA170B21C61D01FB2D44CA13C468550F8A802C07253A0990F30
310
A6D4113E250C2B6D406A0442C92CB8F21EE3677DC01139183A7122877AC11E01481EBC72AB06309E70E0EC7B210E44AF9E297500342CF8C94334F9B017CE219ED6063349478EA2BF202FCCE1B54013C0A52B99136E9BEEEC5737001603303B35DA4E85CA046F00605DD9B3711ACDFDB1F1090485A038EC7BC26FA6489EE6D5
310
9802B9672694E200561C73D311D756D6A8D92940D081CE8AE37C8E174873FE64F23F1CF6BDAB4D1B2A5EA306C0BCE555316515002FDA254739762803E091CADE733F8119A0F8640C1E5C07685CB80B404744F59C89C23F10D1FC38E1583BB10000000049454E44AE426082
  0
ACDSRECORD
 90
        0
  2
AcDbDs::ID
280
    10
320
59
  2
Thumbnail_Data
280
    15
 94
     1197
310
89504E470D0A1A0A0000000D49484452000000B40000008B0803000000FF3F437800000300504C5445FFFFFF000000FFFFFF0000000000000000000000000000000000000000000000000000330000660000990000CC0000FF0033000033330033660033990033CC0033FF0066000066330066660066990066CC0066FF0099
310
000099330099660099990099CC0099FF00CC0000CC3300CC6600CC9900CCCC00CCFF00FF0000FF3300FF6600FF9900FFCC00FFFF3300003300333300663300993300CC3300FF3333003333333333663333993333CC3333FF3366003366333366663366993366CC3366FF3399003399333399663399993399CC3399FF33CC00
310
33CC3333CC6633CC9933CCCC33CCFF33FF0033FF3333FF6633FF9933FFCC33FFFF6600006600336600666600996600CC6600FF6633006633336633666633996633CC6633FF6666006666336666666666996666CC6666FF6699006699336699666699996699CC6699FF66CC0066CC3366CC6666CC9966CCCC66CCFF66FF0066
310
FF3366FF6666FF9966FFCC66FFFF9900009900339900669900999900CC9900FF9933009933339933669933999933CC9933FF9966009966339966669966999966CC9966FF9999009999339999669999999999CC9999FF99CC0099CC3399CC6699CC9999CCCC99CCFF99FF0099FF3399FF6699FF9999FFCC99FFFFCC0000CC00
310
33CC0066CC0099CC00CCCC00FFCC3300CC3333CC3366CC3399CC33CCCC33FFCC6600CC6633CC6666CC6699CC66CCCC66FFCC9900CC9933CC9966CC9999CC99CCCC99FFCCCC00CCCC33CCCC66CCCC99CCCCCCCCCCFFCCFF00CCFF33CCFF66CCFF99CCFFCCCCFFFFFF0000FF0033FF0066FF0099FF00CCFF00FFFF3300FF3333
310
FF3366FF3399FF33CCFF33FFFF6600FF6633FF6666FF6699FF66CCFF66FFFF9900FF9933FF9966FF9999FF99CCFF99FFFFCC00FFCC33FFCC66FFCC99FFCCCCFFCCFFFFFF00FFFF33FFFF66FFFF99FFFFCCFFFFFF0000000D0D0D1A1A1A2828283535354343435050505D5D5D6B6B6B787878868686939393A1A1A1AEAEAEBB
310
BBBBC9C9C9D6D6D6E4E4E4F1F1F1FFFFFF000000000000000000000000000000000000000000000000000000000000790CAC0F000001684944415478DAEDDDD18E8230108561DFFF31CF0B7835F79B5D2442A4A52608E7B87F6F34D4848FC9A4ED948037C5B5FBFDA60A6BA04F436B42CFD9B2E858B5D6711D7D7CF7C44B74
310
4C944183060DFA7FA2236744D0A04183066D5EB9308D83060D1A7400DA78A3B4833E3964E37D01E88A414B41684D5F55296805467AED5447EB841E3EA30F7AB5D3DF8FF826BAAE1F3DC6476E27746B287C4D7E37F44BC248F6917EDCBE5AFE4C71E92163B4DABDAEE9A1772FD12E3DCCD12301560FEDB19ED6E658125304A8
310
F1E98B564EE5D2BD0CBFCA25B8464CAAC6555F12695F74E20E5325461A3468D0A02F43570ABA4083060DFACBD0F3530AD38ECEEF623A012D3D6F6FB437D5E587D626DA771AFFCB0BD59C1D2ACA2DD0A04183060D1A3468D0D6686A44D0A04183067D389A691C3468D0A04183067D013AF1C9CF80061AF4203AAA81060D1AF4
310
67D0472D1940EFCD887668813642B3CA030DFA4C74E29BBE5930816EA103FF92E10744CEEDF134973A3C0000000049454E44AE426082
  0
ACDSRECORD
 90
        0
  2
AcDbDs::ID
280
    10
320
5E
  2
Thumbnail_Data
280
    15
 94
     1073
310
89504E470D0A1A0A0000000D49484452000000B40000008A0803000000346390DD00000300504C5445FFFFFF000000FFFFFF0000000000000000000000000000000000000000000000000000330000660000990000CC0000FF0033000033330033660033990033CC0033FF0066000066330066660066990066CC0066FF0099
310
000099330099660099990099CC0099FF00CC0000CC3300CC6600CC9900CCCC00CCFF00FF0000FF3300FF6600FF9900FFCC00FFFF3300003300333300663300993300CC3300FF3333003333333333663333993333CC3333FF3366003366333366663366993366CC3366FF3399003399333399663399993399CC3399FF33CC00
310
33CC3333CC6633CC9933CCCC33CCFF33FF0033FF3333FF6633FF9933FFCC33FFFF6600006600336600666600996600CC6600FF6633006633336633666633996633CC6633FF6666006666336666666666996666CC6666FF6699006699336699666699996699CC6699FF66CC0066CC3366CC6666CC9966CCCC66CCFF66FF0066
310
FF3366FF6666FF9966FFCC66FFFF9900009900339900669900999900CC9900FF9933009933339933669933999933CC9933FF9966009966339966669966999966CC9966FF9999009999339999669999999999CC9999FF99CC0099CC3399CC6699CC9999CCCC99CCFF99FF0099FF3399FF6699FF9999FFCC99FFFFCC0000CC00
310
33CC0066CC0099CC00CCCC00FFCC3300CC3333CC3366CC3399CC33CCCC33FFCC6600CC6633CC6666CC6699CC66CCCC66FFCC9900CC9933CC9966CC9999CC99CCCC99FFCCCC00CCCC33CCCC66CCCC99CCCCCCCCCCFFCCFF00CCFF33CCFF66CCFF99CCFFCCCCFFFFFF0000FF0033FF0066FF0099FF00CCFF00FFFF3300FF3333
310
FF3366FF3399FF33CCFF33FFFF6600FF6633FF6666FF6699FF66CCFF66FFFF9900FF9933FF9966FF9999FF99CCFF99FFFFCC00FFCC33FFCC66FFCC99FFCCCCFFCCFFFFFF00FFFF33FFFF66FFFF99FFFFCCFFFFFF0000000D0D0D1A1A1A2828283535354343435050505D5D5D6B6B6B787878868686939393A1A1A1AEAEAEBB
310
BBBBC9C9C9D6D6D6E4E4E4F1F1F1FFFFFF000000000000000000000000000000000000000000000000000000000000790CAC0F000000EC4944415478DAEDDC410E8320100040FFFFCCFD8027EE6D4D9AD843538552D83A7B4483135C65E1C012C962BDC712255540FF0CFD48900DFDCC97FDA57D7C6A8FB6F6C38F7D452719
310
65686868E8ABA253CE88D0D027D0B314FCE7D05FFAD4DBFA1A878EFAAE078E74FDCD23D0BD733A3AA03BBCAC8086868686868686EE593141435F0A5D72FC3D0A343434347422B4D2141A1A1A1A1A1A1A1A1ABA1E6DE5020D0D0D0D0DADF6808686868686868686866E435BB94043434343DBAC81868686868686868686866E
310
435B6E41FF3D3AE39146130734F421B49309A1A1A1A12747673C34DB340EFD0E9D2ED6F506EE583B5A534F417A0000000049454E44AE426082
  0
ACDSRECORD
 90
        0
  2
AcDbDs::ID
280
    10
320
AB1
  2
Thumbnail_Data
280
    15
 94
     2406
310
89504E470D0A1A0A0000000D49484452000000C500000100080300000034B4427100000300504C5445FFFFFF000000C8C8C80000000000000000000000000000000000000000000000000000330000660000990000CC0000FF0033000033330033660033990033CC0033FF0066000066330066660066990066CC0066FF0099
310
000099330099660099990099CC0099FF00CC0000CC3300CC6600CC9900CCCC00CCFF00FF0000FF3300FF6600FF9900FFCC00FFFF3300003300333300663300993300CC3300FF3333003333333333663333993333CC3333FF3366003366333366663366993366CC3366FF3399003399333399663399993399CC3399FF33CC00
310
33CC3333CC6633CC9933CCCC33CCFF33FF0033FF3333FF6633FF9933FFCC33FFFF6600006600336600666600996600CC6600FF6633006633336633666633996633CC6633FF6666006666336666666666996666CC6666FF6699006699336699666699996699CC6699FF66CC0066CC3366CC6666CC9966CCCC66CCFF66FF0066
310
FF3366FF6666FF9966FFCC66FFFF9900009900339900669900999900CC9900FF9933009933339933669933999933CC9933FF9966009966339966669966999966CC9966FF9999009999339999669999999999CC9999FF99CC0099CC3399CC6699CC9999CCCC99CCFF99FF0099FF3399FF6699FF9999FFCC99FFFFCC0000CC00
310
33CC0066CC0099CC00CCCC00FFCC3300CC3333CC3366CC3399CC33CCCC33FFCC6600CC6633CC6666CC6699CC66CCCC66FFCC9900CC9933CC9966CC9999CC99CCCC99FFCCCC00CCCC33CCCC66CCCC99CCCCCCCCCCFFCCFF00CCFF33CCFF66CCFF99CCFFCCCCFFFFFF0000FF0033FF0066FF0099FF00CCFF00FFFF3300FF3333
310
FF3366FF3399FF33CCFF33FFFF6600FF6633FF6666FF6699FF66CCFF66FFFF9900FF9933FF9966FF9999FF99CCFF99FFFFCC00FFCC33FFCC66FFCC99FFCCCCFFCCFFFFFF00FFFF33FFFF66FFFF99FFFFCCFFFFFF0000000D0D0D1A1A1A2828283535354343435050505D5D5D6B6B6B787878868686939393A1A1A1AEAEAEBB
310
BBBBC9C9C9D6D6D6E4E4E4F1F1F1FFFFFF000000000000000000000000000000000000000000000000000000000000B0E2D235000005694944415478DAED9C5B76E4200C44D9FF32EF4AE663920E0F0102BBDDA24FD55792D3495CE85512E09404411004411004411004411004411004411004411004411004411004411004
310
41104E04DFC102B188E3517C475C20164FF9FD08FF29CC3E13309B168F554405B1B370FEE0C5D793D8269AEF97DFF0478301E7B82C28ED917FF913EBBC023EB02D5219B10C1E372C0BEA6ACDE0E391E3A209057A948247771BCDE45142581638DCFEC74C10DF1653494B7C16D88AD62EDBE7D8E29C3E90CDCFC46781E3E183
310
B260AD550DC9025FDB4A6C65CEEA5247B4C56F4DF33F67CCB8C09D7439AB5EF41455F08E7585EE492C38A55E3015B92764DA34685907CF7B44743373B9781EC55AE0C4CEB4BCEA06235D02F106B8CCA4536ACB2267287326A291681B348618EC9330FAEFA8B6C0253662D70B6F123AA0D773ACFF29939C71D447AB7A6E8147
310
60166BCFC311D13D31C1219AB653B239C0160C73D021CA1C263FB1E805B545B7189C628B7A919B4D0A0E60E1D37E5CC8CF8FB3C0F95BA1A7CDB8E69A705ED5AB0870485C74FBA7D099F6828502B2E0564FFC0C0B6E8EA70F543D569FF0384D6B5589C9A8FDE911C9D2749341EEAAF5E41EDEC0E2BFF258CE62F3A39F8FB218
310
CD7442B2A075A5DD3D563E17DD94913BDF27CB3E5D2E23D58F1F394C8C95541CFFA9C782F4411693EC44A7896D1EAD25F7200BE738877A0612E5E036DE4A45E96ABC6C94AFF0A72A3ADD34650B2DD280C5C76409FD3061242B2C169FD356C3013296CDF24C4B8098E835DC6CE5B64FAA5C3C797795C5A3EA635599A7E6C609
310
A686D9D4B4EFAF179D06C38C905D35F84E164C456B8000C1DF8F97F50E531BE6E5F1DAA2739905A3EB241316A4202C3C5D6CC10243E97F8605DEBFD1B2784B506CDAC2A7E6780C5BBD5E2B9370B2715497A51D066E8AEED26748465F67B2581C2FDA2A985B5918E5AC6091CA268F3439738B73B852F763CE0571678D9205BF
310
BA7C9C29FCAEC485E8C6D177DAF7ACA856C0719E70219B2DB348DEB49A77444D8BC7B0E55A18875D890BBC99AC64918F82DA74C55628A6FD43361E5A1D5B6492856A22B1DF076CB1207963C1A84E8E339DD5D54BC7FFDF6C19EC5901B350F12D32A4F16D5FDF63DDD55F648BCF241499D6A1B66472C1A3566619AF65C5DAFD
310
DEBE9655B75B17A31BC6A757A01223FE63174E4B5FB0055311575E2723D95B9B972BD86DBDDE449E921D806650382FBD326197855B1E50A83FEA3AE73E1FBD96FAB7BA24EC3F4C99AA923575378FDB339FABDC542F166AED4B71E49B476E25C4C405B8C7A3EAE5B59FA357B3E7EFE398E7ABFB6620DD5A4BEAF432934B2979
310
E838D2F97B125AFEF60672329EDFC11BCB1BDB39B394D0F3A99F02EE9BAF2F3ED4FAC89685E06F4437EBDABB4A8B4C8645FBBCE97661668E62A48686F90AEEB209D3BED8567ABF2CA6931CBCB9830B7E358BCE9EE6E5E7655F03DB539711BB54583479F7B4395FC8AA71C5E118EDE4E78E34B5CF2225C316AE91541BCCBEA9
310
E17DA2B9AC178BD9A4DDB0C120B171028032FDFBF3C0C2F129DF95014A43ACB258E8AF2CFD3A34C6FE2B7656352DEE6EC678019ED3A5D655C5B247391535965CABCF47DDB097B4E3512309C1A4765B5A776335B9C516DD86C3D3E7B014D5DE46FF228B6C8D1925AE5DD7A13859CC52CFE6CCFFAD8318A7A29A89EBDA16ABF7
310
CEEFCD55AF9E1D905C873C9D8BDC9D72DF326DCED7C49846FD35488C04259732D5EE8719357945C963B04961DC2AE549165DF36029F389861D5F69E2D67A31A9D6A3D9204DFBB9B649311EDBEDA8C1555BDAF5A23AA9F31AAF6F94B9ABFB175E49C57460C2547EDE747580B048DF00B1100BB1F856168220DC9815BE427088
310
85588845B8F420166221088220088220088220088220088220088220088220088220088220088220CCF00F96F6198A7A1B3D010000000049454E44AE426082498AB16CB74031BD94C38E17CD4A9D5F797D21CC1D9DBF88A654B88249271724B2A5663203C9FA9AD1A3D2BE26A71344210A513CFE250A515C41F1E9DF97942B
310
E110852844711EC5712F72298628FE1E458AA8270A51884214EFA750AD270A51884214A2901E250A51884214A210852844210A5188E24E0AD57AA210852844218ABF43A10C4414A21085282EA7300E01EDAE54EA2F62E2FE9B14BB45218A0FA7F884D73F8380328E07E5C8450000000049454E44AE426082
  0
ENDSEC
  0
EOF
