  0
SECTION
  2
HEADER
  9
$ACADVER
  1
AC1027
  9
$ACADMAINTVER
 70
    55
  9
$DWGCODEPAGE
  3
ANSI_1252
  9
$LASTSAVEDBY
  1
jackson
  9
$REQUIREDVERSIONS
160
                 0
  9
$INSBASE
 10
0.0
 20
0.0
 30
0.0
  9
$EXTMIN
 10
189.043493373994
 20
35.35299194625419
 30
0.0
  9
$EXTMAX
 10
857.9
 20
739.5242081812056
 30
0.0
  9
$LIMMIN
 10
0.0
 20
0.0
  9
$LIMMAX
 10
1000.0
 20
750.0
  9
$ORTHOMODE
 70
     0
  9
$REGENMODE
 70
     1
  9
$FILLMODE
 70
     1
  9
$QTEXTMODE
 70
     0
  9
$MIRRTEXT
 70
     0
  9
$LTSCALE
 40
1.0
  9
$ATTMODE
 70
     1
  9
$TEXTSIZE
 40
0.2
  9
$TRACEWID
 40
0.05
  9
$TEXTSTYLE
  7
Standard
  9
$CLAYER
  8
0
  9
$CELTYPE
  6
ByLayer
  9
$CECOLOR
 62
   256
  9
$CELTSCALE
 40
1.0
  9
$DISPSILH
 70
     0
  9
$DIMSCALE
 40
50.0
  9
$DIMASZ
 40
0.18
  9
$DIMEXO
 40
0.0625
  9
$DIMDLI
 40
0.38
  9
$DIMRND
 40
0.0
  9
$DIMDLE
 40
0.0
  9
$DIMEXE
 40
0.18
  9
$DIMTP
 40
0.0
  9
$DIMTM
 40
0.0
  9
$DIMTXT
 40
0.18
  9
$DIMCEN
 40
0.09
  9
$DIMTSZ
 40
0.0
  9
$DIMTOL
 70
     0
  9
$DIMLIM
 70
     0
  9
$DIMTIH
 70
     1
  9
$DIMTOH
 70
     1
  9
$DIMSE1
 70
     0
  9
$DIMSE2
 70
     0
  9
$DIMTAD
 70
     0
  9
$DIMZIN
 70
     0
  9
$DIMBLK
  1

  9
$DIMASO
 70
     1
  9
$DIMSHO
 70
     1
  9
$DIMPOST
  1
 MM\X
  9
$DIMAPOST
  1
 IN.
  9
$DIMALT
 70
     1
  9
$DIMALTD
 70
     2
  9
$DIMALTF
 40
0.0393700787401575
  9
$DIMLFAC
 40
1.0
  9
$DIMTOFL
 70
     0
  9
$DIMTVP
 40
0.0
  9
$DIMTIX
 70
     0
  9
$DIMSOXD
 70
     0
  9
$DIMSAH
 70
     0
  9
$DIMBLK1
  1

  9
$DIMBLK2
  1

  9
$DIMSTYLE
  2
Default
  9
$DIMCLRD
 70
     0
  9
$DIMCLRE
 70
     0
  9
$DIMCLRT
 70
     0
  9
$DIMTFAC
 40
1.0
  9
$DIMGAP
 40
0.09
  9
$DIMJUST
 70
     0
  9
$DIMSD1
 70
     0
  9
$DIMSD2
 70
     0
  9
$DIMTOLJ
 70
     1
  9
$DIMTZIN
 70
     0
  9
$DIMALTZ
 70
     0
  9
$DIMALTTZ
 70
     0
  9
$DIMUPT
 70
     0
  9
$DIMDEC
 70
     0
  9
$DIMTDEC
 70
     0
  9
$DIMALTU
 70
     2
  9
$DIMALTTD
 70
     2
  9
$DIMTXSTY
  7
Standard
  9
$DIMAUNIT
 70
     0
  9
$DIMADEC
 70
     0
  9
$DIMALTRND
 40
0.0
  9
$DIMAZIN
 70
     0
  9
$DIMDSEP
 70
    46
  9
$DIMATFIT
 70
     3
  9
$DIMFRAC
 70
     0
  9
$DIMLDRBLK
  1

  9
$DIMLUNIT
 70
     2
  9
$DIMLWD
 70
    -2
  9
$DIMLWE
 70
    -2
  9
$DIMTMOVE
 70
     0
  9
$DIMFXL
 40
1.0
  9
$DIMFXLON
 70
     0
  9
$DIMJOGANG
 40
0.7853981633974483
  9
$DIMTFILL
 70
     0
  9
$DIMTFILLCLR
 70
     0
  9
$DIMARCSYM
 70
     0
  9
$DIMLTYPE
  6

  9
$DIMLTEX1
  6

  9
$DIMLTEX2
  6

  9
$DIMTXTDIRECTION
 70
     0
  9
$LUNITS
 70
     2
  9
$LUPREC
 70
     2
  9
$SKETCHINC
 40
0.1
  9
$FILLETRAD
 40
0.0
  9
$AUNITS
 70
     0
  9
$AUPREC
 70
     0
  9
$MENU
  1
.
  9
$ELEVATION
 40
0.0
  9
$PELEVATION
 40
0.0
  9
$THICKNESS
 40
0.0
  9
$LIMCHECK
 70
     0
  9
$CHAMFERA
 40
0.0
  9
$CHAMFERB
 40
0.0
  9
$CHAMFERC
 40
0.0
  9
$CHAMFERD
 40
0.0
  9
$SKPOLY
 70
     0
  9
$TDCREATE
 40
2454176.562897766
  9
$TDUCREATE
 40
2454176.854564433
  9
$TDUPDATE
 40
2457150.468053021
  9
$TDUUPDATE
 40
2457150.759719687
  9
$TDINDWG
 40
0.5948898843
  9
$TDUSRTIMER
 40
0.5948896991
  9
$USRTIMER
 70
     1
  9
$ANGBASE
 50
0.0
  9
$ANGDIR
 70
     0
  9
$PDMODE
 70
     0
  9
$PDSIZE
 40
0.0
  9
$PLINEWID
 40
0.0
  9
$SPLFRAME
 70
     0
  9
$SPLINETYPE
 70
     6
  9
$SPLINESEGS
 70
     8
  9
$HANDSEED
  5
96A
  9
$SURFTAB1
 70
     6
  9
$SURFTAB2
 70
     6
  9
$SURFTYPE
 70
     6
  9
$SURFU
 70
     6
  9
$SURFV
 70
     6
  9
$UCSBASE
  2

  9
$UCSNAME
  2

  9
$UCSORG
 10
0.0
 20
0.0
 30
0.0
  9
$UCSXDIR
 10
1.0
 20
0.0
 30
0.0
  9
$UCSYDIR
 10
0.0
 20
1.0
 30
0.0
  9
$UCSORTHOREF
  2

  9
$UCSORTHOVIEW
 70
     0
  9
$UCSORGTOP
 10
0.0
 20
0.0
 30
0.0
  9
$UCSORGBOTTOM
 10
0.0
 20
0.0
 30
0.0
  9
$UCSORGLEFT
 10
0.0
 20
0.0
 30
0.0
  9
$UCSORGRIGHT
 10
0.0
 20
0.0
 30
0.0
  9
$UCSORGFRONT
 10
0.0
 20
0.0
 30
0.0
  9
$UCSORGBACK
 10
0.0
 20
0.0
 30
0.0
  9
$PUCSBASE
  2

  9
$PUCSNAME
  2

  9
$PUCSORG
 10
0.0
 20
0.0
 30
0.0
  9
$PUCSXDIR
 10
1.0
 20
0.0
 30
0.0
  9
$PUCSYDIR
 10
0.0
 20
1.0
 30
0.0
  9
$PUCSORTHOREF
  2

  9
$PUCSORTHOVIEW
 70
     0
  9
$PUCSORGTOP
 10
0.0
 20
0.0
 30
0.0
  9
$PUCSORGBOTTOM
 10
0.0
 20
0.0
 30
0.0
  9
$PUCSORGLEFT
 10
0.0
 20
0.0
 30
0.0
  9
$PUCSORGRIGHT
 10
0.0
 20
0.0
 30
0.0
  9
$PUCSORGFRONT
 10
0.0
 20
0.0
 30
0.0
  9
$PUCSORGBACK
 10
0.0
 20
0.0
 30
0.0
  9
$USERI1
 70
     0
  9
$USERI2
 70
     0
  9
$USERI3
 70
     0
  9
$USERI4
 70
     0
  9
$USERI5
 70
     0
  9
$USERR1
 40
0.0
  9
$USERR2
 40
0.0
  9
$USERR3
 40
0.0
  9
$USERR4
 40
0.0
  9
$USERR5
 40
0.0
  9
$WORLDVIEW
 70
     1
  9
$SHADEDGE
 70
     3
  9
$SHADEDIF
 70
    70
  9
$TILEMODE
 70
     1
  9
$MAXACTVP
 70
    64
  9
$PINSBASE
 10
0.0
 20
0.0
 30
0.0
  9
$PLIMCHECK
 70
     0
  9
$PEXTMIN
 10
-0.6542457672080886
 20
-0.3590246761301934
 30
0.0
  9
$PEXTMAX
 10
8.136129511390443
 20
10.89614615632632
 30
0.0
  9
$PLIMMIN
 10
-0.3749999962453767
 20
-0.3749999962453767
  9
$PLIMMAX
 10
8.124999763458733
 20
10.62499976345873
  9
$UNITMODE
 70
     0
  9
$VISRETAIN
 70
     1
  9
$PLINEGEN
 70
     0
  9
$PSLTSCALE
 70
     1
  9
$TREEDEPTH
 70
  3020
  9
$CMLSTYLE
  2
Standard
  9
$CMLJUST
 70
     0
  9
$CMLSCALE
 40
1.0
  9
$PROXYGRAPHICS
 70
     1
  9
$MEASUREMENT
 70
     0
  9
$CELWEIGHT
370
    -1
  9
$ENDCAPS
280
     0
  9
$JOINSTYLE
280
     0
  9
$LWDISPLAY
290
     0
  9
$INSUNITS
 70
     4
  9
$HYPERLINKBASE
  1

  9
$STYLESHEET
  1

  9
$XEDIT
290
     1
  9
$CEPSNTYPE
380
     0
  9
$PSTYLEMODE
290
     1
  9
$FINGERPRINTGUID
  2
{FDEAD576-A652-11D2-9A35-0060089B3A3F}
  9
$VERSIONGUID
  2
{0BA1B4AD-CCE0-444A-85EC-34138BB0AC8C}
  9
$EXTNAMES
290
     1
  9
$PSVPSCALE
 40
0.0
  9
$OLESTARTUP
290
     0
  9
$SORTENTS
280
   127
  9
$INDEXCTL
280
     0
  9
$HIDETEXT
280
     1
  9
$XCLIPFRAME
280
     0
  9
$HALOGAP
280
     0
  9
$OBSCOLOR
 70
   257
  9
$OBSLTYPE
280
     0
  9
$INTERSECTIONDISPLAY
280
     0
  9
$INTERSECTIONCOLOR
 70
   257
  9
$DIMASSOC
280
     2
  9
$PROJECTNAME
  1

  9
$CAMERADISPLAY
290
     0
  9
$LENSLENGTH
 40
50.0
  9
$CAMERAHEIGHT
 40
0.0
  9
$STEPSPERSEC
 40
2.0
  9
$STEPSIZE
 40
6.0
  9
$3DDWFPREC
 40
2.0
  9
$PSOLWIDTH
 40
0.25
  9
$PSOLHEIGHT
 40
4.0
  9
$LOFTANG1
 40
1.570796326794896
  9
$LOFTANG2
 40
1.570796326794896
  9
$LOFTMAG1
 40
0.0
  9
$LOFTMAG2
 40
0.0
  9
$LOFTPARAM
 70
     7
  9
$LOFTNORMALS
280
     1
  9
$LATITUDE
 40
37.795
  9
$LONGITUDE
 40
-122.394
  9
$NORTHDIRECTION
 40
0.0
  9
$TIMEZONE
 70
 -8000
  9
$LIGHTGLYPHDISPLAY
280
     1
  9
$TILEMODELIGHTSYNCH
280
     1
  9
$CMATERIAL
347
6E1
  9
$SOLIDHIST
280
     1
  9
$SHOWHIST
280
     1
  9
$DWFFRAME
280
     2
  9
$DGNFRAME
280
     0
  9
$REALWORLDSCALE
290
     1
  9
$INTERFERECOLOR
 62
     1
  9
$INTERFEREOBJVS
345
703
  9
$INTERFEREVPVS
346
700
  9
$CSHADOW
280
     0
  9
$SHADOWPLANELOCATION
 40
0.0
  0
ENDSEC
  0
SECTION
  2
CLASSES
  0
CLASS
  1
ACDBDICTIONARYWDFLT
  2
AcDbDictionaryWithDefault
  3
ObjectDBX Classes
 90
        0
 91
        1
280
     0
281
     0
  0
CLASS
  1
DICTIONARYVAR
  2
AcDbDictionaryVar
  3
ObjectDBX Classes
 90
        0
 91
       19
280
     0
281
     0
  0
CLASS
  1
DIMASSOC
  2
AcDbDimAssoc
  3
"AcDbDimAssoc|Product Desc:     AcDim ARX App For Dimension|Company:          Autodesk, Inc.|WEB Address:      www.autodesk.com"
 90
        0
 91
        2
280
     0
281
     0
  0
CLASS
  1
MATERIAL
  2
AcDbMaterial
  3
ObjectDBX Classes
 90
     1153
 91
        3
280
     0
281
     0
  0
CLASS
  1
VISUALSTYLE
  2
AcDbVisualStyle
  3
ObjectDBX Classes
 90
     4095
 91
       26
280
     0
281
     0
  0
CLASS
  1
TABLESTYLE
  2
AcDbTableStyle
  3
ObjectDBX Classes
 90
     4095
 91
        1
280
     0
281
     0
  0
CLASS
  1
SCALE
  2
AcDbScale
  3
ObjectDBX Classes
 90
     1153
 91
       33
280
     0
281
     0
  0
CLASS
  1
MLEADERSTYLE
  2
AcDbMLeaderStyle
  3
ACDB_MLEADERSTYLE_CLASS
 90
     4095
 91
        1
280
     0
281
     0
  0
CLASS
  1
CELLSTYLEMAP
  2
AcDbCellStyleMap
  3
ObjectDBX Classes
 90
     1152
 91
        2
280
     0
281
     0
  0
CLASS
  1
SORTENTSTABLE
  2
AcDbSortentsTable
  3
ObjectDBX Classes
 90
        0
 91
        1
280
     0
281
     0
  0
CLASS
  1
ACDBSECTIONVIEWSTYLE
  2
AcDbSectionViewStyle
  3
ObjectDBX Classes
 90
     1025
 91
        1
280
     0
281
     0
  0
CLASS
  1
ACDBDETAILVIEWSTYLE
  2
AcDbDetailViewStyle
  3
ObjectDBX Classes
 90
     1025
 91
        1
280
     0
281
     0
  0
ENDSEC
  0
SECTION
  2
TABLES
  0
TABLE
  2
VPORT
  5
8
330
0
100
AcDbSymbolTable
 70
     1
  0
VPORT
  5
6DF
330
8
100
AcDbSymbolTableRecord
100
AcDbViewportTableRecord
  2
*Active
 70
     0
 10
0.0
 20
0.0
 11
1.0
 21
1.0
 12
556.6424233727087
 22
332.1127898594505
 13
0.0
 23
0.0
 14
0.5
 24
0.5
 15
10.0
 25
10.0
 16
0.0
 26
0.0
 36
1.0
 17
0.0
 27
0.0
 37
0.0
 40
359.3426591302645
 41
1.912037037037037
 42
50.0
 43
0.0
 44
0.0
 50
0.0
 51
0.0
 71
     0
 72
  1000
 73
     1
 74
     3
 75
     0
 76
     0
 77
     0
 78
     0
281
     0
 65
     1
110
0.0
120
0.0
130
0.0
111
1.0
121
0.0
131
0.0
112
0.0
122
1.0
132
0.0
 79
     0
146
0.0
348
6FF
 60
     3
 61
     5
292
     1
282
     1
141
0.0
142
0.0
 63
   250
421
  3355443
1001
ACAD_NAV_VCDISPLAY
1070
     3
  0
ENDTAB
  0
TABLE
  2
LTYPE
  5
5
330
0
100
AcDbSymbolTable
 70
     2
  0
LTYPE
  5
14
330
5
100
AcDbSymbolTableRecord
100
AcDbLinetypeTableRecord
  2
ByBlock
 70
     0
  3

 72
    65
 73
     0
 40
0.0
  0
LTYPE
  5
15
330
5
100
AcDbSymbolTableRecord
100
AcDbLinetypeTableRecord
  2
ByLayer
 70
     0
  3

 72
    65
 73
     0
 40
0.0
  0
LTYPE
  5
16
330
5
100
AcDbSymbolTableRecord
100
AcDbLinetypeTableRecord
  2
Continuous
 70
     0
  3
Solid line
 72
    65
 73
     0
 40
0.0
  0
ENDTAB
  0
TABLE
  2
LAYER
  5
2
102
{ACAD_XDICTIONARY
360
7FD
102
}
330
0
100
AcDbSymbolTable
 70
     2
  0
LAYER
  5
10
102
{ACAD_XDICTIONARY
360
7CF
102
}
330
2
100
AcDbSymbolTableRecord
100
AcDbLayerTableRecord
  2
0
 70
     0
 62
     7
  6
Continuous
370
    -3
390
F
347
6F1
348
0
  0
LAYER
  5
44B
330
2
100
AcDbSymbolTableRecord
100
AcDbLayerTableRecord
  2
Defpoints
 70
     0
 62
     7
  6
Continuous
290
     0
370
    -3
390
F
347
6F1
348
0
  0
ENDTAB
  0
TABLE
  2
STYLE
  5
3
330
0
100
AcDbSymbolTable
 70
     1
  0
STYLE
  5
11
330
3
100
AcDbSymbolTableRecord
100
AcDbTextStyleTableRecord
  2
Standard
 70
     0
 40
0.0
 41
1.0
 50
0.0
 71
     0
 42
0.2
  3
ARIAL.TTF
  4

1001
ACAD
1000
Arial
1071
       34
  0
ENDTAB
  0
TABLE
  2
VIEW
  5
6
330
0
100
AcDbSymbolTable
 70
     3
  0
ENDTAB
  0
TABLE
  2
UCS
  5
7
330
0
100
AcDbSymbolTable
 70
     0
  0
ENDTAB
  0
TABLE
  2
APPID
  5
9
330
0
100
AcDbSymbolTable
 70
     9
  0
APPID
  5
12
330
9
100
AcDbSymbolTableRecord
100
AcDbRegAppTableRecord
  2
ACAD
 70
     0
  0
APPID
  5
730
330
9
100
AcDbSymbolTableRecord
100
AcDbRegAppTableRecord
  2
ACAD_MLEADERVER
 70
     0
  0
APPID
  5
73A
330
9
100
AcDbSymbolTableRecord
100
AcDbRegAppTableRecord
  2
AcadAnnoPO
 70
     0
  0
APPID
  5
73C
330
9
100
AcDbSymbolTableRecord
100
AcDbRegAppTableRecord
  2
ACAD_DSTYLE_DIMJAG
 70
     0
  0
APPID
  5
73D
330
9
100
AcDbSymbolTableRecord
100
AcDbRegAppTableRecord
  2
ACAD_DSTYLE_DIMTALN
 70
     0
  0
APPID
  5
73E
330
9
100
AcDbSymbolTableRecord
100
AcDbRegAppTableRecord
  2
ACAD_DSTYLE_DIMBREAK
 70
     0
  0
APPID
  5
819
330
9
100
AcDbSymbolTableRecord
100
AcDbRegAppTableRecord
  2
ACAD_PSEXT
 70
     0
  0
APPID
  5
8E2
330
9
100
AcDbSymbolTableRecord
100
AcDbRegAppTableRecord
  2
ACAD_EXEMPT_FROM_CAD_STANDARDS
 70
     0
  0
APPID
  5
943
330
9
100
AcDbSymbolTableRecord
100
AcDbRegAppTableRecord
  2
ACAD_NAV_VCDISPLAY
 70
     0
  0
ENDTAB
  0
TABLE
  2
DIMSTYLE
  5
A
330
0
100
AcDbSymbolTable
 70
     3
100
AcDbDimStyleTable
 71
     3
340
73F
340
672
340
27
  0
DIMSTYLE
105
27
330
A
100
AcDbSymbolTableRecord
100
AcDbDimStyleTableRecord
  2
Standard
 70
     0
340
11
  0
DIMSTYLE
105
672
330
A
100
AcDbSymbolTableRecord
100
AcDbDimStyleTableRecord
  2
KRYTON
 70
     0
  3
MM\X
  4
IN.
 41
2.0
140
3.0
143
0.0393700787401575
147
0.54
170
     1
171
     1
271
     1
272
     1
274
     1
340
11
  0
DIMSTYLE
105
73F
102
{ACAD_REACTORS
330
4AD
330
53B
102
}
330
A
100
AcDbSymbolTableRecord
100
AcDbDimStyleTableRecord
  2
Default
 70
     0
  3
 MM\X
  4
 IN.
 40
50.0
143
0.0393700787401575
170
     1
271
     0
272
     0
340
11
1001
ACAD_DSTYLE_DIMBREAK
1070
   391
1040
0.125
1001
ACAD_DSTYLE_DIMJAG
1070
   388
1040
1.5
1001
ACAD_DSTYLE_DIMTALN
1070
   392
1070
     0
  0
ENDTAB
  0
TABLE
  2
BLOCK_RECORD
  5
1
330
0
100
AcDbSymbolTable
 70
     5
  0
BLOCK_RECORD
  5
1F
102
{ACAD_XDICTIONARY
360
8DF
102
}
330
1
100
AcDbSymbolTableRecord
100
AcDbBlockTableRecord
  2
*Model_Space
340
22
 70
     0
280
     1
281
     0
  0
BLOCK_RECORD
  5
805
330
1
100
AcDbSymbolTableRecord
100
AcDbBlockTableRecord
  2
*Paper_Space
340
806
 70
     0
280
     1
281
     0
  0
BLOCK_RECORD
  5
58
330
1
100
AcDbSymbolTableRecord
100
AcDbBlockTableRecord
  2
*Paper_Space0
340
59
 70
     0
280
     1
281
     0
  0
BLOCK_RECORD
  5
4AE
330
1
100
AcDbSymbolTableRecord
100
AcDbBlockTableRecord
  2
*D1
340
0
 70
     0
280
     1
281
     0
  0
BLOCK_RECORD
  5
53C
330
1
100
AcDbSymbolTableRecord
100
AcDbBlockTableRecord
  2
*D2
340
0
 70
     0
280
     1
281
     0
  0
BLOCK_RECORD
  5
673
102
{ACAD_XDICTIONARY
360
675
102
}
330
1
100
AcDbSymbolTableRecord
100
AcDbBlockTableRecord
  2
joint line
340
0
102
{BLKREFS
331
678
331
67F
102
}
 70
     4
280
     1
281
     0
  0
BLOCK_RECORD
  5
5D
330
1
100
AcDbSymbolTableRecord
100
AcDbBlockTableRecord
  2
*Paper_Space4
340
5E
 70
     0
280
     1
281
     0
  0
ENDTAB
  0
ENDSEC
  0
SECTION
  2
BLOCKS
  0
BLOCK
  5
20
330
1F
100
AcDbEntity
  8
0
100
AcDbBlockBegin
  2
*Model_Space
 70
     0
 10
0.0
 20
0.0
 30
0.0
  3
*Model_Space
  1

  0
ENDBLK
  5
21
330
1F
100
AcDbEntity
  8
0
100
AcDbBlockEnd
  0
BLOCK
  5
807
330
805
100
AcDbEntity
 67
     1
  8
0
100
AcDbBlockBegin
  2
*Paper_Space
 70
     0
 10
0.0
 20
0.0
 30
0.0
  3
*Paper_Space
  1

  0
ENDBLK
  5
808
330
805
100
AcDbEntity
 67
     1
  8
0
100
AcDbBlockEnd
  0
BLOCK
  5
5A
330
58
100
AcDbEntity
 67
     1
  8
0
100
AcDbBlockBegin
  2
*Paper_Space0
 70
     0
 10
0.0
 20
0.0
 30
0.0
  3
*Paper_Space0
  1

  0
VIEWPORT
  5
8D
330
58
100
AcDbEntity
 67
     1
  8
0
100
AcDbViewport
 10
13.1249990988904
 20
12.76651372691203
 30
0.0
 40
40.47712937394144
 41
28.01552740020805
 68
     0
 69
     0
 12
13.1249990988904
 22
12.76651372691203
 13
0.0
 23
0.0
 14
0.5
 24
0.5
 15
0.5
 25
0.5
 16
0.0
 26
0.0
 36
1.0
 17
0.0
 27
0.0
 37
0.0
 42
50.0
 43
0.0
 44
0.0
 45
28.01552740020805
 50
0.0
 51
0.0
 72
  1000
 90
    32800
  1

281
     0
 71
     1
 74
     0
110
0.0
120
0.0
130
0.0
111
1.0
121
0.0
131
0.0
112
0.0
122
1.0
132
0.0
 79
     0
146
0.0
170
     0
 61
     5
348
6FF
292
     1
282
     1
141
0.0
142
0.0
 63
   250
421
  3355443
  0
VIEWPORT
  5
8F
330
58
100
AcDbEntity
 67
     1
  8
0
100
AcDbViewport
 10
12.93082500557209
 20
9.665609875446349
 30
0.0
 40
23.84659008504624
 41
12.66255716166765
 68
     0
 69
     0
 12
87.4650996018005
 22
113.5014182633942
 13
0.0
 23
0.0
 14
0.5
 24
0.5
 15
0.5
 25
0.5
 16
0.0
 26
0.0
 36
1.0
 17
0.0
 27
0.0
 37
0.0
 42
50.0
 43
0.0
 44
0.0
 45
244.1753892479596
 50
0.0
 51
0.0
 72
  1000
 90
    32864
  1

281
     0
 71
     1
 74
     0
110
0.0
120
0.0
130
0.0
111
1.0
121
0.0
131
0.0
112
0.0
122
1.0
132
0.0
 79
     0
146
0.0
170
     0
 61
     5
348
6FF
292
     1
282
     1
141
0.0
142
0.0
 63
   250
421
  3355443
  0
MTEXT
  5
3DD
330
58
100
AcDbEntity
 67
     1
  8
0
100
AcDbMText
 10
3.727752798924512
 20
1.579829956684761
 30
0.0
 40
0.5
 41
12.24228416685076
 46
0.0
 71
     1
 72
     5
  1
WALL TO SLAB CONNECTION
 73
     1
 44
1.0
  0
ENDBLK
  5
5B
330
58
100
AcDbEntity
 67
     1
  8
0
100
AcDbBlockEnd
  0
BLOCK
  5
4BB
330
4AE
100
AcDbEntity
  8
0
100
AcDbBlockBegin
  2
*D1
 70
     1
 10
0.0
 20
0.0
 30
0.0
  3
*D1
  1

  0
LINE
  5
7C5
330
4AE
100
AcDbEntity
  8
0
 62
     0
440
 16777216
370
    -2
100
AcDbLine
 10
367.525
 20
238.0
 30
0.0
 11
206.8900145199695
 21
238.0
 31
0.0
  0
LINE
  5
7C6
330
4AE
100
AcDbEntity
  8
0
 62
     0
440
 16777216
370
    -2
100
AcDbLine
 10
367.525
 20
269.75
 30
0.0
 11
206.8900145199695
 21
269.75
 31
0.0
  0
LINE
  5
7C7
330
4AE
100
AcDbEntity
  8
0
 62
     0
440
 16777216
370
    -2
100
AcDbLine
 10
215.8900145199695
 20
229.0
 30
0.0
 11
215.8900145199695
 21
220.0
 31
0.0
  0
LINE
  5
7C8
330
4AE
100
AcDbEntity
  8
0
 62
     0
440
 16777216
370
    -2
100
AcDbLine
 10
215.8900145199695
 20
278.75
 30
0.0
 11
215.8900145199695
 21
287.75
 31
0.0
  0
SOLID
  5
7C9
330
4AE
100
AcDbEntity
  8
0
 62
     0
440
 16777216
100
AcDbTrace
 10
214.3900145199695
 20
229.0
 30
0.0
 11
217.3900145199695
 21
229.0
 31
0.0
 12
215.8900145199695
 22
238.0
 32
0.0
 13
215.8900145199695
 23
238.0
 33
0.0
  0
SOLID
  5
7CA
330
4AE
100
AcDbEntity
  8
0
 62
     0
440
 16777216
100
AcDbTrace
 10
214.3900145199695
 20
278.75
 30
0.0
 11
217.3900145199695
 21
278.75
 31
0.0
 12
215.8900145199695
 22
269.75
 32
0.0
 13
215.8900145199695
 23
269.75
 33
0.0
  0
MTEXT
  5
7CB
330
4AE
100
AcDbEntity
  8
0
 62
     0
440
 16777216
100
AcDbMText
 10
215.8900145199695
 20
250.3411060301774
 30
0.0
 40
9.0
 41
0.0
 46
0.0
 71
     5
 72
     1
  1
\A1;32 MM\P [1.25 IN.]
 73
     1
 44
1.0
  0
POINT
  5
7CC
330
4AE
100
AcDbEntity
  8
Defpoints
 62
     0
440
 16777216
100
AcDbPoint
 10
370.65
 20
238.0
 30
0.0
  0
POINT
  5
7CD
330
4AE
100
AcDbEntity
  8
Defpoints
 62
     0
440
 16777216
100
AcDbPoint
 10
370.65
 20
269.75
 30
0.0
  0
POINT
  5
7CE
330
4AE
100
AcDbEntity
  8
Defpoints
 62
     0
440
 16777216
100
AcDbPoint
 10
215.8900145199695
 20
269.75
 30
0.0
  0
ENDBLK
  5
4BC
330
4AE
100
AcDbEntity
  8
0
100
AcDbBlockEnd
  0
BLOCK
  5
548
330
53C
100
AcDbEntity
  8
0
100
AcDbBlockBegin
  2
*D2
 70
     1
 10
0.0
 20
0.0
 30
0.0
  3
*D2
  1

  0
LINE
  5
7EB
330
53C
100
AcDbEntity
  8
0
 62
     0
440
 16777216
370
    -2
100
AcDbLine
 10
345.25
 20
234.875
 30
0.0
 11
345.25
 21
104.07355845137
 31
0.0
  0
LINE
  5
7EC
330
53C
100
AcDbEntity
  8
0
 62
     0
440
 16777216
370
    -2
100
AcDbLine
 10
396.05
 20
234.875
 30
0.0
 11
396.05
 21
104.07355845137
 31
0.0
  0
LINE
  5
7ED
330
53C
100
AcDbEntity
  8
0
 62
     0
440
 16777216
370
    -2
100
AcDbLine
 10
354.2499999999999
 20
113.07355845137
 30
0.0
 11
387.05
 21
113.07355845137
 31
0.0
  0
LINE
  5
7EE
330
53C
100
AcDbEntity
  8
0
 62
     0
440
 16777216
370
    -2
100
AcDbLine
 10
396.05
 20
113.07355845137
 30
0.0
 11
409.7034788540246
 21
113.07355845137
 31
0.0
  0
SOLID
  5
7EF
330
53C
100
AcDbEntity
  8
0
 62
     0
440
 16777216
100
AcDbTrace
 10
354.2499999999999
 20
114.57355845137
 30
0.0
 11
354.2499999999999
 21
111.57355845137
 31
0.0
 12
345.25
 22
113.07355845137
 32
0.0
 13
345.25
 23
113.07355845137
 33
0.0
  0
SOLID
  5
7F0
330
53C
100
AcDbEntity
  8
0
 62
     0
440
 16777216
100
AcDbTrace
 10
387.05
 20
114.57355845137
 30
0.0
 11
387.05
 21
111.57355845137
 31
0.0
 12
396.05
 22
113.07355845137
 32
0.0
 13
396.05
 23
113.07355845137
 33
0.0
  0
MTEXT
  5
7F1
330
53C
100
AcDbEntity
  8
0
 62
     0
440
 16777216
100
AcDbMText
 10
441.0499999999999
 20
113.07355845137
 30
0.0
 40
9.0
 41
0.0
 46
0.0
 71
     5
 72
     1
  1
\A1;51 MM\P [2.00 IN.]
 73
     1
 44
1.0
  0
POINT
  5
7F2
330
53C
100
AcDbEntity
  8
Defpoints
 62
     0
440
 16777216
100
AcDbPoint
 10
345.25
 20
238.0
 30
0.0
  0
POINT
  5
7F3
330
53C
100
AcDbEntity
  8
Defpoints
 62
     0
440
 16777216
100
AcDbPoint
 10
396.05
 20
238.0
 30
0.0
  0
POINT
  5
7F4
330
53C
100
AcDbEntity
  8
Defpoints
 62
     0
440
 16777216
100
AcDbPoint
 10
396.05
 20
113.07355845137
 30
0.0
  0
ENDBLK
  5
549
330
53C
100
AcDbEntity
  8
0
100
AcDbBlockEnd
  0
BLOCK
  5
676
330
673
100
AcDbEntity
  8
0
100
AcDbBlockBegin
  2
joint line
 70
     0
 10
0.0
 20
0.0
 30
0.0
  3
joint line
  1

  0
LWPOLYLINE
  5
674
330
673
100
AcDbEntity
  8
0
100
AcDbPolyline
 90
        7
 70
     0
 43
0.0
 10
40.06469683741646
 20
0.0
 10
14.66469683741647
 20
0.0
 10
0.0
 20
25.40000000000001
 10
0.0
 20
0.0
 10
0.0
 20
-25.40000000000001
 10
-14.66469683741645
 20
0.0
 10
-40.06469683741646
 20
0.0
  0
ENDBLK
  5
677
330
673
100
AcDbEntity
  8
0
100
AcDbBlockEnd
  0
BLOCK
  5
5F
330
5D
100
AcDbEntity
 67
     1
  8
0
100
AcDbBlockBegin
  2
*Paper_Space4
 70
     0
 10
0.0
 20
0.0
 30
0.0
  3
*Paper_Space4
  1

  0
VIEWPORT
  5
3B6
330
5D
100
AcDbEntity
 67
     1
  8
0
100
AcDbViewport
 10
6.88374832323554
 20
5.106605490764812
 30
0.0
 40
19.45834911693533
 41
11.20621096008322
 68
     0
 69
     0
 12
6.88374832323554
 22
5.106605490764812
 13
0.0
 23
0.0
 14
0.5
 24
0.5
 15
0.5
 25
0.5
 16
0.0
 26
0.0
 36
1.0
 17
0.0
 27
0.0
 37
0.0
 42
50.0
 43
0.0
 44
0.0
 45
11.20621096008322
 50
0.0
 51
0.0
 72
  1000
 90
    32800
  1

281
     0
 71
     1
 74
     0
110
0.0
120
0.0
130
0.0
111
1.0
121
0.0
131
0.0
112
0.0
122
1.0
132
0.0
 79
     0
146
0.0
170
     0
 61
     5
348
6FF
292
     1
282
     1
141
0.0
142
0.0
 63
   250
421
  3355443
  0
VIEWPORT
  5
3B8
330
5D
100
AcDbEntity
 67
     1
  8
0
100
AcDbViewport
 10
5.24999976158142
 20
3.99999976158142
 30
0.0
 40
8.399999618530271
 41
6.399999618530272
 68
     0
 69
     0
 12
175.0
 22
192.5000000000002
 13
0.0
 23
0.0
 14
0.5
 24
0.5
 15
0.5
 25
0.5
 16
0.0
 26
0.0
 36
1.0
 17
0.0
 27
0.0
 37
0.0
 42
50.0
 43
0.0
 44
0.0
 45
370.9189189189194
 50
0.0
 51
0.0
 72
  1000
 90
    32864
  1

281
     0
 71
     1
 74
     0
110
0.0
120
0.0
130
0.0
111
1.0
121
0.0
131
0.0
112
0.0
122
1.0
132
0.0
 79
     0
146
0.0
170
     0
 61
     5
348
6FF
292
     1
282
     1
141
0.0
142
0.0
 63
   250
421
  3355443
  0
ENDBLK
  5
60
330
5D
100
AcDbEntity
 67
     1
  8
0
100
AcDbBlockEnd
  0
ENDSEC
  0
SECTION
  2
ENTITIES
  0
LWPOLYLINE
  5
406
102
{ACAD_REACTORS
330
422
330
556
330
4CA
102
}
330
1F
100
AcDbEntity
  8
0
100
AcDbPolyline
 90
        3
 70
     1
 43
0.0
 10
370.65
 20
269.75
 10
345.25
 20
238.0
 10
396.05
 20
238.0
  0
LINE
  5
407
330
1F
100
AcDbEntity
  8
0
100
AcDbLine
 10
250.0
 20
238.0
 30
0.0
 11
250.0
 21
714.1242081812056
 31
0.0
  0
LINE
  5
409
330
1F
100
AcDbEntity
  8
0
100
AcDbLine
 10
249.9999999999999
 20
129.9999999999999
 30
0.0
 11
832.4999999999999
 21
129.9999999999999
 31
0.0
  0
LINE
  5
40B
102
{ACAD_REACTORS
330
422
102
}
330
1F
100
AcDbEntity
  8
0
100
AcDbLine
 10
832.4999999999999
 20
238.0
 30
0.0
 11
250.0
 21
238.0
 31
0.0
  0
LINE
  5
40C
330
1F
100
AcDbEntity
  8
0
100
AcDbLine
 10
250.0
 20
238.0
 30
0.0
 11
250.0
 21
130.0
 31
0.0
  0
LINE
  5
41C
330
1F
100
AcDbEntity
  8
0
100
AcDbLine
 10
491.2999999999999
 20
238.0
 30
0.0
 11
491.2999999999999
 21
714.1242081812056
 31
0.0
  0
HATCH
  5
422
330
1F
100
AcDbEntity
  8
0
100
AcDbHatch
 10
0.0
 20
0.0
 30
0.0
210
0.0
220
0.0
230
1.0
  2
ANSI31
 70
     0
 71
     1
 91
        1
 92
        7
 72
     0
 73
     1
 93
        3
 10
370.65
 20
269.75
 10
345.2499999999999
 20
238.0
 10
396.0499999999999
 20
238.0
 97
        2
330
406
330
40B
 75
     0
 76
     1
 52
0.0
 41
20.0
 77
     0
 78
     1
 53
45.0
 43
0.0
 44
0.0
 45
-1.767766952966368
 46
1.767766952966368
 79
     0
 47
0.1532901572532589
 98
        1
 10
370.8271426357478
 20
250.0217036091951
  0
HATCH
  5
440
330
1F
100
AcDbEntity
  8
0
100
AcDbHatch
 10
0.0
 20
0.0
 30
0.0
210
0.0
220
0.0
230
1.0
  2
AR-CONC
 70
     0
 71
     0
 91
        1
 92
        7
 72
     0
 73
     1
 93
        4
 10
832.5000005907018
 20
238.0
 10
250.0
 20
238.0000000000001
 10
250.0
 20
129.9999999999999
 10
832.5000005907014
 20
129.9999999999999
 97
        0
 75
     0
 76
     1
 52
0.0
 41
10.0
 77
     0
 78
    13
 53
50.0
 43
0.0
 44
0.0
 45
71.72601826007535
 46
-6.27521349825951
 79
     2
 49
7.5
 49
-82.5
 53
355.0
 43
0.0
 44
0.0
 45
-13.8751333613
 46
75.21921337000119
 79
     2
 49
6.0
 49
-66.0
 53
100.4514
 43
5.977168
 44
-0.5229340000000001
 45
57.85093817140215
 46
68.94395420609535
 79
     2
 49
6.374019
 49
-70.1142112
 53
46.1842
 43
0.0
 44
20.0
 45
106.7241048625644
 46
-16.5519014329018
 79
     2
 49
11.25
 49
-123.75
 53
96.6356
 43
8.893674499999999
 44
18.6206693
 45
93.46627055487033
 46
97.41178709004417
 79
     2
 49
9.561028799999998
 49
-105.1713
 53
351.1842000000001
 43
0.0
 44
20.0
 45
93.46619451336271
 46
97.41186009253247
 79
     2
 49
9.0
 49
-99.0
 53
21.0
 43
10.0
 44
15.0
 45
59.69070521184616
 46
-40.26188906653388
 79
     2
 49
7.5
 49
-82.5
 53
326.0
 43
10.0
 44
15.0
 45
24.33153319215817
 46
72.5150045046853
 79
     2
 49
6.0
 49
-66.0
 53
71.45140000000001
 43
14.9742233
 44
11.6448394
 45
84.02226285814899
 46
32.25304967099524
 79
     2
 49
6.374019
 49
-70.1142112
 53
37.5
 43
0.0
 44
0.0
 45
1.215985531729066
 46
33.28938538313115
 79
     6
 49
0.0
 49
-65.19999999999999
 49
0.0
 49
-67.0
 49
0.0
 49
-66.25
 53
7.499999999999999
 43
0.0
 44
0.0
 45
26.30695374421486
 46
39.44117118823603
 79
     6
 49
0.0
 49
-38.2
 49
0.0
 49
-63.7
 49
0.0
 49
-25.25
 53
327.5
 43
-22.3
 44
0.0
 45
53.3822436172409
 46
-2.255487173437979
 79
     6
 49
0.0
 49
-25.0
 49
0.0
 49
-78.0
 49
0.0
 49
-103.5
 53
317.5
 43
-32.3
 44
0.0
 45
58.31861693423862
 46
10.01049823323176
 79
     6
 49
0.0
 49
-32.5
 49
0.0
 49
-51.79999999999999
 49
0.0
 49
-73.5
 47
1.872518248916131
 98
        1
 10
494.7392629583296
 20
182.1394673658305
  0
LEADER
  5
444
330
1F
100
AcDbEntity
  8
0
100
AcDbLeader
  3
Standard
 73
     0
 74
     0
 75
     1
 40
26.95907230559345
 41
220.9665757162347
 76
     3
 10
423.9081788070938
 20
239.2014664388757
 30
0.0
 10
520.8412862231902
 20
310.2838925931387
 30
0.0
 10
529.8412862231903
 20
310.2838925931387
 30
0.0
340
445
213
1.4079502529421
223
0.0
233
0.0
1001
ACAD
1000
DSTYLE
1002
{
1070
   147
1040
0.09
1070
    77
1070
     0
1070
    40
1040
50.0
1002
}
  0
MTEXT
  5
445
102
{ACAD_REACTORS
330
444
102
}
330
1F
100
AcDbEntity
  8
0
100
AcDbMText
 10
532.9333359702482
 20
310.2838925931387
 30
0.0
 40
9.0
 41
0.0
 46
0.0
 71
     1
 72
     1
  1
KRYSTOL WATERSTOP TREATMENT\P1 kg/m² (0.2 lb. /sq. ft.)
 73
     1
 44
1.0
  0
LEADER
  5
448
330
1F
100
AcDbEntity
  8
0
100
AcDbLeader
  3
Standard
 73
     0
 74
     0
 75
     1
 40
26.95907230559345
 41
263.3758526603001
 76
     3
 10
373.731681835977
 20
265.8978977050285
 30
0.0
 10
518.9068130020226
 20
386.3797663184331
 30
0.0
 10
527.9068130020227
 20
386.3797663184331
 30
0.0
340
449
213
0.0
223
13.4795361527967
233
0.0
1001
ACAD
1000
DSTYLE
1002
{
1070
    40
1040
50.0
1002
}
  0
MTEXT
  5
449
102
{ACAD_REACTORS
330
448
102
}
330
1F
100
AcDbEntity
  8
0
100
AcDbMText
 10
532.4068130020227
 20
372.9002301656364
 30
0.0
 40
9.0
 41
0.0
 46
0.0
 71
     4
 72
     1
  1
KRYSTOL WATERSTOP GROUT (INTERNAL) \P1.67 kg/m (1.12 lb. /ft.)
 73
     1
 44
1.0
  0
DIMENSION
  5
4AD
102
{ACAD_XDICTIONARY
360
4BD
102
}
102
{ACAD_REACTORS
330
4CA
102
}
330
1F
100
AcDbEntity
  8
0
100
AcDbDimension
280
     0
  2
*D1
 10
215.8900145199695
 20
269.75
 30
0.0
 11
215.8900145199695
 21
250.3411060301774
 31
0.0
 70
   160
 71
     5
 42
31.74999999999997
 73
     0
 74
     0
 75
     0
  3
Default
100
AcDbAlignedDimension
 13
370.65
 23
238.0
 33
0.0
 14
370.65
 24
269.75
 34
0.0
 50
90.0
100
AcDbRotatedDimension
  0
DIMENSION
  5
53B
102
{ACAD_XDICTIONARY
360
54A
102
}
102
{ACAD_REACTORS
330
556
102
}
330
1F
100
AcDbEntity
  8
0
100
AcDbDimension
280
     0
  2
*D2
 10
396.05
 20
113.07355845137
 30
0.0
 11
441.0499999999999
 21
113.07355845137
 31
0.0
 70
   160
 71
     5
 42
50.80000000000007
 73
     0
 74
     0
 75
     0
  3
Default
100
AcDbAlignedDimension
 13
345.25
 23
238.0
 33
0.0
 14
396.05
 24
238.0
 34
0.0
100
AcDbRotatedDimension
  0
MTEXT
  5
63E
102
{ACAD_XDICTIONARY
360
91A
102
}
330
1F
100
AcDbEntity
  8
0
100
AcDbMText
 10
249.5041674618287
 20
64.39160646649066
 30
0.0
 40
11.0
 41
585.1977069470399
 46
0.0
 71
     1
 72
     5
  1
\pi1.2148;NEW CONSTRUCTION - WALL TO SLAB - SHOTCRETE (WALL ON TOP OF SLAB)\P\pi350.29;{\H0.72727x;REFER TO APPLICATION INSTRUCTION 4.21 }
 73
     1
 44
1.0
  0
INSERT
  5
678
330
1F
100
AcDbEntity
  8
0
100
AcDbBlockReference
  2
joint line
 10
832.4999999999999
 20
183.9999999999999
 30
0.0
 50
270.0
  0
LINE
  5
679
330
1F
100
AcDbEntity
  8
0
100
AcDbLine
 10
832.4999999999999
 20
169.3353031625834
 30
0.0
 11
832.4999999999999
 21
109.9999999999999
 31
0.0
  0
LINE
  5
67A
330
1F
100
AcDbEntity
  8
0
100
AcDbLine
 10
832.4999999999999
 20
224.0646968374164
 30
0.0
 11
832.4999999999999
 21
258.0
 31
0.0
  0
INSERT
  5
67F
330
1F
100
AcDbEntity
  8
0
100
AcDbBlockReference
  2
joint line
 10
370.65
 20
714.1242081812056
 30
0.0
  0
LINE
  5
682
330
1F
100
AcDbEntity
  8
0
100
AcDbLine
 10
410.7146968374165
 20
714.1242081812056
 30
0.0
 11
511.2999999999998
 21
714.1242081812056
 31
0.0
  0
LINE
  5
683
330
1F
100
AcDbEntity
  8
0
100
AcDbLine
 10
330.5853031625835
 20
714.1242081812056
 30
0.0
 11
230.0
 21
714.1242081812056
 31
0.0
  0
HATCH
  5
695
330
1F
100
AcDbEntity
  8
0
100
AcDbHatch
 10
0.0
 20
0.0
 30
0.0
210
0.0
220
0.0
230
1.0
  2
AR-CONC
 70
     0
 71
     0
 91
        1
 92
        5
 93
       14
 72
     1
 10
491.2999999999998
 20
714.1242081812056
 11
410.7146968374165
 21
714.1242081812056
 72
     1
 10
410.7146968374165
 20
714.1242081812056
 11
385.3146968374165
 21
714.1242081812056
 72
     1
 10
385.3146968374165
 20
714.1242081812056
 11
370.65
 21
739.5242081812055
 72
     1
 10
370.65
 20
739.5242081812055
 11
370.65
 21
714.1242081812056
 72
     1
 10
370.65
 20
714.1242081812056
 11
370.65
 21
688.7242081812056
 72
     1
 10
370.65
 20
688.7242081812056
 11
355.9853031625835
 21
714.1242081812054
 72
     1
 10
355.9853031625835
 20
714.1242081812054
 11
330.5853031625835
 21
714.1242081812056
 72
     1
 10
330.5853031625835
 20
714.1242081812056
 11
250.0
 21
714.1242081812057
 72
     1
 10
250.0
 20
714.1242081812057
 11
250.0
 21
239.8739184886226
 72
     4
 94
        3
 73
     0
 74
     0
 95
       44
 96
       40
 40
0.0
 40
0.0
 40
0.0
 40
0.0
 40
3.269909925411419
 40
7.832872176746143
 40
13.74618350539137
 40
18.83789793943806
 40
27.62629591284517
 40
39.78703986317395
 40
51.27232342570519
 40
64.78401604859371
 40
76.77945592182314
 40
86.13664056702637
 40
93.44573431115122
 40
99.35953342265644
 40
109.6849928895232
 40
119.0703689589469
 40
124.9841680704521
 40
130.5298119399914
 40
133.8726387213813
 40
134.7274421244416
 40
135.8943656439647
 40
138.250571700994
 40
139.5896670627453
 40
142.6452272425376
 40
149.5756186061776
 40
155.447081690252
 40
163.3728228830961
 40
171.1593184895527
 40
174.5939899265093
 40
175.7583203986984
 40
177.7777500172575
 40
179.5751492244513
 40
203.514070491935
 40
223.1023218014029
 40
237.8325999710533
 40
250.8880612376826
 40
261.7968789950682
 40
268.8255342616993
 40
270.5469908034962
 40
270.5469908034962
 40
270.5469908034962
 40
270.5469908034962
 10
250.0
 20
239.8739184886227
 10
251.0501173358192
 20
240.1914134894844
 10
253.5656101321605
 20
240.9519536313333
 10
258.1939390794286
 20
240.70927911031
 10
263.3741545860981
 20
241.2599192390999
 10
269.9279133545017
 20
240.2048884285454
 10
278.6186332216975
 20
240.1984803472664
 10
289.4217011152321
 20
239.8759784788668
 10
301.8195283863459
 20
240.2525309989378
 10
314.0987076850929
 20
240.1476663662746
 10
325.8808525571991
 20
240.9691007884855
 10
334.9852414796069
 20
240.1068584960938
 10
343.5467610496335
 20
238.6919800159756
 10
347.7321215996439
 20
246.3519167546305
 10
354.5359818792126
 20
251.3837635552881
 10
358.9969823573647
 20
258.8619203530432
 10
363.3652597807404
 20
264.2359912487245
 10
367.6227523558434
 20
267.1576886183046
 10
368.8986271406396
 20
270.094070399037
 10
370.7919742770755
 20
271.1230785184393
 10
371.53764616757
 20
269.407263087101
 10
373.333708412962
 20
269.0838280200873
 10
374.0293846267673
 20
266.7734999358938
 10
376.748171017841
 20
264.1036620239329
 10
380.3467737847434
 20
260.2305584662208
 10
384.0116439176553
 20
254.3266786253407
 10
389.0863769883222
 20
249.1938957700707
 10
392.9535663678742
 20
244.0686717454274
 10
394.8761793388933
 20
240.4100508183504
 10
396.802671036311
 20
239.023277900608
 10
398.5083111621442
 20
239.8326756511978
 10
407.7111285494535
 20
238.9264811092335
 10
422.866117641734
 20
241.3744291842511
 10
442.2436168190897
 20
239.1411345335021
 10
458.0419539700008
 20
239.9678038123827
 10
470.9357905207584
 20
239.3995692508199
 10
481.2738543172408
 20
240.1577388538288
 10
487.8088032991469
 20
239.4315534510848
 10
490.7260703651661
 20
239.4542374498596
 10
491.2999999999999
 20
239.458700194901
 97
        0
 72
     1
 10
370.6359559027692
 20
269.7324448784615
 11
370.6499999999999
 21
269.75
 72
     1
 10
370.6499999999999
 20
269.75
 11
370.6727626176118
 21
269.721546727985
 72
     4
 94
        3
 73
     0
 74
     0
 95
       44
 96
       40
 40
0.0
 40
0.0
 40
0.0
 40
0.0
 40
3.269909925411419
 40
7.832872176746143
 40
13.74618350539137
 40
18.83789793943806
 40
27.62629591284517
 40
39.78703986317395
 40
51.27232342570519
 40
64.78401604859371
 40
76.77945592182314
 40
86.13664056702637
 40
93.44573431115122
 40
99.35953342265644
 40
109.6849928895232
 40
119.0703689589469
 40
124.9841680704521
 40
130.5298119399914
 40
133.8726387213813
 40
134.7274421244416
 40
135.8943656439647
 40
138.250571700994
 40
139.5896670627453
 40
142.6452272425376
 40
149.5756186061776
 40
155.447081690252
 40
163.3728228830961
 40
171.1593184895527
 40
174.5939899265093
 40
175.7583203986984
 40
177.7777500172575
 40
179.5751492244513
 40
203.514070491935
 40
223.1023218014029
 40
237.8325999710533
 40
250.8880612376826
 40
261.7968789950682
 40
268.8255342616993
 40
270.5469908034962
 40
270.5469908034962
 40
270.5469908034962
 40
270.5469908034962
 10
250.0
 20
239.8739184886227
 10
251.0501173358192
 20
240.1914134894844
 10
253.5656101321605
 20
240.9519536313333
 10
258.1939390794286
 20
240.70927911031
 10
263.3741545860981
 20
241.2599192390999
 10
269.9279133545017
 20
240.2048884285454
 10
278.6186332216975
 20
240.1984803472664
 10
289.4217011152321
 20
239.8759784788668
 10
301.8195283863459
 20
240.2525309989378
 10
314.0987076850929
 20
240.1476663662746
 10
325.8808525571991
 20
240.9691007884855
 10
334.9852414796069
 20
240.1068584960938
 10
343.5467610496335
 20
238.6919800159756
 10
347.7321215996439
 20
246.3519167546305
 10
354.5359818792126
 20
251.3837635552881
 10
358.9969823573647
 20
258.8619203530432
 10
363.3652597807404
 20
264.2359912487245
 10
367.6227523558434
 20
267.1576886183046
 10
368.8986271406396
 20
270.094070399037
 10
370.7919742770755
 20
271.1230785184393
 10
371.53764616757
 20
269.407263087101
 10
373.333708412962
 20
269.0838280200873
 10
374.0293846267673
 20
266.7734999358938
 10
376.748171017841
 20
264.1036620239329
 10
380.3467737847434
 20
260.2305584662208
 10
384.0116439176553
 20
254.3266786253407
 10
389.0863769883222
 20
249.1938957700707
 10
392.9535663678742
 20
244.0686717454274
 10
394.8761793388933
 20
240.4100508183504
 10
396.802671036311
 20
239.023277900608
 10
398.5083111621442
 20
239.8326756511978
 10
407.7111285494535
 20
238.9264811092335
 10
422.866117641734
 20
241.3744291842511
 10
442.2436168190897
 20
239.1411345335021
 10
458.0419539700008
 20
239.9678038123827
 10
470.9357905207584
 20
239.3995692508199
 10
481.2738543172408
 20
240.1577388538288
 10
487.8088032991469
 20
239.4315534510848
 10
490.7260703651661
 20
239.4542374498596
 10
491.2999999999999
 20
239.458700194901
 97
        0
 72
     1
 10
491.2999999999999
 20
239.458700194901
 11
491.2999999999998
 21
714.1242081812056
 97
        0
 75
     0
 76
     1
 52
0.0
 41
10.0
 77
     0
 78
    13
 53
50.0
 43
0.0
 44
0.0
 45
71.72601826007535
 46
-6.27521349825951
 79
     2
 49
7.5
 49
-82.5
 53
355.0
 43
0.0
 44
0.0
 45
-13.8751333613
 46
75.21921337000119
 79
     2
 49
6.0
 49
-66.0
 53
100.4514
 43
5.977168
 44
-0.5229340000000001
 45
57.85093817140215
 46
68.94395420609535
 79
     2
 49
6.374019
 49
-70.1142112
 53
46.1842
 43
0.0
 44
20.0
 45
106.7241048625644
 46
-16.5519014329018
 79
     2
 49
11.25
 49
-123.75
 53
96.6356
 43
8.893674499999999
 44
18.6206693
 45
93.46627055487033
 46
97.41178709004417
 79
     2
 49
9.561028799999998
 49
-105.1713
 53
351.1842000000001
 43
0.0
 44
20.0
 45
93.46619451336271
 46
97.41186009253247
 79
     2
 49
9.0
 49
-99.0
 53
21.0
 43
10.0
 44
15.0
 45
59.69070521184616
 46
-40.26188906653388
 79
     2
 49
7.5
 49
-82.5
 53
326.0
 43
10.0
 44
15.0
 45
24.33153319215817
 46
72.5150045046853
 79
     2
 49
6.0
 49
-66.0
 53
71.45140000000001
 43
14.9742233
 44
11.6448394
 45
84.02226285814899
 46
32.25304967099524
 79
     2
 49
6.374019
 49
-70.1142112
 53
37.5
 43
0.0
 44
0.0
 45
1.215985531729066
 46
33.28938538313115
 79
     6
 49
0.0
 49
-65.19999999999999
 49
0.0
 49
-67.0
 49
0.0
 49
-66.25
 53
7.499999999999999
 43
0.0
 44
0.0
 45
26.30695374421486
 46
39.44117118823603
 79
     6
 49
0.0
 49
-38.2
 49
0.0
 49
-63.7
 49
0.0
 49
-25.25
 53
327.5
 43
-22.3
 44
0.0
 45
53.3822436172409
 46
-2.255487173437979
 79
     6
 49
0.0
 49
-25.0
 49
0.0
 49
-78.0
 49
0.0
 49
-103.5
 53
317.5
 43
-32.3
 44
0.0
 45
58.31861693423862
 46
10.01049823323176
 79
     6
 49
0.0
 49
-32.5
 49
0.0
 49
-51.79999999999999
 49
0.0
 49
-73.5
 47
1.700121010733111
 98
        1
 10
381.6833608469669
 20
466.8337550711628
  0
LINE
  5
8E8
330
1F
100
AcDbEntity
  8
0
100
AcDbLine
 10
250.0
 20
238.0
 30
0.0
 11
250.0
 21
241.0
 31
0.0
  0
LINE
  5
8E9
330
1F
100
AcDbEntity
  8
0
100
AcDbLine
 10
250.0
 20
241.0
 30
0.0
 11
343.898883088675
 21
241.1134470389185
 31
0.0
  0
LINE
  5
8EA
330
1F
100
AcDbEntity
  8
0
100
AcDbLine
 10
491.2999999999999
 20
238.0
 30
0.0
 11
491.2999999999999
 21
241.0
 31
0.0
  0
LINE
  5
8EB
330
1F
100
AcDbEntity
  8
0
100
AcDbLine
 10
491.2999999999999
 20
241.0
 30
0.0
 11
397.3570108730978
 21
241.1685795867025
 31
0.0
  0
LINE
  5
8EC
330
1F
100
AcDbEntity
  8
0
100
AcDbLine
 10
343.898883088675
 20
241.1134470389185
 30
0.0
 11
370.65
 21
274.5523431780746
 31
0.0
  0
LINE
  5
8ED
330
1F
100
AcDbEntity
  8
0
100
AcDbLine
 10
370.65
 20
274.5523431780746
 30
0.0
 11
397.3570108730978
 21
241.1685795867025
 31
0.0
  0
HATCH
  5
8FA
330
1F
100
AcDbEntity
  8
0
100
AcDbHatch
 10
0.0
 20
0.0
 30
0.0
210
0.0
220
0.0
230
1.0
  2
HEX
 70
     0
 71
     0
 91
        1
 92
        7
 72
     0
 73
     1
 93
       10
 10
370.6499999999999
 20
269.75
 10
396.0499999999999
 20
238.0
 10
491.2999999999999
 20
238.0
 10
491.2999999999999
 20
241.0
 10
397.3570108730978
 20
241.1685795867025
 10
370.6500000000001
 20
274.5523431780746
 10
343.898883088675
 20
241.1134470389185
 10
250.0
 20
241.0
 10
250.0
 20
238.0
 10
345.2499999999999
 20
238.0
 97
        0
 75
     0
 76
     1
 52
0.0
 41
3.0
 77
     0
 78
     3
 53
0.0
 43
0.0
 44
0.0
 45
0.0
 46
0.6495190530000001
 79
     2
 49
0.375
 49
-0.75
 53
120.0
 43
0.0
 44
0.0
 45
-0.5625000001400112
 46
-0.3247595264999999
 79
     2
 49
0.375
 49
-0.75
 53
60.0
 43
0.375
 44
0.0
 45
-0.5625000001400112
 46
0.3247595265000001
 79
     2
 49
0.375
 49
-0.75
 47
0.2779844140656866
 98
        1
 10
364.2373930503636
 20
264.7347672241231
1001
ACAD
1010
0.0
1020
0.0
1030
0.0
  0
VIEWPORT
  5
816
102
{ACAD_XDICTIONARY
360
817
102
}
330
805
100
AcDbEntity
 67
     1
  8
0
100
AcDbViewport
 10
6.9330183621948
 20
5.691407205735238
 30
0.0
 40
16.27443682077986
 41
8.5115698626839
 68
     1
 69
     1
 12
6.9330183621948
 22
5.691407205735238
 13
0.0
 23
0.0
 14
0.5
 24
0.5
 15
0.5
 25
0.5
 16
0.0
 26
0.0
 36
1.0
 17
0.0
 27
0.0
 37
0.0
 42
50.0
 43
0.0
 44
0.0
 45
8.5115698626839
 50
0.0
 51
0.0
 72
  1000
 90
   819232
  1

281
     0
 71
     1
 74
     0
110
0.0
120
0.0
130
0.0
111
1.0
121
0.0
131
0.0
112
0.0
122
1.0
132
0.0
 79
     0
146
0.0
170
     0
 61
     5
348
6FF
292
     1
282
     1
141
0.0
142
0.0
 63
   250
421
  3355443
  0
VIEWPORT
  5
81B
102
{ACAD_XDICTIONARY
360
81C
102
}
330
805
100
AcDbEntity
 67
     1
  8
0
100
AcDbViewport
 10
3.740941872091177
 20
5.268560740098067
 30
0.0
 40
8.790375278598531
 41
11.25517083245652
 68
     2
 69
     2
 12
514.1450989063193
 22
381.1719674550362
 13
0.0
 23
0.0
 14
0.5
 24
0.5
 15
10.0
 25
10.0
 16
0.0
 26
0.0
 36
1.0
 17
0.0
 27
0.0
 37
0.0
 42
50.0
 43
0.0
 44
0.0
 45
1093.183865860594
 50
0.0
 51
0.0
 72
  1000
 90
   819296
  1

281
     0
 71
     1
 74
     0
110
0.0
120
0.0
130
0.0
111
1.0
121
0.0
131
0.0
112
0.0
122
1.0
132
0.0
 79
     0
146
0.0
170
     0
 61
     5
348
6FF
292
     1
282
     1
141
0.0
142
0.0
 63
   250
421
  3355443
  0
ENDSEC
  0
SECTION
  2
OBJECTS
  0
DICTIONARY
  5
C
330
0
100
AcDbDictionary
281
     1
  3
ACAD_CIP_PREVIOUS_PRODUCT_INFO
350
932
  3
ACAD_COLOR
350
73
  3
ACAD_DETAILVIEWSTYLE
350
92A
  3
ACAD_GROUP
350
D
  3
ACAD_LAYOUT
350
1A
  3
ACAD_MATERIAL
350
72
  3
ACAD_MLEADERSTYLE
350
72E
  3
ACAD_MLINESTYLE
350
17
  3
ACAD_PLOTSETTINGS
350
19
  3
ACAD_PLOTSTYLENAME
350
E
  3
ACAD_SCALELIST
350
70C
  3
ACAD_SECTIONVIEWSTYLE
350
928
  3
ACAD_TABLESTYLE
350
70A
  3
ACAD_VISUALSTYLE
350
6F9
  3
AcadDim
350
441
  3
ACDB_RECOMPOSE_DATA
350
969
  3
AcDbVariableDictionary
350
66
  0
DICTIONARY
  5
7FD
330
2
100
AcDbDictionary
280
     1
281
     1
  3
ACAD_LAYERSTATES
360
7FE
  0
DICTIONARY
  5
7CF
330
10
100
AcDbDictionary
280
     1
281
     1
  3
ADSK_XREC_LAYER_RECONCILED
360
7D0
  0
DICTIONARY
  5
8DF
330
1F
100
AcDbDictionary
280
     1
281
     1
  3
ACAD_SORTENTS
360
8E0
  0
DICTIONARY
  5
675
330
673
100
AcDbDictionary
280
     1
281
     1
  0
DICTIONARY
  5
4BD
330
4AD
100
AcDbDictionary
280
     1
281
     1
  3
ACAD_DIMASSOC
360
4CA
  0
DICTIONARY
  5
54A
330
53B
100
AcDbDictionary
280
     1
281
     1
  3
ACAD_DIMASSOC
360
556
  0
DICTIONARY
  5
91A
330
63E
100
AcDbDictionary
280
     1
281
     1
  3
ACAD_MTEXT_2008_RT
360
963
  0
DICTIONARY
  5
817
330
816
100
AcDbDictionary
280
     1
281
     1
  3
ASDK_XREC_ANNOTATION_SCALE_INFO
360
818
  0
DICTIONARY
  5
81C
330
81B
100
AcDbDictionary
280
     1
281
     1
  3
ASDK_XREC_ANNOTATION_SCALE_INFO
360
81D
  0
XRECORD
  5
932
102
{ACAD_REACTORS
330
C
102
}
330
C
100
AcDbXrecord
280
     1
300
ACD
300
2014
300
ACD_F_S
  0
DICTIONARY
  5
73
102
{ACAD_REACTORS
330
C
102
}
330
C
100
AcDbDictionary
281
     1
  0
DICTIONARY
  5
92A
102
{ACAD_REACTORS
330
C
102
}
330
C
100
AcDbDictionary
281
     1
  3
Imperial24
350
92B
  0
DICTIONARY
  5
D
102
{ACAD_REACTORS
330
C
102
}
330
C
100
AcDbDictionary
281
     1
  0
DICTIONARY
  5
1A
102
{ACAD_REACTORS
330
C
102
}
330
C
100
AcDbDictionary
281
     1
  3
Layout1
350
59
  3
Layout2
350
5E
  3
Layout3
350
806
  3
Model
350
22
  0
DICTIONARY
  5
72
102
{ACAD_REACTORS
330
C
102
}
330
C
100
AcDbDictionary
281
     1
  3
ByBlock
350
6E9
  3
ByLayer
350
6E1
  3
Global
350
6F1
  0
DICTIONARY
  5
72E
102
{ACAD_REACTORS
330
C
102
}
330
C
100
AcDbDictionary
281
     1
  3
Standard
350
72F
  0
DICTIONARY
  5
17
102
{ACAD_REACTORS
330
C
102
}
330
C
100
AcDbDictionary
281
     1
  3
Standard
350
18
  0
DICTIONARY
  5
19
102
{ACAD_REACTORS
330
C
102
}
330
C
100
AcDbDictionary
281
     1
  0
ACDBDICTIONARYWDFLT
  5
E
102
{ACAD_REACTORS
330
C
102
}
330
C
100
AcDbDictionary
281
     1
  3
Normal
350
F
100
AcDbDictionaryWithDefault
340
F
  0
DICTIONARY
  5
70C
102
{ACAD_REACTORS
330
C
102
}
330
C
100
AcDbDictionary
281
     1
  3
A0
350
70D
  3
A1
350
70E
  3
A2
350
70F
  3
A3
350
710
  3
A4
350
711
  3
A5
350
712
  3
A6
350
713
  3
A7
350
714
  3
A8
350
715
  3
A9
350
716
  3
B0
350
717
  3
B1
350
718
  3
B2
350
719
  3
B3
350
71A
  3
B4
350
71B
  3
B5
350
71C
  3
B6
350
71D
  3
B7
350
71E
  3
B8
350
71F
  3
B9
350
720
  3
C0
350
721
  3
C1
350
722
  3
C2
350
723
  3
C3
350
724
  3
C4
350
725
  3
C5
350
726
  3
C6
350
727
  3
C7
350
728
  3
C8
350
729
  3
C9
350
72A
  3
D0
350
72B
  3
D1
350
72C
  3
D2
350
72D
  0
DICTIONARY
  5
928
102
{ACAD_REACTORS
330
C
102
}
330
C
100
AcDbDictionary
281
     1
  3
Imperial24
350
929
  0
DICTIONARY
  5
70A
102
{ACAD_REACTORS
330
C
102
}
330
C
100
AcDbDictionary
281
     1
  3
Standard
350
70B
  0
DICTIONARY
  5
6F9
102
{ACAD_REACTORS
330
C
102
}
330
C
100
AcDbDictionary
281
     1
  3
2dWireframe
350
6FF
  3
3D Hidden
350
701
  3
3dWireframe
350
700
  3
Basic
350
6FE
  3
Brighten
350
705
  3
ColorChange
350
709
  3
Conceptual
350
702
  3
Dim
350
704
  3
EdgeColorOff
350
927
  3
Facepattern
350
708
  3
Flat
350
6FA
  3
FlatWithEdges
350
6FB
  3
Gouraud
350
6FC
  3
GouraudWithEdges
350
6FD
  3
Hidden
350
91F
  3
JitterOff
350
925
  3
Linepattern
350
707
  3
OverhangOff
350
926
  3
Realistic
350
703
  3
Shaded
350
924
  3
Shaded with edges
350
923
  3
Shades of Gray
350
920
  3
Sketchy
350
921
  3
Thicken
350
706
  3
Wireframe
350
91E
  3
X-Ray
350
922
  0
XRECORD
  5
441
102
{ACAD_REACTORS
330
C
102
}
330
C
100
AcDbXrecord
280
     1
 90
   990106
  3

 60
     0
 61
     0
 62
     1
 63
     1
 64
     0
 65
     0
 66
     0
 67
     3
 68
     1
 69
     0
 70
     0
 71
     0
 72
     0
 40
0.0
170
     2
340
445
  0
XRECORD
  5
969
102
{ACAD_REACTORS
330
C
102
}
330
C
100
AcDbXrecord
280
     1
 90
        1
330
63E
330
70B
330
929
330
92B
  0
DICTIONARY
  5
66
102
{ACAD_REACTORS
330
C
102
}
330
C
100
AcDbDictionary
281
     1
  3
CANNOSCALE
350
866
  3
CMLEADERSTYLE
350
864
  3
CTABLESTYLE
350
863
  3
CVIEWDETAILSTYLE
350
95F
  3
CVIEWSECTIONSTYLE
350
960
  3
DIMASSOC
350
67
  3
HIDETEXT
350
6B
  3
LAYEREVAL
350
961
  3
LAYERNOTIFY
350
962
  3
LIGHTINGUNITS
350
867
  3
MSLTSCALE
350
865
  0
DICTIONARY
  5
7FE
102
{ACAD_REACTORS
330
7FD
102
}
330
7FD
100
AcDbDictionary
281
     1
  0
XRECORD
  5
7D0
102
{ACAD_REACTORS
330
7CF
102
}
330
7CF
100
AcDbXrecord
280
     1
290
     1
  0
SORTENTSTABLE
  5
8E0
102
{ACAD_REACTORS
330
8DF
102
}
330
8DF
100
AcDbSortentsTable
330
1F
331
8ED
  5
8EE
331
444
  5
448
331
679
  5
67F
331
41C
  5
440
331
40B
  5
41C
331
682
  5
695
331
445
  5
449
331
67A
  5
682
331
63E
  5
679
331
40C
  5
422
331
683
  5
8DE
331
53B
  5
678
331
8E8
  5
8E9
331
695
  5
8E8
331
406
  5
409
331
448
  5
4AD
331
8E9
  5
8EA
331
440
  5
445
331
8FA
  5
406
331
407
  5
40B
331
449
  5
53B
331
4AD
  5
63E
331
8EA
  5
8EB
331
67F
  5
683
331
8EB
  5
8EC
331
422
  5
444
331
409
  5
40C
331
678
  5
67A
331
8EC
  5
8ED
  0
DIMASSOC
  5
4CA
102
{ACAD_REACTORS
330
4BD
102
}
330
4BD
100
AcDbDimAssoc
330
4AD
 90
        3
 70
     0
 71
     0
  1
AcDbOsnapPointRef
 72
     2
331
406
 73
     2
 91
        2
 40
0.5
 10
0.0
 20
0.0
 30
0.0
 75
     0
  1
AcDbOsnapPointRef
 72
    13
331
406
 73
     2
 91
        1
 40
0.0
 10
0.0
 20
0.0
 30
2.000000000000000E+50
 75
     0
  0
DIMASSOC
  5
556
102
{ACAD_REACTORS
330
54A
102
}
330
54A
100
AcDbDimAssoc
330
53B
 90
        3
 70
     0
 71
     0
  1
AcDbOsnapPointRef
 72
     1
331
406
 73
     2
 91
        1
 40
1.0
 10
0.0
 20
0.0
 30
2.000000000000000E+50
 75
     0
  1
AcDbOsnapPointRef
 72
     1
331
406
 73
     2
 91
        2
 40
1.0
 10
0.0
 20
0.0
 30
2.000000000000000E+50
 75
     0
  0
XRECORD
  5
963
102
{ACAD_REACTORS
330
91A
102
}
330
91A
100
AcDbXrecord
280
     1
 40
651674.0
  1
\pxqr;NEW CONSTRUCTION - WALL TO SLAB - SHOTCRETE (WALL ON TOP OF SLAB)\P{\H0.72727x;REFER TO APPLICATION INSTRUCTION 4.21 }
  0
XRECORD
  5
818
102
{ACAD_REACTORS
330
817
102
}
330
817
100
AcDbXrecord
280
     1
 90
        1
340
70D
  0
XRECORD
  5
81D
102
{ACAD_REACTORS
330
81C
102
}
330
81C
100
AcDbXrecord
280
     1
 90
        1
340
718
  0
ACDBDETAILVIEWSTYLE
  5
92B
102
{ACAD_XDICTIONARY
360
967
102
}
102
{ACAD_REACTORS
330
92A
102
}
330
92A
100
AcDbModelDocViewStyle
 70
     0
  3
Imperial24
290
     0
100
AcDbDetailViewStyle
 70
     0
 71
     0
 90
        3
 71
     1
340
11
 62
   256
 40
0.24
340
0
 62
   256
 40
0.24
300

 40
0.36
280
     3
 71
     2
340
16
 90
       25
 62
   256
 71
     3
340
11
 62
   256
 40
0.24
 90
        1
 40
0.75
 90
        1
300
%<\AcVar ViewType \f "%tc1">% %<\AcVar ViewDetailId>%\PSCALE %<\AcVar ViewScale \f "%sn">%
 71
     4
340
16
 90
       25
 62
   256
340
16
 90
       25
 62
   256
280
     0
  0
LAYOUT
  5
59
102
{ACAD_XDICTIONARY
360
802
102
}
102
{ACAD_REACTORS
330
1A
102
}
330
1A
100
AcDbPlotSettings
  1

  2
none_device
  4
Letter_(8.50_x_11.00_Inches)
  6

 40
6.349999904632568
 41
6.349999904632568
 42
6.350006103515625
 43
6.350006103515625
 44
215.8999938964844
 45
279.3999938964844
 46
0.0
 47
0.0
 48
0.0
 49
0.0
140
0.0
141
0.0
142
1.0
143
2.5
 70
   672
 72
     0
 73
     1
 74
     5
  7

 75
     0
147
0.25
 76
     1
 77
     2
 78
   300
148
0.0
149
0.0
100
AcDbLayout
  1
Layout1
 70
     1
 71
     1
 10
-0.6250006007397269
 20
-0.6249999906134418
 11
26.87499879852055
 21
20.62499940864683
 12
0.0
 22
0.0
 32
0.0
 14
1.007529963048968
 24
0.9229404614596592
 34
0.0
 15
24.85412004809521
 25
15.99688845628017
 35
0.0
146
0.0
 13
0.0
 23
0.0
 33
0.0
 16
1.0
 26
0.0
 36
0.0
 17
0.0
 27
1.0
 37
0.0
 76
     0
330
58
331
8D
  0
LAYOUT
  5
5E
102
{ACAD_XDICTIONARY
360
810
102
}
102
{ACAD_REACTORS
330
1A
102
}
330
1A
100
AcDbPlotSettings
  1

  2
none_device
  4
Letter_(8.50_x_11.00_Inches)
  6

 40
6.349999904632568
 41
6.349999904632568
 42
6.350006103515625
 43
6.350006103515625
 44
215.8999938964844
 45
279.3999938964844
 46
0.0
 47
0.0
 48
0.0
 49
0.0
140
0.0
141
0.0
142
1.0
143
1.0
 70
   688
 72
     0
 73
     1
 74
     5
  7

 75
    16
147
1.0
 76
     1
 77
     2
 78
   300
148
0.0
149
0.0
100
AcDbLayout
  1
Layout2
 70
     1
 71
     2
 10
-0.2500002402958907
 20
-0.2499999962453767
 11
10.74999951940821
 21
8.249999763458731
 12
0.0
 22
0.0
 32
0.0
 14
1.049999952316284
 24
0.7999999523162842
 34
0.0
 15
9.449999570846555
 25
7.199999570846556
 35
0.0
146
0.0
 13
0.0
 23
0.0
 33
0.0
 16
1.0
 26
0.0
 36
0.0
 17
0.0
 27
1.0
 37
0.0
 76
     0
330
5D
331
3B6
  0
LAYOUT
  5
806
102
{ACAD_XDICTIONARY
360
835
102
}
102
{ACAD_REACTORS
330
1A
102
}
330
1A
100
AcDbPlotSettings
  1

  2
none_device
  4
Letter_(8.50_x_11.00_Inches)
  6

 40
6.349999904632568
 41
6.349999904632568
 42
6.350006103515625
 43
6.350006103515625
 44
215.8999938964844
 45
279.3999938964844
 46
3.174999999999999
 47
3.174999999999999
 48
0.0
 49
0.0
140
0.0
141
0.0
142
1.0
143
1.0
 70
   688
 72
     0
 73
     0
 74
     5
  7

 75
    16
147
1.0
 76
     0
 77
     2
 78
   300
148
0.0
149
0.0
100
AcDbLayout
  1
Layout3
 70
     1
 71
     3
 10
-0.3749999962453767
 20
-0.3749999962453767
 11
8.124999763458733
 21
10.62499976345873
 12
0.0
 22
0.0
 32
0.0
 14
-0.6542457672080886
 24
-0.3590246761301934
 34
0.0
 15
8.136129511390443
 25
10.89614615632632
 35
0.0
146
0.0
 13
0.0
 23
0.0
 33
0.0
 16
1.0
 26
0.0
 36
0.0
 17
0.0
 27
1.0
 37
0.0
 76
     0
330
805
331
816
1001
ACAD_PSEXT
1000
None
1000
None
1000
Not applicable
1000
The layout will not be plotted unless a new plotter configuration name is selected.
1070
     0
  0
LAYOUT
  5
22
102
{ACAD_REACTORS
330
1A
102
}
330
1A
100
AcDbPlotSettings
  1

  2
none_device
  4
ANSI_A_(8.50_x_11.00_Inches)
  6

 40
6.349999904632568
 41
19.04999923706055
 42
6.350006103515625
 43
19.04998779296875
 44
215.8999938964844
 45
279.3999938964844
 46
0.0
 47
0.0
 48
0.0
 49
0.0
140
0.0
141
0.0
142
1.0
143
2.584895464708373
 70
 11952
 72
     0
 73
     1
 74
     0
  7

 75
     0
147
0.3868628397755418
 76
     0
 77
     2
 78
   300
148
0.0
149
0.0
100
AcDbLayout
  1
Model
 70
     1
 71
     0
 10
0.0
 20
0.0
 11
12.0
 21
9.0
 12
0.0
 22
0.0
 32
0.0
 14
0.0
 24
0.0
 34
0.0
 15
0.0
 25
0.0
 35
0.0
146
0.0
 13
0.0
 23
0.0
 33
0.0
 16
1.0
 26
0.0
 36
0.0
 17
0.0
 27
1.0
 37
0.0
 76
     0
330
1F
331
6DF
  0
MATERIAL
  5
6E9
102
{ACAD_XDICTIONARY
360
6EA
102
}
102
{ACAD_REACTORS
330
72
102
}
330
72
100
AcDbMaterial
  1
ByBlock
 72
     0
 43
0.0008202099737533
 43
0.0
 43
0.0
 43
0.0
 43
0.0
 43
0.0008202099737533
 43
0.0
 43
0.0
 43
0.0
 43
0.0
 43
1.0
 43
0.0
 43
0.0
 43
0.0
 43
0.0
 43
1.0
 77
     0
 47
0.0008202099737533
 47
0.0
 47
0.0
 47
0.0
 47
0.0
 47
0.0008202099737533
 47
0.0
 47
0.0
 47
0.0
 47
0.0
 47
1.0
 47
0.0
 47
0.0
 47
0.0
 47
0.0
 47
1.0
171
     0
 49
0.0008202099737533
 49
0.0
 49
0.0
 49
0.0
 49
0.0
 49
0.0008202099737533
 49
0.0
 49
0.0
 49
0.0
 49
0.0
 49
1.0
 49
0.0
 49
0.0
 49
0.0
 49
0.0
 49
1.0
175
     0
142
0.0008202099737533
142
0.0
142
0.0
142
0.0
142
0.0
142
0.0008202099737533
142
0.0
142
0.0
142
0.0
142
0.0
142
1.0
142
0.0
142
0.0
142
0.0
142
0.0
142
1.0
179
     0
144
0.0008202099737533
144
0.0
144
0.0
144
0.0
144
0.0
144
0.0008202099737533
144
0.0
144
0.0
144
0.0
144
0.0
144
1.0
144
0.0
144
0.0
144
0.0
144
0.0
144
1.0
147
0.0008202099737533
147
0.0
147
0.0
147
0.0
147
0.0
147
0.0008202099737533
147
0.0
147
0.0
147
0.0
147
0.0
147
1.0
147
0.0
147
0.0
147
0.0
147
0.0
147
1.0
  0
MATERIAL
  5
6E1
102
{ACAD_XDICTIONARY
360
6E2
102
}
102
{ACAD_REACTORS
330
72
102
}
330
72
100
AcDbMaterial
  1
ByLayer
 72
     0
 43
0.0008202099737533
 43
0.0
 43
0.0
 43
0.0
 43
0.0
 43
0.0008202099737533
 43
0.0
 43
0.0
 43
0.0
 43
0.0
 43
1.0
 43
0.0
 43
0.0
 43
0.0
 43
0.0
 43
1.0
 77
     0
 47
0.0008202099737533
 47
0.0
 47
0.0
 47
0.0
 47
0.0
 47
0.0008202099737533
 47
0.0
 47
0.0
 47
0.0
 47
0.0
 47
1.0
 47
0.0
 47
0.0
 47
0.0
 47
0.0
 47
1.0
171
     0
 49
0.0008202099737533
 49
0.0
 49
0.0
 49
0.0
 49
0.0
 49
0.0008202099737533
 49
0.0
 49
0.0
 49
0.0
 49
0.0
 49
1.0
 49
0.0
 49
0.0
 49
0.0
 49
0.0
 49
1.0
175
     0
142
0.0008202099737533
142
0.0
142
0.0
142
0.0
142
0.0
142
0.0008202099737533
142
0.0
142
0.0
142
0.0
142
0.0
142
1.0
142
0.0
142
0.0
142
0.0
142
0.0
142
1.0
179
     0
144
0.0008202099737533
144
0.0
144
0.0
144
0.0
144
0.0
144
0.0008202099737533
144
0.0
144
0.0
144
0.0
144
0.0
144
1.0
144
0.0
144
0.0
144
0.0
144
0.0
144
1.0
147
0.0008202099737533
147
0.0
147
0.0
147
0.0
147
0.0
147
0.0008202099737533
147
0.0
147
0.0
147
0.0
147
0.0
147
1.0
147
0.0
147
0.0
147
0.0
147
0.0
147
1.0
  0
MATERIAL
  5
6F1
102
{ACAD_XDICTIONARY
360
6F2
102
}
102
{ACAD_REACTORS
330
72
102
}
330
72
100
AcDbMaterial
  1
Global
 72
     0
 43
0.0008202099737533
 43
0.0
 43
0.0
 43
0.0
 43
0.0
 43
0.0008202099737533
 43
0.0
 43
0.0
 43
0.0
 43
0.0
 43
1.0
 43
0.0
 43
0.0
 43
0.0
 43
0.0
 43
1.0
 77
     0
 47
0.0008202099737533
 47
0.0
 47
0.0
 47
0.0
 47
0.0
 47
0.0008202099737533
 47
0.0
 47
0.0
 47
0.0
 47
0.0
 47
1.0
 47
0.0
 47
0.0
 47
0.0
 47
0.0
 47
1.0
171
     0
 49
0.0008202099737533
 49
0.0
 49
0.0
 49
0.0
 49
0.0
 49
0.0008202099737533
 49
0.0
 49
0.0
 49
0.0
 49
0.0
 49
1.0
 49
0.0
 49
0.0
 49
0.0
 49
0.0
 49
1.0
175
     0
142
0.0008202099737533
142
0.0
142
0.0
142
0.0
142
0.0
142
0.0008202099737533
142
0.0
142
0.0
142
0.0
142
0.0
142
1.0
142
0.0
142
0.0
142
0.0
142
0.0
142
1.0
179
     0
144
0.0008202099737533
144
0.0
144
0.0
144
0.0
144
0.0
144
0.0008202099737533
144
0.0
144
0.0
144
0.0
144
0.0
144
1.0
144
0.0
144
0.0
144
0.0
144
0.0
144
1.0
147
0.0008202099737533
147
0.0
147
0.0
147
0.0
147
0.0
147
0.0008202099737533
147
0.0
147
0.0
147
0.0
147
0.0
147
1.0
147
0.0
147
0.0
147
0.0
147
0.0
147
1.0
  0
MLEADERSTYLE
  5
72F
102
{ACAD_REACTORS
330
72E
102
}
330
72E
100
AcDbMLeaderStyle
179
     2
170
     2
171
     1
172
     0
 90
        2
 40
0.0
 41
0.0
173
     1
 91
-1056964608
340
14
 92
       -2
290
     1
 42
0.09
291
     1
 43
0.36
  3
Standard
 44
0.18
300

342
11
174
     1
178
     6
175
     1
176
     0
 93
-1056964608
 45
0.18
292
     0
297
     0
 46
0.18
 94
-1056964608
 47
1.0
 49
1.0
140
1.0
293
     1
141
0.0
294
     1
177
     0
142
1.0
295
     1
296
     0
143
0.125
271
     0
272
     9
273
     9
298
     0
  0
MLINESTYLE
  5
18
102
{ACAD_REACTORS
330
17
102
}
330
17
100
AcDbMlineStyle
  2
STANDARD
 70
     0
  3

 62
   256
 51
90.0
 52
90.0
 71
     2
 49
0.5
 62
   256
  6
BYLAYER
 49
-0.5
 62
   256
  6
BYLAYER
  0
ACDBPLACEHOLDER
  5
F
102
{ACAD_REACTORS
330
E
102
}
330
E
  0
SCALE
  5
70D
102
{ACAD_REACTORS
330
70C
102
}
330
70C
100
AcDbScale
 70
     0
300
1:1
140
1.0
141
1.0
290
     1
  0
SCALE
  5
70E
102
{ACAD_REACTORS
330
70C
102
}
330
70C
100
AcDbScale
 70
     0
300
1:2
140
1.0
141
2.0
290
     0
  0
SCALE
  5
70F
102
{ACAD_REACTORS
330
70C
102
}
330
70C
100
AcDbScale
 70
     0
300
1:4
140
1.0
141
4.0
290
     0
  0
SCALE
  5
710
102
{ACAD_REACTORS
330
70C
102
}
330
70C
100
AcDbScale
 70
     0
300
1:5
140
1.0
141
5.0
290
     0
  0
SCALE
  5
711
102
{ACAD_REACTORS
330
70C
102
}
330
70C
100
AcDbScale
 70
     0
300
1:8
140
1.0
141
8.0
290
     0
  0
SCALE
  5
712
102
{ACAD_REACTORS
330
70C
102
}
330
70C
100
AcDbScale
 70
     0
300
1:10
140
1.0
141
10.0
290
     0
  0
SCALE
  5
713
102
{ACAD_REACTORS
330
70C
102
}
330
70C
100
AcDbScale
 70
     0
300
1:16
140
1.0
141
16.0
290
     0
  0
SCALE
  5
714
102
{ACAD_REACTORS
330
70C
102
}
330
70C
100
AcDbScale
 70
     0
300
1:20
140
1.0
141
20.0
290
     0
  0
SCALE
  5
715
102
{ACAD_REACTORS
330
70C
102
}
330
70C
100
AcDbScale
 70
     0
300
1:30
140
1.0
141
30.0
290
     0
  0
SCALE
  5
716
102
{ACAD_REACTORS
330
70C
102
}
330
70C
100
AcDbScale
 70
     0
300
1:40
140
1.0
141
40.0
290
     0
  0
SCALE
  5
717
102
{ACAD_REACTORS
330
70C
102
}
330
70C
100
AcDbScale
 70
     0
300
1:50
140
1.0
141
50.0
290
     0
  0
SCALE
  5
718
102
{ACAD_REACTORS
330
70C
102
}
330
70C
100
AcDbScale
 70
     0
300
1:100
140
1.0
141
100.0
290
     0
  0
SCALE
  5
719
102
{ACAD_REACTORS
330
70C
102
}
330
70C
100
AcDbScale
 70
     0
300
2:1
140
2.0
141
1.0
290
     0
  0
SCALE
  5
71A
102
{ACAD_REACTORS
330
70C
102
}
330
70C
100
AcDbScale
 70
     0
300
4:1
140
4.0
141
1.0
290
     0
  0
SCALE
  5
71B
102
{ACAD_REACTORS
330
70C
102
}
330
70C
100
AcDbScale
 70
     0
300
8:1
140
8.0
141
1.0
290
     0
  0
SCALE
  5
71C
102
{ACAD_REACTORS
330
70C
102
}
330
70C
100
AcDbScale
 70
     0
300
10:1
140
10.0
141
1.0
290
     0
  0
SCALE
  5
71D
102
{ACAD_REACTORS
330
70C
102
}
330
70C
100
AcDbScale
 70
     0
300
100:1
140
100.0
141
1.0
290
     0
  0
SCALE
  5
71E
102
{ACAD_REACTORS
330
70C
102
}
330
70C
100
AcDbScale
 70
     0
300
1/128" = 1'-0"
140
0.0078125
141
12.0
290
     0
  0
SCALE
  5
71F
102
{ACAD_REACTORS
330
70C
102
}
330
70C
100
AcDbScale
 70
     0
300
1/64" = 1'-0"
140
0.015625
141
12.0
290
     0
  0
SCALE
  5
720
102
{ACAD_REACTORS
330
70C
102
}
330
70C
100
AcDbScale
 70
     0
300
1/32" = 1'-0"
140
0.03125
141
12.0
290
     0
  0
SCALE
  5
721
102
{ACAD_REACTORS
330
70C
102
}
330
70C
100
AcDbScale
 70
     0
300
1/16" = 1'-0"
140
0.0625
141
12.0
290
     0
  0
SCALE
  5
722
102
{ACAD_REACTORS
330
70C
102
}
330
70C
100
AcDbScale
 70
     0
300
3/32" = 1'-0"
140
0.09375
141
12.0
290
     0
  0
SCALE
  5
723
102
{ACAD_REACTORS
330
70C
102
}
330
70C
100
AcDbScale
 70
     0
300
1/8" = 1'-0"
140
0.125
141
12.0
290
     0
  0
SCALE
  5
724
102
{ACAD_REACTORS
330
70C
102
}
330
70C
100
AcDbScale
 70
     0
300
3/16" = 1'-0"
140
0.1875
141
12.0
290
     0
  0
SCALE
  5
725
102
{ACAD_REACTORS
330
70C
102
}
330
70C
100
AcDbScale
 70
     0
300
1/4" = 1'-0"
140
0.25
141
12.0
290
     0
  0
SCALE
  5
726
102
{ACAD_REACTORS
330
70C
102
}
330
70C
100
AcDbScale
 70
     0
300
3/8" = 1'-0"
140
0.375
141
12.0
290
     0
  0
SCALE
  5
727
102
{ACAD_REACTORS
330
70C
102
}
330
70C
100
AcDbScale
 70
     0
300
1/2" = 1'-0"
140
0.5
141
12.0
290
     0
  0
SCALE
  5
728
102
{ACAD_REACTORS
330
70C
102
}
330
70C
100
AcDbScale
 70
     0
300
3/4" = 1'-0"
140
0.75
141
12.0
290
     0
  0
SCALE
  5
729
102
{ACAD_REACTORS
330
70C
102
}
330
70C
100
AcDbScale
 70
     0
300
1" = 1'-0"
140
1.0
141
12.0
290
     0
  0
SCALE
  5
72A
102
{ACAD_REACTORS
330
70C
102
}
330
70C
100
AcDbScale
 70
     0
300
1-1/2" = 1'-0"
140
1.5
141
12.0
290
     0
  0
SCALE
  5
72B
102
{ACAD_REACTORS
330
70C
102
}
330
70C
100
AcDbScale
 70
     0
300
3" = 1'-0"
140
3.0
141
12.0
290
     0
  0
SCALE
  5
72C
102
{ACAD_REACTORS
330
70C
102
}
330
70C
100
AcDbScale
 70
     0
300
6" = 1'-0"
140
6.0
141
12.0
290
     0
  0
SCALE
  5
72D
102
{ACAD_REACTORS
330
70C
102
}
330
70C
100
AcDbScale
 70
     0
300
1'-0" = 1'-0"
140
12.0
141
12.0
290
     0
  0
ACDBSECTIONVIEWSTYLE
  5
929
102
{ACAD_XDICTIONARY
360
965
102
}
102
{ACAD_REACTORS
330
928
102
}
330
928
100
AcDbModelDocViewStyle
 70
     0
  3
Imperial24
290
     0
100
AcDbSectionViewStyle
 70
     0
 71
     0
 90
       78
 71
     1
340
11
 62
   256
 40
0.24
340
0
340
0
 62
   256
 40
0.24
300
I, O, Q, S, X, Z
 40
0.48
 90
        3
 40
0.18
 90
        1
 71
     2
340
16
 90
       25
 62
   256
340
16
 90
       50
 62
   256
 40
0.24
 40
0.0
 40
0.24
 71
     3
340
11
 62
   256
 40
0.24
 90
        1
 40
0.75
 90
        1
300
%<\AcVar ViewType \f "%tc1">% %<\AcVar ViewSectionStartId>%-%<\AcVar ViewSectionEndId>%\PSCALE %<\AcVar ViewScale \f "%sn">%
 71
     4
 62
   256
 62
   257
300
ANSI31
 40
1.0
 90
        0
290
     0
290
     0
 90
        6
 40
0.0
 40
1.570796326794896
 40
0.2617993877991494
 40
1.308996938995747
 40
-0.2617993877991494
 40
1.832595714594046
  0
TABLESTYLE
  5
70B
102
{ACAD_XDICTIONARY
360
860
102
}
102
{ACAD_REACTORS
330
70A
102
}
330
70A
100
AcDbTableStyle
280
     0
  3
Standard
 70
     0
 71
     0
 40
0.06
 41
0.06
280
     0
281
     0
  7
Standard
140
0.18
170
     2
 62
     0
 63
     7
283
     0
 90
      512
 91
        0
  1

274
    -2
284
     1
 64
     0
275
    -2
285
     1
 65
     0
276
    -2
286
     1
 66
     0
277
    -2
287
     1
 67
     0
278
    -2
288
     1
 68
     0
279
    -2
289
     1
 69
     0
  7
Standard
140
0.25
170
     5
 62
     0
 63
     7
283
     0
 90
      512
 91
        0
  1

274
    -2
284
     1
 64
     0
275
    -2
285
     1
 65
     0
276
    -2
286
     1
 66
     0
277
    -2
287
     1
 67
     0
278
    -2
288
     1
 68
     0
279
    -2
289
     1
 69
     0
  7
Standard
140
0.18
170
     5
 62
     0
 63
     7
283
     0
 90
      512
 91
        0
  1

274
    -2
284
     1
 64
     0
275
    -2
285
     1
 65
     0
276
    -2
286
     1
 66
     0
277
    -2
287
     1
 67
     0
278
    -2
288
     1
 68
     0
279
    -2
289
     1
 69
     0
  0
VISUALSTYLE
  5
6FF
102
{ACAD_REACTORS
330
6F9
102
}
330
6F9
100
AcDbVisualStyle
  2
2dWireframe
 70
     4
177
     3
291
     0
 70
    58
 90
        0
176
     1
 90
        2
176
     1
 90
        0
176
     1
 90
        0
176
     1
 40
0.6
176
     1
 40
30.0
176
     1
 62
     7
420
 16777215
176
     1
 90
        1
176
     1
 90
        4
176
     1
 62
     7
176
     1
 62
   257
176
     1
 90
        1
176
     1
 90
        1
176
     1
 40
1.0
176
     1
 90
        0
176
     1
 62
   257
176
     1
 40
1.0
176
     1
 90
        1
176
     1
 90
        6
176
     1
 90
        2
176
     1
 62
     7
176
     1
 90
        5
176
     1
 90
        0
176
     1
 90
        0
176
     1
290
     0
176
     1
 90
        1
176
     1
 40
0.0
176
     1
 90
        0
176
     1
290
     1
176
     1
290
     1
176
     1
290
     0
176
     1
290
     0
176
     1
290
     0
176
     1
290
     0
176
     1
290
     0
176
     1
290
     0
176
     1
290
     0
176
     1
 90
       50
176
     1
 40
0.0
176
     1
 40
1.0
176
     1
 90
        0
176
     1
 62
    18
420
        0
176
     1
 90
       50
176
     1
 90
        3
176
     1
 62
     5
420
      255
176
     1
290
     0
176
     1
 90
       50
176
     1
 90
       50
176
     1
 90
       50
176
     1
290
     0
176
     1
 90
       50
176
     1
 62
   256
176
     0
 40
1.0
176
     0
 90
        2
176
     1
  1
strokes_ogs.tif
176
     1
290
     0
176
     1
 40
1.0
176
     1
 40
1.0
176
     1
  0
VISUALSTYLE
  5
701
102
{ACAD_REACTORS
330
6F9
102
}
330
6F9
100
AcDbVisualStyle
  2
3D Hidden
 70
     6
177
     3
291
     0
 70
    58
 90
        1
176
     1
 90
        2
176
     1
 90
        2
176
     1
 90
        0
176
     1
 40
0.6
176
     1
 40
30.0
176
     1
 62
     7
420
 16777215
176
     1
 90
        2
176
     1
 90
        2
176
     1
 62
     7
176
     1
 62
   257
176
     1
 90
        2
176
     1
 90
        1
176
     1
 40
40.0
176
     1
 90
        0
176
     1
 62
   257
176
     1
 40
1.0
176
     1
 90
        1
176
     1
 90
        6
176
     1
 90
        2
176
     1
 62
     7
176
     1
 90
        3
176
     1
 90
        0
176
     1
 90
        0
176
     1
290
     0
176
     1
 90
        1
176
     1
 40
0.0
176
     1
 90
        0
176
     1
290
     0
176
     1
290
     1
176
     1
290
     1
176
     1
290
     0
176
     1
290
     0
176
     1
290
     0
176
     1
290
     0
176
     1
290
     0
176
     1
290
     0
176
     1
 90
       50
176
     1
 40
0.0
176
     1
 40
1.0
176
     1
 90
        0
176
     1
 62
    18
420
        0
176
     1
 90
       50
176
     1
 90
        3
176
     1
 62
     5
420
      255
176
     1
290
     0
176
     1
 90
       50
176
     1
 90
       50
176
     1
 90
       50
176
     1
290
     0
176
     1
 90
       50
176
     1
 62
   256
176
     0
 40
1.0
176
     0
 90
        2
176
     1
  1
strokes_ogs.tif
176
     1
290
     0
176
     1
 40
1.0
176
     1
 40
1.0
176
     1
  0
VISUALSTYLE
  5
700
102
{ACAD_REACTORS
330
6F9
102
}
330
6F9
100
AcDbVisualStyle
  2
3dWireframe
 70
     5
177
     3
291
     0
 70
    58
 90
        0
176
     1
 90
        2
176
     1
 90
        0
176
     1
 90
        0
176
     1
 40
0.6
176
     1
 40
30.0
176
     1
 62
     7
420
 16777215
176
     1
 90
        1
176
     1
 90
        4
176
     1
 62
     7
176
     1
 62
   257
176
     1
 90
        1
176
     1
 90
        1
176
     1
 40
1.0
176
     1
 90
        0
176
     1
 62
   257
176
     1
 40
1.0
176
     1
 90
        1
176
     1
 90
        6
176
     1
 90
        2
176
     1
 62
     7
176
     1
 90
        5
176
     1
 90
        0
176
     1
 90
        0
176
     1
290
     0
176
     1
 90
        1
176
     1
 40
0.0
176
     1
 90
        0
176
     1
290
     0
176
     1
290
     1
176
     1
290
     1
176
     1
290
     0
176
     1
290
     0
176
     1
290
     0
176
     1
290
     0
176
     1
290
     0
176
     1
290
     0
176
     1
 90
       50
176
     1
 40
0.0
176
     1
 40
1.0
176
     1
 90
        0
176
     1
 62
    18
420
        0
176
     1
 90
       50
176
     1
 90
        3
176
     1
 62
     5
420
      255
176
     1
290
     0
176
     1
 90
       50
176
     1
 90
       50
176
     1
 90
       50
176
     1
290
     0
176
     1
 90
       50
176
     1
 62
   256
176
     0
 40
1.0
176
     0
 90
        2
176
     1
  1
strokes_ogs.tif
176
     1
290
     0
176
     1
 40
1.0
176
     1
 40
1.0
176
     1
  0
VISUALSTYLE
  5
6FE
102
{ACAD_REACTORS
330
6F9
102
}
330
6F9
100
AcDbVisualStyle
  2
Basic
 70
     7
177
     3
291
     1
 70
    58
 90
        1
176
     1
 90
        0
176
     1
 90
        1
176
     1
 90
        0
176
     1
 40
0.6
176
     1
 40
30.0
176
     1
 62
     7
420
 16777215
176
     1
 90
        0
176
     1
 90
        4
176
     1
 62
     7
176
     1
 62
   257
176
     1
 90
        1
176
     1
 90
        1
176
     1
 40
1.0
176
     1
 90
        8
176
     1
 62
     7
176
     1
 40
1.0
176
     1
 90
        1
176
     1
 90
        6
176
     1
 90
        2
176
     1
 62
     7
176
     1
 90
        5
176
     1
 90
        0
176
     1
 90
        0
176
     1
290
     0
176
     1
 90
        1
176
     1
 40
0.0
176
     1
 90
        0
176
     1
290
     0
176
     1
290
     1
176
     1
290
     1
176
     1
290
     0
176
     1
290
     0
176
     1
290
     0
176
     1
290
     0
176
     1
290
     0
176
     1
290
     0
176
     1
 90
       50
176
     1
 40
0.0
176
     1
 40
1.0
176
     1
 90
        0
176
     1
 62
    18
420
        0
176
     1
 90
       50
176
     1
 90
        3
176
     1
 62
     5
420
      255
176
     1
290
     0
176
     1
 90
       50
176
     1
 90
       50
176
     1
 90
       50
176
     1
290
     0
176
     1
 90
       50
176
     1
 62
   256
176
     0
 40
1.0
176
     0
 90
        2
176
     1
  1
strokes_ogs.tif
176
     1
290
     0
176
     1
 40
1.0
176
     1
 40
1.0
176
     1
  0
VISUALSTYLE
  5
705
102
{ACAD_REACTORS
330
6F9
102
}
330
6F9
100
AcDbVisualStyle
  2
Brighten
 70
    12
177
     3
291
     1
 70
    58
 90
        2
176
     1
 90
        2
176
     1
 90
        0
176
     1
 90
        0
176
     1
 40
0.6
176
     1
 40
30.0
176
     1
 62
     7
420
 16777215
176
     1
 90
        1
176
     1
 90
        4
176
     1
 62
     7
176
     1
 62
   257
176
     1
 90
        1
176
     1
 90
        1
176
     1
 40
1.0
176
     1
 90
        8
176
     1
 62
     7
176
     1
 40
1.0
176
     1
 90
        1
176
     1
 90
        6
176
     1
 90
        2
176
     1
 62
     7
176
     1
 90
        5
176
     1
 90
        0
176
     1
 90
        0
176
     1
290
     0
176
     1
 90
        1
176
     1
 40
50.0
176
     1
 90
        0
176
     1
290
     0
176
     1
290
     1
176
     1
290
     1
176
     1
290
     0
176
     1
290
     0
176
     1
290
     0
176
     1
290
     0
176
     1
290
     0
176
     1
290
     0
176
     1
 90
       50
176
     1
 40
0.0
176
     1
 40
1.0
176
     1
 90
        0
176
     1
 62
    18
420
        0
176
     1
 90
       50
176
     1
 90
        3
176
     1
 62
     5
420
      255
176
     1
290
     0
176
     1
 90
       50
176
     1
 90
       50
176
     1
 90
       50
176
     1
290
     0
176
     1
 90
       50
176
     1
 62
   256
176
     0
 40
1.0
176
     0
 90
        2
176
     1
  1
strokes_ogs.tif
176
     1
290
     0
176
     1
 40
1.0
176
     1
 40
1.0
176
     1
  0
VISUALSTYLE
  5
709
102
{ACAD_REACTORS
330
6F9
102
}
330
6F9
100
AcDbVisualStyle
  2
ColorChange
 70
    16
177
     3
291
     1
 70
    58
 90
        2
176
     1
 90
        2
176
     1
 90
        3
176
     1
 90
        0
176
     1
 40
0.6
176
     1
 40
30.0
176
     1
 62
     8
420
  8421504
176
     1
 90
        1
176
     1
 90
        4
176
     1
 62
     7
176
     1
 62
   257
176
     1
 90
        1
176
     1
 90
        1
176
     1
 40
1.0
176
     1
 90
        8
176
     1
 62
     8
420
  8421504
176
     1
 40
1.0
176
     1
 90
        1
176
     1
 90
        6
176
     1
 90
        2
176
     1
 62
     7
176
     1
 90
        5
176
     1
 90
        0
176
     1
 90
        0
176
     1
290
     0
176
     1
 90
        1
176
     1
 40
0.0
176
     1
 90
        0
176
     1
290
     0
176
     1
290
     1
176
     1
290
     1
176
     1
290
     0
176
     1
290
     0
176
     1
290
     0
176
     1
290
     0
176
     1
290
     0
176
     1
290
     0
176
     1
 90
       50
176
     1
 40
0.0
176
     1
 40
1.0
176
     1
 90
        0
176
     1
 62
    18
420
        0
176
     1
 90
       50
176
     1
 90
        3
176
     1
 62
     5
420
      255
176
     1
290
     0
176
     1
 90
       50
176
     1
 90
       50
176
     1
 90
       50
176
     1
290
     0
176
     1
 90
       50
176
     1
 62
   256
176
     0
 40
1.0
176
     0
 90
        2
176
     1
  1
strokes_ogs.tif
176
     1
290
     0
176
     1
 40
1.0
176
     1
 40
1.0
176
     1
  0
VISUALSTYLE
  5
702
102
{ACAD_REACTORS
330
6F9
102
}
330
6F9
100
AcDbVisualStyle
  2
Conceptual
 70
     9
177
     3
291
     0
 70
    58
 90
        3
176
     1
 90
        2
176
     1
 90
        0
176
     1
 90
        0
176
     1
 40
0.6
176
     1
 40
30.0
176
     1
 62
     7
420
 16777215
176
     1
 90
        2
176
     1
 90
        2
176
     1
 62
     7
176
     1
 62
   257
176
     1
 90
        1
176
     1
 90
        1
176
     1
 40
40.0
176
     1
 90
        8
176
     1
 62
     7
176
     1
 40
1.0
176
     1
 90
        1
176
     1
 90
        6
176
     1
 90
        2
176
     1
 62
     7
176
     1
 90
        3
176
     1
 90
        0
176
     1
 90
        0
176
     1
290
     0
176
     1
 90
        1
176
     1
 40
0.0
176
     1
 90
        0
176
     1
290
     0
176
     1
290
     1
176
     1
290
     1
176
     1
290
     0
176
     1
290
     0
176
     1
290
     0
176
     1
290
     0
176
     1
290
     0
176
     1
290
     0
176
     1
 90
       50
176
     1
 40
0.0
176
     1
 40
1.0
176
     1
 90
        0
176
     1
 62
    18
420
        0
176
     1
 90
       50
176
     1
 90
        3
176
     1
 62
     5
420
      255
176
     1
290
     0
176
     1
 90
       50
176
     1
 90
       50
176
     1
 90
       50
176
     1
290
     0
176
     1
 90
       50
176
     1
 62
   256
176
     0
 40
1.0
176
     0
 90
        2
176
     1
  1
strokes_ogs.tif
176
     1
290
     0
176
     1
 40
1.0
176
     1
 40
1.0
176
     1
  0
VISUALSTYLE
  5
704
102
{ACAD_REACTORS
330
6F9
102
}
330
6F9
100
AcDbVisualStyle
  2
Dim
 70
    11
177
     3
291
     1
 70
    58
 90
        2
176
     1
 90
        2
176
     1
 90
        0
176
     1
 90
        0
176
     1
 40
0.6
176
     1
 40
30.0
176
     1
 62
     7
420
 16777215
176
     1
 90
        1
176
     1
 90
        4
176
     1
 62
     7
176
     1
 62
   257
176
     1
 90
        1
176
     1
 90
        1
176
     1
 40
1.0
176
     1
 90
        8
176
     1
 62
     7
176
     1
 40
1.0
176
     1
 90
        1
176
     1
 90
        6
176
     1
 90
        2
176
     1
 62
     7
176
     1
 90
        5
176
     1
 90
        0
176
     1
 90
        0
176
     1
290
     0
176
     1
 90
        1
176
     1
 40
-50.0
176
     1
 90
        0
176
     1
290
     0
176
     1
290
     1
176
     1
290
     1
176
     1
290
     0
176
     1
290
     0
176
     1
290
     0
176
     1
290
     0
176
     1
290
     0
176
     1
290
     0
176
     1
 90
       50
176
     1
 40
0.0
176
     1
 40
1.0
176
     1
 90
        0
176
     1
 62
    18
420
        0
176
     1
 90
       50
176
     1
 90
        3
176
     1
 62
     5
420
      255
176
     1
290
     0
176
     1
 90
       50
176
     1
 90
       50
176
     1
 90
       50
176
     1
290
     0
176
     1
 90
       50
176
     1
 62
   256
176
     0
 40
1.0
176
     0
 90
        2
176
     1
  1
strokes_ogs.tif
176
     1
290
     0
176
     1
 40
1.0
176
     1
 40
1.0
176
     1
  0
VISUALSTYLE
  5
927
102
{ACAD_REACTORS
330
6F9
102
}
330
6F9
100
AcDbVisualStyle
  2
EdgeColorOff
 70
    22
177
     3
291
     1
 70
    58
 90
        2
176
     0
 90
        2
176
     0
 90
        0
176
     0
 90
        0
176
     0
 40
0.6
176
     0
 40
30.0
176
     0
 62
     7
420
 16777215
176
     0
 90
        1
176
     0
 90
        4
176
     0
 62
     7
176
     0
 62
   257
176
     0
 90
        1
176
     0
 90
        1
176
     0
 40
1.0
176
     0
 90
        8
176
     2
 62
     7
176
     0
 40
1.0
176
     0
 90
        1
176
     0
 90
        6
176
     0
 90
        2
176
     0
 62
     7
176
     0
 90
        5
176
     0
 90
        0
176
     0
 90
        0
176
     0
290
     0
176
     0
 90
        1
176
     0
 40
0.0
176
     0
 90
        0
176
     0
290
     0
176
     0
290
     1
176
     0
290
     1
176
     0
290
     0
176
     0
290
     0
176
     0
290
     0
176
     0
290
     0
176
     0
290
     0
176
     0
290
     0
176
     0
 90
       50
176
     0
 40
0.0
176
     0
 40
1.0
176
     0
 90
        0
176
     0
 62
    18
420
        0
176
     0
 90
       50
176
     0
 90
        3
176
     0
 62
     5
420
      255
176
     0
290
     0
176
     0
 90
       50
176
     0
 90
       50
176
     0
 90
       50
176
     0
290
     0
176
     0
 90
       50
176
     0
 62
   256
176
     0
 40
1.0
176
     0
 90
        2
176
     0
  1
strokes_ogs.tif
176
     0
290
     0
176
     0
 40
1.0
176
     0
 40
1.0
176
     0
  0
VISUALSTYLE
  5
708
102
{ACAD_REACTORS
330
6F9
102
}
330
6F9
100
AcDbVisualStyle
  2
Facepattern
 70
    15
177
     3
291
     1
 70
    58
 90
        2
176
     1
 90
        2
176
     1
 90
        0
176
     1
 90
        0
176
     1
 40
0.6
176
     1
 40
30.0
176
     1
 62
     7
420
 16777215
176
     1
 90
        1
176
     1
 90
        4
176
     1
 62
     7
176
     1
 62
   257
176
     1
 90
        1
176
     1
 90
        1
176
     1
 40
1.0
176
     1
 90
        8
176
     1
 62
     7
176
     1
 40
1.0
176
     1
 90
        1
176
     1
 90
        6
176
     1
 90
        2
176
     1
 62
     7
176
     1
 90
        5
176
     1
 90
        0
176
     1
 90
        0
176
     1
290
     0
176
     1
 90
        1
176
     1
 40
0.0
176
     1
 90
        0
176
     1
290
     0
176
     1
290
     1
176
     1
290
     1
176
     1
290
     0
176
     1
290
     0
176
     1
290
     0
176
     1
290
     0
176
     1
290
     0
176
     1
290
     0
176
     1
 90
       50
176
     1
 40
0.0
176
     1
 40
1.0
176
     1
 90
        0
176
     1
 62
    18
420
        0
176
     1
 90
       50
176
     1
 90
        3
176
     1
 62
     5
420
      255
176
     1
290
     0
176
     1
 90
       50
176
     1
 90
       50
176
     1
 90
       50
176
     1
290
     0
176
     1
 90
       50
176
     1
 62
   256
176
     0
 40
1.0
176
     0
 90
        2
176
     1
  1
strokes_ogs.tif
176
     1
290
     0
176
     1
 40
1.0
176
     1
 40
1.0
176
     1
  0
VISUALSTYLE
  5
6FA
102
{ACAD_REACTORS
330
6F9
102
}
330
6F9
100
AcDbVisualStyle
  2
Flat
 70
     0
177
     3
291
     1
 70
    58
 90
        2
176
     1
 90
        1
176
     1
 90
        1
176
     1
 90
        2
176
     1
 40
0.6
176
     1
 40
30.0
176
     1
 62
     7
420
 16777215
176
     1
 90
        0
176
     1
 90
        4
176
     1
 62
     7
176
     1
 62
   257
176
     1
 90
        1
176
     1
 90
        1
176
     1
 40
1.0
176
     1
 90
        8
176
     1
 62
     7
176
     1
 40
1.0
176
     1
 90
        1
176
     1
 90
        6
176
     1
 90
        2
176
     1
 62
     7
176
     1
 90
        5
176
     1
 90
        0
176
     1
 90
        0
176
     1
290
     0
176
     1
 90
       13
176
     1
 40
0.0
176
     1
 90
        0
176
     1
290
     0
176
     1
290
     1
176
     1
290
     1
176
     1
290
     0
176
     1
290
     0
176
     1
290
     0
176
     1
290
     0
176
     1
290
     0
176
     1
290
     0
176
     1
 90
       50
176
     1
 40
0.0
176
     1
 40
1.0
176
     1
 90
        0
176
     1
 62
    18
420
        0
176
     1
 90
       50
176
     1
 90
        3
176
     1
 62
     5
420
      255
176
     1
290
     0
176
     1
 90
       50
176
     1
 90
       50
176
     1
 90
       50
176
     1
290
     0
176
     1
 90
       50
176
     1
 62
   256
176
     0
 40
1.0
176
     0
 90
        2
176
     1
  1
strokes_ogs.tif
176
     1
290
     0
176
     1
 40
1.0
176
     1
 40
1.0
176
     1
  0
VISUALSTYLE
  5
6FB
102
{ACAD_REACTORS
330
6F9
102
}
330
6F9
100
AcDbVisualStyle
  2
FlatWithEdges
 70
     1
177
     3
291
     1
 70
    58
 90
        2
176
     1
 90
        1
176
     1
 90
        1
176
     1
 90
        2
176
     1
 40
0.6
176
     1
 40
30.0
176
     1
 62
     7
420
 16777215
176
     1
 90
        1
176
     1
 90
        4
176
     1
 62
     7
176
     1
 62
   257
176
     1
 90
        1
176
     1
 90
        1
176
     1
 40
1.0
176
     1
 90
        0
176
     1
 62
   257
176
     1
 40
1.0
176
     1
 90
        1
176
     1
 90
        6
176
     1
 90
        2
176
     1
 62
     7
176
     1
 90
        5
176
     1
 90
        0
176
     1
 90
        0
176
     1
290
     0
176
     1
 90
       13
176
     1
 40
0.0
176
     1
 90
        0
176
     1
290
     0
176
     1
290
     1
176
     1
290
     1
176
     1
290
     0
176
     1
290
     0
176
     1
290
     0
176
     1
290
     0
176
     1
290
     0
176
     1
290
     0
176
     1
 90
       50
176
     1
 40
0.0
176
     1
 40
1.0
176
     1
 90
        0
176
     1
 62
    18
420
        0
176
     1
 90
       50
176
     1
 90
        3
176
     1
 62
     5
420
      255
176
     1
290
     0
176
     1
 90
       50
176
     1
 90
       50
176
     1
 90
       50
176
     1
290
     0
176
     1
 90
       50
176
     1
 62
   256
176
     0
 40
1.0
176
     0
 90
        2
176
     1
  1
strokes_ogs.tif
176
     1
290
     0
176
     1
 40
1.0
176
     1
 40
1.0
176
     1
  0
VISUALSTYLE
  5
6FC
102
{ACAD_REACTORS
330
6F9
102
}
330
6F9
100
AcDbVisualStyle
  2
Gouraud
 70
     2
177
     3
291
     1
 70
    58
 90
        2
176
     1
 90
        2
176
     1
 90
        1
176
     1
 90
        2
176
     1
 40
0.6
176
     1
 40
30.0
176
     1
 62
     7
420
 16777215
176
     1
 90
        0
176
     1
 90
        4
176
     1
 62
     7
176
     1
 62
   257
176
     1
 90
        1
176
     1
 90
        1
176
     1
 40
1.0
176
     1
 90
        0
176
     1
 62
     7
176
     1
 40
1.0
176
     1
 90
        1
176
     1
 90
        6
176
     1
 90
        2
176
     1
 62
     7
176
     1
 90
        5
176
     1
 90
        0
176
     1
 90
        0
176
     1
290
     0
176
     1
 90
       13
176
     1
 40
0.0
176
     1
 90
        0
176
     1
290
     0
176
     1
290
     1
176
     1
290
     1
176
     1
290
     0
176
     1
290
     0
176
     1
290
     0
176
     1
290
     0
176
     1
290
     0
176
     1
290
     0
176
     1
 90
       50
176
     1
 40
0.0
176
     1
 40
1.0
176
     1
 90
        0
176
     1
 62
    18
420
        0
176
     1
 90
       50
176
     1
 90
        3
176
     1
 62
     5
420
      255
176
     1
290
     0
176
     1
 90
       50
176
     1
 90
       50
176
     1
 90
       50
176
     1
290
     0
176
     1
 90
       50
176
     1
 62
   256
176
     0
 40
1.0
176
     0
 90
        2
176
     1
  1
strokes_ogs.tif
176
     1
290
     0
176
     1
 40
1.0
176
     1
 40
1.0
176
     1
  0
VISUALSTYLE
  5
6FD
102
{ACAD_REACTORS
330
6F9
102
}
330
6F9
100
AcDbVisualStyle
  2
GouraudWithEdges
 70
     3
177
     3
291
     1
 70
    58
 90
        2
176
     1
 90
        2
176
     1
 90
        1
176
     1
 90
        2
176
     1
 40
0.6
176
     1
 40
30.0
176
     1
 62
     7
420
 16777215
176
     1
 90
        1
176
     1
 90
        4
176
     1
 62
     7
176
     1
 62
   257
176
     1
 90
        1
176
     1
 90
        1
176
     1
 40
1.0
176
     1
 90
        0
176
     1
 62
   257
176
     1
 40
1.0
176
     1
 90
        1
176
     1
 90
        6
176
     1
 90
        2
176
     1
 62
     7
176
     1
 90
        5
176
     1
 90
        0
176
     1
 90
        0
176
     1
290
     0
176
     1
 90
       13
176
     1
 40
0.0
176
     1
 90
        0
176
     1
290
     0
176
     1
290
     1
176
     1
290
     1
176
     1
290
     0
176
     1
290
     0
176
     1
290
     0
176
     1
290
     0
176
     1
290
     0
176
     1
290
     0
176
     1
 90
       50
176
     1
 40
0.0
176
     1
 40
1.0
176
     1
 90
        0
176
     1
 62
    18
420
        0
176
     1
 90
       50
176
     1
 90
        3
176
     1
 62
     5
420
      255
176
     1
290
     0
176
     1
 90
       50
176
     1
 90
       50
176
     1
 90
       50
176
     1
290
     0
176
     1
 90
       50
176
     1
 62
   256
176
     0
 40
1.0
176
     0
 90
        2
176
     1
  1
strokes_ogs.tif
176
     1
290
     0
176
     1
 40
1.0
176
     1
 40
1.0
176
     1
  0
VISUALSTYLE
  5
91F
102
{ACAD_REACTORS
330
6F9
102
}
330
6F9
100
AcDbVisualStyle
  2
Hidden
 70
     6
177
     3
291
     0
 70
    58
 90
        1
176
     1
 90
        2
176
     1
 90
        2
176
     1
 90
        0
176
     1
 40
0.6
176
     1
 40
30.0
176
     1
 62
     7
420
 16777215
176
     1
 90
        2
176
     1
 90
        2
176
     1
 62
     7
176
     1
 62
   257
176
     1
 90
        2
176
     1
 90
        1
176
     1
 40
40.0
176
     1
 90
        0
176
     1
 62
   257
176
     1
 40
1.0
176
     1
 90
        1
176
     1
 90
        6
176
     1
 90
        2
176
     1
 62
     7
176
     1
 90
        3
176
     1
 90
        0
176
     1
 90
        0
176
     1
290
     0
176
     1
 90
        1
176
     1
 40
0.0
176
     1
 90
        0
176
     1
290
     0
176
     1
290
     1
176
     1
290
     1
176
     1
290
     0
176
     1
290
     0
176
     1
290
     0
176
     1
290
     0
176
     1
290
     0
176
     1
290
     0
176
     1
 90
       50
176
     1
 40
0.0
176
     1
 40
1.0
176
     1
 90
        0
176
     1
 62
    18
420
        0
176
     1
 90
       50
176
     1
 90
        3
176
     1
 62
     5
420
      255
176
     1
290
     0
176
     1
 90
       50
176
     1
 90
       50
176
     1
 90
       50
176
     1
290
     0
176
     1
 90
       50
176
     1
 62
   256
176
     0
 40
1.0
176
     0
 90
        2
176
     1
  1
strokes_ogs.tif
176
     1
290
     0
176
     1
 40
1.0
176
     1
 40
1.0
176
     1
  0
VISUALSTYLE
  5
925
102
{ACAD_REACTORS
330
6F9
102
}
330
6F9
100
AcDbVisualStyle
  2
JitterOff
 70
    20
177
     3
291
     1
 70
    58
 90
        2
176
     0
 90
        2
176
     0
 90
        0
176
     0
 90
        0
176
     0
 40
0.6
176
     0
 40
30.0
176
     0
 62
     7
420
 16777215
176
     0
 90
        1
176
     0
 90
        4
176
     0
 62
     7
176
     0
 62
   257
176
     0
 90
        1
176
     0
 90
        1
176
     0
 40
1.0
176
     0
 90
       10
176
     2
 62
     7
176
     0
 40
1.0
176
     0
 90
        1
176
     0
 90
        6
176
     0
 90
        2
176
     0
 62
     7
176
     0
 90
        5
176
     0
 90
        0
176
     0
 90
        0
176
     0
290
     0
176
     0
 90
        1
176
     0
 40
0.0
176
     0
 90
        0
176
     0
290
     0
176
     0
290
     1
176
     0
290
     1
176
     0
290
     0
176
     0
290
     0
176
     0
290
     0
176
     0
290
     0
176
     0
290
     0
176
     0
290
     0
176
     0
 90
       50
176
     0
 40
0.0
176
     0
 40
1.0
176
     0
 90
        0
176
     0
 62
    18
420
        0
176
     0
 90
       50
176
     0
 90
        3
176
     0
 62
     5
420
      255
176
     0
290
     0
176
     0
 90
       50
176
     0
 90
       50
176
     0
 90
       50
176
     0
290
     0
176
     0
 90
       50
176
     0
 62
   256
176
     0
 40
1.0
176
     0
 90
        2
176
     0
  1
strokes_ogs.tif
176
     0
290
     0
176
     0
 40
1.0
176
     0
 40
1.0
176
     0
  0
VISUALSTYLE
  5
707
102
{ACAD_REACTORS
330
6F9
102
}
330
6F9
100
AcDbVisualStyle
  2
Linepattern
 70
    14
177
     3
291
     1
 70
    58
 90
        2
176
     1
 90
        2
176
     1
 90
        0
176
     1
 90
        0
176
     1
 40
0.6
176
     1
 40
30.0
176
     1
 62
     7
420
 16777215
176
     1
 90
        1
176
     1
 90
        4
176
     1
 62
     7
176
     1
 62
   257
176
     1
 90
        7
176
     1
 90
        7
176
     1
 40
1.0
176
     1
 90
        8
176
     1
 62
     7
176
     1
 40
1.0
176
     1
 90
        1
176
     1
 90
        6
176
     1
 90
        2
176
     1
 62
     7
176
     1
 90
        5
176
     1
 90
        0
176
     1
 90
        0
176
     1
290
     0
176
     1
 90
        1
176
     1
 40
0.0
176
     1
 90
        0
176
     1
290
     0
176
     1
290
     1
176
     1
290
     1
176
     1
290
     0
176
     1
290
     0
176
     1
290
     0
176
     1
290
     0
176
     1
290
     0
176
     1
290
     0
176
     1
 90
       50
176
     1
 40
0.0
176
     1
 40
1.0
176
     1
 90
        0
176
     1
 62
    18
420
        0
176
     1
 90
       50
176
     1
 90
        3
176
     1
 62
     5
420
      255
176
     1
290
     0
176
     1
 90
       50
176
     1
 90
       50
176
     1
 90
       50
176
     1
290
     0
176
     1
 90
       50
176
     1
 62
   256
176
     0
 40
1.0
176
     0
 90
        2
176
     1
  1
strokes_ogs.tif
176
     1
290
     0
176
     1
 40
1.0
176
     1
 40
1.0
176
     1
  0
VISUALSTYLE
  5
926
102
{ACAD_REACTORS
330
6F9
102
}
330
6F9
100
AcDbVisualStyle
  2
OverhangOff
 70
    21
177
     3
291
     1
 70
    58
 90
        2
176
     0
 90
        2
176
     0
 90
        0
176
     0
 90
        0
176
     0
 40
0.6
176
     0
 40
30.0
176
     0
 62
     7
420
 16777215
176
     0
 90
        1
176
     0
 90
        4
176
     0
 62
     7
176
     0
 62
   257
176
     0
 90
        1
176
     0
 90
        1
176
     0
 40
1.0
176
     0
 90
        9
176
     2
 62
     7
176
     0
 40
1.0
176
     0
 90
        1
176
     0
 90
        6
176
     0
 90
        2
176
     0
 62
     7
176
     0
 90
        5
176
     0
 90
        0
176
     0
 90
        0
176
     0
290
     0
176
     0
 90
        1
176
     0
 40
0.0
176
     0
 90
        0
176
     0
290
     0
176
     0
290
     1
176
     0
290
     1
176
     0
290
     0
176
     0
290
     0
176
     0
290
     0
176
     0
290
     0
176
     0
290
     0
176
     0
290
     0
176
     0
 90
       50
176
     0
 40
0.0
176
     0
 40
1.0
176
     0
 90
        0
176
     0
 62
    18
420
        0
176
     0
 90
       50
176
     0
 90
        3
176
     0
 62
     5
420
      255
176
     0
290
     0
176
     0
 90
       50
176
     0
 90
       50
176
     0
 90
       50
176
     0
290
     0
176
     0
 90
       50
176
     0
 62
   256
176
     0
 40
1.0
176
     0
 90
        2
176
     0
  1
strokes_ogs.tif
176
     0
290
     0
176
     0
 40
1.0
176
     0
 40
1.0
176
     0
  0
VISUALSTYLE
  5
703
102
{ACAD_REACTORS
330
6F9
102
}
330
6F9
100
AcDbVisualStyle
  2
Realistic
 70
     8
177
     3
291
     0
 70
    58
 90
        2
176
     1
 90
        2
176
     1
 90
        0
176
     1
 90
        0
176
     1
 40
0.6
176
     1
 40
30.0
176
     1
 62
     7
420
 16777215
176
     1
 90
        1
176
     1
 90
        0
176
     1
 62
     7
176
     1
 62
   257
176
     1
 90
        1
176
     1
 90
        1
176
     1
 40
1.0
176
     1
 90
        8
176
     1
 62
     8
420
  7895160
176
     1
 40
1.0
176
     1
 90
        1
176
     1
 90
        6
176
     1
 90
        2
176
     1
 62
     7
176
     1
 90
        5
176
     1
 90
        0
176
     1
 90
        0
176
     1
290
     0
176
     1
 90
       13
176
     1
 40
0.0
176
     1
 90
        0
176
     1
290
     0
176
     1
290
     1
176
     1
290
     1
176
     1
290
     0
176
     1
290
     0
176
     1
290
     0
176
     1
290
     0
176
     1
290
     0
176
     1
290
     0
176
     1
 90
       50
176
     1
 40
0.0
176
     1
 40
1.0
176
     1
 90
        0
176
     1
 62
    18
420
        0
176
     1
 90
       50
176
     1
 90
        3
176
     1
 62
     5
420
      255
176
     1
290
     0
176
     1
 90
       50
176
     1
 90
       50
176
     1
 90
       50
176
     1
290
     0
176
     1
 90
       50
176
     1
 62
   256
176
     0
 40
1.0
176
     0
 90
        2
176
     1
  1
strokes_ogs.tif
176
     1
290
     0
176
     1
 40
1.0
176
     1
 40
1.0
176
     1
  0
VISUALSTYLE
  5
924
102
{ACAD_REACTORS
330
6F9
102
}
330
6F9
100
AcDbVisualStyle
  2
Shaded
 70
    27
177
     3
291
     0
 70
    58
 90
        2
176
     1
 90
        2
176
     1
 90
        1
176
     1
 90
        2
176
     1
 40
0.6
176
     1
 40
30.0
176
     1
 62
     7
420
 16777215
176
     1
 90
        0
176
     1
 90
        4
176
     1
 62
     7
176
     1
 62
   257
176
     1
 90
        1
176
     1
 90
        1
176
     1
 40
1.0
176
     1
 90
        8
176
     1
 62
   257
176
     1
 40
1.0
176
     1
 90
        1
176
     1
 90
        6
176
     1
 90
        2
176
     1
 62
     8
420
  7895160
176
     1
 90
        3
176
     1
 90
        0
176
     1
 90
        0
176
     1
290
     0
176
     1
 90
        5
176
     1
 40
0.0
176
     1
 90
        0
176
     1
290
     0
176
     1
290
     1
176
     1
290
     1
176
     1
290
     0
176
     1
290
     0
176
     1
290
     0
176
     1
290
     0
176
     1
290
     0
176
     1
290
     0
176
     1
 90
       50
176
     1
 40
0.0
176
     1
 40
1.0
176
     1
 90
        0
176
     1
 62
    18
420
        0
176
     1
 90
       50
176
     1
 90
        3
176
     1
 62
     5
420
      255
176
     1
290
     0
176
     1
 90
       50
176
     1
 90
       50
176
     1
 90
       50
176
     1
290
     0
176
     1
 90
       50
176
     1
 62
   256
176
     0
 40
1.0
176
     0
 90
        2
176
     1
  1
strokes_ogs.tif
176
     1
290
     0
176
     1
 40
1.0
176
     1
 40
1.0
176
     1
  0
VISUALSTYLE
  5
923
102
{ACAD_REACTORS
330
6F9
102
}
330
6F9
100
AcDbVisualStyle
  2
Shaded with edges
 70
    26
177
     3
291
     0
 70
    58
 90
        2
176
     1
 90
        2
176
     1
 90
        1
176
     1
 90
        2
176
     1
 40
0.6
176
     1
 40
30.0
176
     1
 62
     7
420
 16777215
176
     1
 90
        1
176
     1
 90
       10
176
     1
 62
     7
176
     1
 62
   257
176
     1
 90
        2
176
     1
 90
        1
176
     1
 40
1.0
176
     1
 90
        8
176
     1
 62
   257
176
     1
 40
1.0
176
     1
 90
        1
176
     1
 90
        6
176
     1
 90
        2
176
     1
 62
     7
176
     1
 90
        3
176
     1
 90
        0
176
     1
 90
        0
176
     1
290
     0
176
     1
 90
        5
176
     1
 40
0.0
176
     1
 90
        0
176
     1
290
     0
176
     1
290
     1
176
     1
290
     1
176
     1
290
     0
176
     1
290
     0
176
     1
290
     0
176
     1
290
     0
176
     1
290
     0
176
     1
290
     0
176
     1
 90
       50
176
     1
 40
0.0
176
     1
 40
1.0
176
     1
 90
        0
176
     1
 62
    18
420
        0
176
     1
 90
       50
176
     1
 90
        3
176
     1
 62
     5
420
      255
176
     1
290
     0
176
     1
 90
       50
176
     1
 90
       50
176
     1
 90
       50
176
     1
290
     0
176
     1
 90
       50
176
     1
 62
   256
176
     0
 40
1.0
176
     0
 90
        2
176
     1
  1
strokes_ogs.tif
176
     1
290
     0
176
     1
 40
1.0
176
     1
 40
1.0
176
     1
  0
VISUALSTYLE
  5
920
102
{ACAD_REACTORS
330
6F9
102
}
330
6F9
100
AcDbVisualStyle
  2
Shades of Gray
 70
    23
177
     3
291
     0
 70
    58
 90
        2
176
     1
 90
        2
176
     1
 90
        3
176
     1
 90
        0
176
     1
 40
0.6
176
     1
 40
30.0
176
     1
 62
     7
420
 16777215
176
     1
 90
        2
176
     1
 90
        2
176
     1
 62
     7
176
     1
 62
     7
176
     1
 90
        1
176
     1
 90
        1
176
     1
 40
40.0
176
     1
 90
        8
176
     1
 62
     7
176
     1
 40
1.0
176
     1
 90
        1
176
     1
 90
        6
176
     1
 90
        2
176
     1
 62
     7
176
     1
 90
        3
176
     1
 90
        0
176
     1
 90
        0
176
     1
290
     0
176
     1
 90
        1
176
     1
 40
0.0
176
     1
 90
        0
176
     1
290
     0
176
     1
290
     1
176
     1
290
     1
176
     1
290
     0
176
     1
290
     0
176
     1
290
     0
176
     1
290
     0
176
     1
290
     0
176
     1
290
     0
176
     1
 90
       50
176
     1
 40
0.0
176
     1
 40
1.0
176
     1
 90
        0
176
     1
 62
    18
420
        0
176
     1
 90
       50
176
     1
 90
        3
176
     1
 62
     5
420
      255
176
     1
290
     0
176
     1
 90
       50
176
     1
 90
       50
176
     1
 90
       50
176
     1
290
     0
176
     1
 90
       50
176
     1
 62
   256
176
     0
 40
1.0
176
     0
 90
        2
176
     1
  1
strokes_ogs.tif
176
     1
290
     0
176
     1
 40
1.0
176
     1
 40
1.0
176
     1
  0
VISUALSTYLE
  5
921
102
{ACAD_REACTORS
330
6F9
102
}
330
6F9
100
AcDbVisualStyle
  2
Sketchy
 70
    24
177
     3
291
     0
 70
    58
 90
        1
176
     1
 90
        2
176
     1
 90
        2
176
     1
 90
        0
176
     1
 40
0.6
176
     1
 40
30.0
176
     1
 62
     7
420
 16777215
176
     1
 90
        2
176
     1
 90
        2
176
     1
 62
     7
176
     1
 62
     7
176
     1
 90
        1
176
     1
 90
        1
176
     1
 40
40.0
176
     1
 90
       11
176
     1
 62
     7
176
     1
 40
1.0
176
     1
 90
        1
176
     1
 90
        6
176
     1
 90
        2
176
     1
 62
     7
176
     1
 90
        6
176
     1
 90
        0
176
     1
 90
        0
176
     1
290
     0
176
     1
 90
        1
176
     1
 40
0.0
176
     1
 90
        0
176
     1
290
     0
176
     1
290
     1
176
     1
290
     1
176
     1
290
     0
176
     1
290
     0
176
     1
290
     0
176
     1
290
     0
176
     1
290
     0
176
     1
290
     0
176
     1
 90
       50
176
     1
 40
0.0
176
     1
 40
1.0
176
     1
 90
        0
176
     1
 62
    18
420
        0
176
     1
 90
       50
176
     1
 90
        3
176
     1
 62
     5
420
      255
176
     1
290
     0
176
     1
 90
       50
176
     1
 90
       50
176
     1
 90
       50
176
     1
290
     0
176
     1
 90
       50
176
     1
 62
   256
176
     0
 40
1.0
176
     0
 90
        2
176
     1
  1
strokes_ogs.tif
176
     1
290
     0
176
     1
 40
1.0
176
     1
 40
1.0
176
     1
  0
VISUALSTYLE
  5
706
102
{ACAD_REACTORS
330
6F9
102
}
330
6F9
100
AcDbVisualStyle
  2
Thicken
 70
    13
177
     3
291
     1
 70
    58
 90
        2
176
     1
 90
        2
176
     1
 90
        0
176
     1
 90
        0
176
     1
 40
0.6
176
     1
 40
30.0
176
     1
 62
     7
420
 16777215
176
     1
 90
        1
176
     1
 90
        4
176
     1
 62
     7
176
     1
 62
   257
176
     1
 90
        1
176
     1
 90
        1
176
     1
 40
1.0
176
     1
 90
       12
176
     1
 62
     7
176
     1
 40
1.0
176
     1
 90
        1
176
     1
 90
        6
176
     1
 90
        2
176
     1
 62
     7
176
     1
 90
        5
176
     1
 90
        0
176
     1
 90
        0
176
     1
290
     0
176
     1
 90
        1
176
     1
 40
0.0
176
     1
 90
        0
176
     1
290
     0
176
     1
290
     1
176
     1
290
     1
176
     1
290
     0
176
     1
290
     0
176
     1
290
     0
176
     1
290
     0
176
     1
290
     0
176
     1
290
     0
176
     1
 90
       50
176
     1
 40
0.0
176
     1
 40
1.0
176
     1
 90
        0
176
     1
 62
    18
420
        0
176
     1
 90
       50
176
     1
 90
        3
176
     1
 62
     5
420
      255
176
     1
290
     0
176
     1
 90
       50
176
     1
 90
       50
176
     1
 90
       50
176
     1
290
     0
176
     1
 90
       50
176
     1
 62
   256
176
     0
 40
1.0
176
     0
 90
        2
176
     1
  1
strokes_ogs.tif
176
     1
290
     0
176
     1
 40
1.0
176
     1
 40
1.0
176
     1
  0
VISUALSTYLE
  5
91E
102
{ACAD_REACTORS
330
6F9
102
}
330
6F9
100
AcDbVisualStyle
  2
Wireframe
 70
     5
177
     3
291
     0
 70
    58
 90
        0
176
     1
 90
        2
176
     1
 90
        0
176
     1
 90
        0
176
     1
 40
0.6
176
     1
 40
30.0
176
     1
 62
     7
420
 16777215
176
     1
 90
        1
176
     1
 90
        4
176
     1
 62
     7
176
     1
 62
   257
176
     1
 90
        1
176
     1
 90
        1
176
     1
 40
1.0
176
     1
 90
        0
176
     1
 62
   257
176
     1
 40
1.0
176
     1
 90
        1
176
     1
 90
        6
176
     1
 90
        2
176
     1
 62
     7
176
     1
 90
        3
176
     1
 90
        0
176
     1
 90
        0
176
     1
290
     0
176
     1
 90
        1
176
     1
 40
0.0
176
     1
 90
        0
176
     1
290
     0
176
     1
290
     1
176
     1
290
     1
176
     1
290
     0
176
     1
290
     0
176
     1
290
     0
176
     1
290
     0
176
     1
290
     0
176
     1
290
     0
176
     1
 90
       50
176
     1
 40
0.0
176
     1
 40
1.0
176
     1
 90
        0
176
     1
 62
    18
420
        0
176
     1
 90
       50
176
     1
 90
        3
176
     1
 62
     5
420
      255
176
     1
290
     0
176
     1
 90
       50
176
     1
 90
       50
176
     1
 90
       50
176
     1
290
     0
176
     1
 90
       50
176
     1
 62
   256
176
     0
 40
1.0
176
     0
 90
        2
176
     1
  1
strokes_ogs.tif
176
     1
290
     0
176
     1
 40
1.0
176
     1
 40
1.0
176
     1
  0
VISUALSTYLE
  5
922
102
{ACAD_REACTORS
330
6F9
102
}
330
6F9
100
AcDbVisualStyle
  2
X-Ray
 70
    25
177
     3
291
     0
 70
    58
 90
        2
176
     1
 90
        2
176
     1
 90
        1
176
     1
 90
        1
176
     1
 40
0.5
176
     1
 40
30.0
176
     1
 62
     7
420
 16777215
176
     1
 90
        1
176
     1
 90
        0
176
     1
 62
     7
176
     1
 62
   257
176
     1
 90
        1
176
     1
 90
        1
176
     1
 40
1.0
176
     1
 90
        8
176
     1
 62
     7
176
     1
 40
1.0
176
     1
 90
        1
176
     1
 90
        6
176
     1
 90
        2
176
     1
 62
     7
176
     1
 90
        3
176
     1
 90
        0
176
     1
 90
        0
176
     1
290
     0
176
     1
 90
       13
176
     1
 40
0.0
176
     1
 90
        0
176
     1
290
     0
176
     1
290
     1
176
     1
290
     1
176
     1
290
     0
176
     1
290
     0
176
     1
290
     0
176
     1
290
     0
176
     1
290
     0
176
     1
290
     0
176
     1
 90
       50
176
     1
 40
0.0
176
     1
 40
1.0
176
     1
 90
        0
176
     1
 62
    18
420
        0
176
     1
 90
       50
176
     1
 90
        3
176
     1
 62
     5
420
      255
176
     1
290
     0
176
     1
 90
       50
176
     1
 90
       50
176
     1
 90
       50
176
     1
290
     0
176
     1
 90
       50
176
     1
 62
   256
176
     0
 40
1.0
176
     0
 90
        2
176
     1
  1
strokes_ogs.tif
176
     1
290
     0
176
     1
 40
1.0
176
     1
 40
1.0
176
     1
  0
DICTIONARYVAR
  5
866
102
{ACAD_REACTORS
330
66
102
}
330
66
100
DictionaryVariables
280
     0
  1
1:1
  0
DICTIONARYVAR
  5
864
102
{ACAD_REACTORS
330
66
102
}
330
66
100
DictionaryVariables
280
     0
  1
STANDARD
  0
DICTIONARYVAR
  5
863
102
{ACAD_REACTORS
330
66
102
}
330
66
100
DictionaryVariables
280
     0
  1
STANDARD
  0
DICTIONARYVAR
  5
95F
102
{ACAD_REACTORS
330
66
102
}
330
66
100
DictionaryVariables
280
     0
  1
Imperial24
  0
DICTIONARYVAR
  5
960
102
{ACAD_REACTORS
330
66
102
}
330
66
100
DictionaryVariables
280
     0
  1
Imperial24
  0
DICTIONARYVAR
  5
67
102
{ACAD_REACTORS
330
66
102
}
330
66
100
DictionaryVariables
280
     0
  1
2
  0
DICTIONARYVAR
  5
6B
102
{ACAD_REACTORS
330
66
102
}
330
66
100
DictionaryVariables
280
     0
  1
1
  0
DICTIONARYVAR
  5
961
102
{ACAD_REACTORS
330
66
102
}
330
66
100
DictionaryVariables
280
     0
  1
1
  0
DICTIONARYVAR
  5
962
102
{ACAD_REACTORS
330
66
102
}
330
66
100
DictionaryVariables
280
     0
  1
15
  0
DICTIONARYVAR
  5
867
102
{ACAD_REACTORS
330
66
102
}
330
66
100
DictionaryVariables
280
     0
  1
0
  0
DICTIONARYVAR
  5
865
102
{ACAD_REACTORS
330
66
102
}
330
66
100
DictionaryVariables
280
     0
  1
0
  0
DICTIONARY
  5
967
330
92B
100
AcDbDictionary
280
     1
281
     1
  3
ACAD_XREC_ROUNDTRIP
360
968
  0
DICTIONARY
  5
802
330
59
100
AcDbDictionary
280
     1
281
     1
  0
DICTIONARY
  5
810
330
5E
100
AcDbDictionary
280
     1
281
     1
  0
DICTIONARY
  5
835
330
806
100
AcDbDictionary
280
     1
281
     1
  0
DICTIONARY
  5
6EA
330
6E9
100
AcDbDictionary
280
     1
281
     1
  3
BUMPTILE
360
6EC
  3
DIFFUSETILE
360
6EB
  3
OPACITYTILE
360
6EF
  3
REFLECTIONTILE
360
6EE
  3
REFRACTIONTILE
360
6F0
  3
SPECULARTILE
360
6ED
  0
DICTIONARY
  5
6E2
330
6E1
100
AcDbDictionary
280
     1
281
     1
  3
BUMPTILE
360
6E4
  3
DIFFUSETILE
360
6E3
  3
OPACITYTILE
360
6E7
  3
REFLECTIONTILE
360
6E6
  3
REFRACTIONTILE
360
6E8
  3
SPECULARTILE
360
6E5
  0
DICTIONARY
  5
6F2
330
6F1
100
AcDbDictionary
280
     1
281
     1
  3
BUMPTILE
360
6F4
  3
DIFFUSETILE
360
6F3
  3
OPACITYTILE
360
6F7
  3
REFLECTIONTILE
360
6F6
  3
REFRACTIONTILE
360
6F8
  3
SPECULARTILE
360
6F5
  0
DICTIONARY
  5
965
330
929
100
AcDbDictionary
280
     1
281
     1
  3
ACAD_XREC_ROUNDTRIP
360
966
  0
DICTIONARY
  5
860
330
70B
100
AcDbDictionary
280
     1
281
     1
  3
ACAD_ROUNDTRIP_2008_TABLESTYLE_CELLSTYLEMAP
360
964
  0
XRECORD
  5
968
102
{ACAD_REACTORS
330
967
102
}
330
967
100
AcDbXrecord
280
     1
102
DISPLAYNAME
  1
Imperial24
102
FLAGS
 90
        0
  0
XRECORD
  5
6EC
102
{ACAD_REACTORS
330
6EA
102
}
330
6EA
100
AcDbXrecord
280
     1
270
     1
271
     1
  0
XRECORD
  5
6EB
102
{ACAD_REACTORS
330
6EA
102
}
330
6EA
100
AcDbXrecord
280
     1
270
     1
271
     1
  0
XRECORD
  5
6EF
102
{ACAD_REACTORS
330
6EA
102
}
330
6EA
100
AcDbXrecord
280
     1
270
     1
271
     1
  0
XRECORD
  5
6EE
102
{ACAD_REACTORS
330
6EA
102
}
330
6EA
100
AcDbXrecord
280
     1
270
     1
271
     1
  0
XRECORD
  5
6F0
102
{ACAD_REACTORS
330
6EA
102
}
330
6EA
100
AcDbXrecord
280
     1
270
     1
271
     1
  0
XRECORD
  5
6ED
102
{ACAD_REACTORS
330
6EA
102
}
330
6EA
100
AcDbXrecord
280
     1
270
     1
271
     1
  0
XRECORD
  5
6E4
102
{ACAD_REACTORS
330
6E2
102
}
330
6E2
100
AcDbXrecord
280
     1
270
     1
271
     1
  0
XRECORD
  5
6E3
102
{ACAD_REACTORS
330
6E2
102
}
330
6E2
100
AcDbXrecord
280
     1
270
     1
271
     1
  0
XRECORD
  5
6E7
102
{ACAD_REACTORS
330
6E2
102
}
330
6E2
100
AcDbXrecord
280
     1
270
     1
271
     1
  0
XRECORD
  5
6E6
102
{ACAD_REACTORS
330
6E2
102
}
330
6E2
100
AcDbXrecord
280
     1
270
     1
271
     1
  0
XRECORD
  5
6E8
102
{ACAD_REACTORS
330
6E2
102
}
330
6E2
100
AcDbXrecord
280
     1
270
     1
271
     1
  0
XRECORD
  5
6E5
102
{ACAD_REACTORS
330
6E2
102
}
330
6E2
100
AcDbXrecord
280
     1
270
     1
271
     1
  0
XRECORD
  5
6F4
102
{ACAD_REACTORS
330
6F2
102
}
330
6F2
100
AcDbXrecord
280
     1
270
     1
271
     1
  0
XRECORD
  5
6F3
102
{ACAD_REACTORS
330
6F2
102
}
330
6F2
100
AcDbXrecord
280
     1
270
     1
271
     1
  0
XRECORD
  5
6F7
102
{ACAD_REACTORS
330
6F2
102
}
330
6F2
100
AcDbXrecord
280
     1
270
     1
271
     1
  0
XRECORD
  5
6F6
102
{ACAD_REACTORS
330
6F2
102
}
330
6F2
100
AcDbXrecord
280
     1
270
     1
271
     1
  0
XRECORD
  5
6F8
102
{ACAD_REACTORS
330
6F2
102
}
330
6F2
100
AcDbXrecord
280
     1
270
     1
271
     1
  0
XRECORD
  5
6F5
102
{ACAD_REACTORS
330
6F2
102
}
330
6F2
100
AcDbXrecord
280
     1
270
     1
271
     1
  0
XRECORD
  5
966
102
{ACAD_REACTORS
330
965
102
}
330
965
100
AcDbXrecord
280
     1
102
DISPLAYNAME
  1
Imperial24
102
FLAGS
 90
        0
  0
CELLSTYLEMAP
  5
964
102
{ACAD_REACTORS
330
860
102
}
330
860
100
AcDbCellStyleMap
 90
        3
300
CELLSTYLE
  1
TABLEFORMAT_BEGIN
 90
        5
170
     1
 91
        0
 92
    32768
 62
   257
 93
        1
300
CONTENTFORMAT
  1
CONTENTFORMAT_BEGIN
 90
        0
 91
        0
 92
      512
 93
        0
300

 40
0.0
140
1.0
 94
        5
 62
     0
340
11
144
0.25
309
CONTENTFORMAT_END
171
     0
 94
        0
309
TABLEFORMAT_END
  1
CELLSTYLE_BEGIN
 90
        1
 91
        1
300
_TITLE
309
CELLSTYLE_END
300
CELLSTYLE
  1
TABLEFORMAT_BEGIN
 90
        5
170
     1
 91
        0
 92
        0
 62
   257
 93
        1
300
CONTENTFORMAT
  1
CONTENTFORMAT_BEGIN
 90
        0
 91
        0
 92
      512
 93
        0
300

 40
0.0
140
1.0
 94
        5
 62
     0
340
11
144
0.18
309
CONTENTFORMAT_END
171
     0
 94
        0
309
TABLEFORMAT_END
  1
CELLSTYLE_BEGIN
 90
        2
 91
        1
300
_HEADER
309
CELLSTYLE_END
300
CELLSTYLE
  1
TABLEFORMAT_BEGIN
 90
        5
170
     1
 91
        0
 92
        0
 62
   257
 93
        1
300
CONTENTFORMAT
  1
CONTENTFORMAT_BEGIN
 90
        0
 91
        0
 92
      512
 93
        0
300

 40
0.0
140
1.0
 94
        2
 62
     0
340
11
144
0.18
309
CONTENTFORMAT_END
171
     0
 94
        0
309
TABLEFORMAT_END
  1
CELLSTYLE_BEGIN
 90
        3
 91
        2
300
_DATA
309
CELLSTYLE_END
  0
ENDSEC
  0
SECTION
  2
ACDSDATA
 70
     2
 71
     6
  0
ACDSSCHEMA
 90
        0
  1
AcDb_Thumbnail_Schema
  2
AcDbDs::ID
280
    10
 91
        8
  2
Thumbnail_Data
280
    15
 91
        0
101
ACDSRECORD
 95
        0
 90
        1
  2
AcDbDs::TreatedAsObjectData
280
     1
291
     1
101
ACDSRECORD
 95
        0
 90
        2
  2
AcDbDs::Legacy
280
     1
291
     1
101
ACDSRECORD
  1
AcDbDs::ID
 90
        3
  2
AcDs:Indexable
280
     1
291
     1
101
ACDSRECORD
  1
AcDbDs::ID
 90
        4
  2
AcDbDs::HandleAttribute
280
     7
282
     1
  0
ACDSSCHEMA
 90
        1
  1
AcDbDs::TreatedAsObjectDataSchema
  2
AcDbDs::TreatedAsObjectData
280
     1
 91
        0
  0
ACDSSCHEMA
 90
        2
  1
AcDbDs::LegacySchema
  2
AcDbDs::Legacy
280
     1
 91
        0
  0
ACDSSCHEMA
 90
        3
  1
AcDbDs::IndexedPropertySchema
  2
AcDs:Indexable
280
     1
 91
        0
  0
ACDSSCHEMA
 90
        4
  1
AcDbDs::HandleAttributeSchema
  2
AcDbDs::HandleAttribute
280
     7
 91
        1
284
     1
  0
ACDSRECORD
 90
        0
  2
AcDbDs::ID
280
    10
320
59
  2
Thumbnail_Data
280
    15
 94
     1150
310
89504E470D0A1A0A0000000D49484452000000B40000008B0803000000FF3F437800000300504C5445FFFFFF000000FFFFFF0000000000000000000000000000000000000000000000000000330000660000990000CC0000FF0033000033330033660033990033CC0033FF0066000066330066660066990066CC0066FF0099
310
000099330099660099990099CC0099FF00CC0000CC3300CC6600CC9900CCCC00CCFF00FF0000FF3300FF6600FF9900FFCC00FFFF3300003300333300663300993300CC3300FF3333003333333333663333993333CC3333FF3366003366333366663366993366CC3366FF3399003399333399663399993399CC3399FF33CC00
310
33CC3333CC6633CC9933CCCC33CCFF33FF0033FF3333FF6633FF9933FFCC33FFFF6600006600336600666600996600CC6600FF6633006633336633666633996633CC6633FF6666006666336666666666996666CC6666FF6699006699336699666699996699CC6699FF66CC0066CC3366CC6666CC9966CCCC66CCFF66FF0066
310
FF3366FF6666FF9966FFCC66FFFF9900009900339900669900999900CC9900FF9933009933339933669933999933CC9933FF9966009966339966669966999966CC9966FF9999009999339999669999999999CC9999FF99CC0099CC3399CC6699CC9999CCCC99CCFF99FF0099FF3399FF6699FF9999FFCC99FFFFCC0000CC00
310
33CC0066CC0099CC00CCCC00FFCC3300CC3333CC3366CC3399CC33CCCC33FFCC6600CC6633CC6666CC6699CC66CCCC66FFCC9900CC9933CC9966CC9999CC99CCCC99FFCCCC00CCCC33CCCC66CCCC99CCCCCCCCCCFFCCFF00CCFF33CCFF66CCFF99CCFFCCCCFFFFFF0000FF0033FF0066FF0099FF00CCFF00FFFF3300FF3333
310
FF3366FF3399FF33CCFF33FFFF6600FF6633FF6666FF6699FF66CCFF66FFFF9900FF9933FF9966FF9999FF99CCFF99FFFFCC00FFCC33FFCC66FFCC99FFCCCCFFCCFFFFFF00FFFF33FFFF66FFFF99FFFFCCFFFFFF0000000D0D0D1A1A1A2828283535354343435050505D5D5D6B6B6B787878868686939393A1A1A1AEAEAEBB
310
BBBBC9C9C9D6D6D6E4E4E4F1F1F1FFFFFF000000000000000000000000000000000000000000000000000000000000790CAC0F000001394944415478DAEDDCC10EC2201084E1BEFF63CE0B78E26E625285281463859DF2EF918B9F13D25DDAEA26BFBA6D4A6E057A185A0FF4BE59B2F5B28ED6D38FEBFD1F90A17D52060D1A
310
34E825D1961D113468D0A041073FB9D0C64183060DDA011DF84669033DADC595517E0E18F4391B15F464B4C2A29363D2254F8EE8DEA45370B4543F6E8544EB6D35263A27C9055DEC0B3FF4BE9D2DD06A7D1593AB8715FA79A93342BFBAA3EA7798E2256DD5C665377BA8D1C6194D97478BA4415F142D921E8B16490F4B5A24
310
0DFADB361EE9E4D27E7C11F3B8D57572040D1A34E8D5D0B2410B3468D0A04183060D1AF435D041DF805C089D6CD00934075BD0A041BBA019984083060D1A3468D033D08EBFFC3428D0A0FBD05E051A3468D07F419F3531803EEA88F1D0021D07CD94071AF448B4E33F7D333081AEA10DEB0EA70EF56E2E420C030000000049
310
454E44AE426082
  0
ACDSRECORD
 90
        0
  2
AcDbDs::ID
280
    10
320
5E
  2
Thumbnail_Data
280
    15
 94
     1425
310
89504E470D0A1A0A0000000D49484452000000B40000008B0803000000FF3F437800000300504C5445FFFFFF000000FFFFFF0000000000000000000000000000000000000000000000000000330000660000990000CC0000FF0033000033330033660033990033CC0033FF0066000066330066660066990066CC0066FF0099
310
000099330099660099990099CC0099FF00CC0000CC3300CC6600CC9900CCCC00CCFF00FF0000FF3300FF6600FF9900FFCC00FFFF3300003300333300663300993300CC3300FF3333003333333333663333993333CC3333FF3366003366333366663366993366CC3366FF3399003399333399663399993399CC3399FF33CC00
310
33CC3333CC6633CC9933CCCC33CCFF33FF0033FF3333FF6633FF9933FFCC33FFFF6600006600336600666600996600CC6600FF6633006633336633666633996633CC6633FF6666006666336666666666996666CC6666FF6699006699336699666699996699CC6699FF66CC0066CC3366CC6666CC9966CCCC66CCFF66FF0066
310
FF3366FF6666FF9966FFCC66FFFF9900009900339900669900999900CC9900FF9933009933339933669933999933CC9933FF9966009966339966669966999966CC9966FF9999009999339999669999999999CC9999FF99CC0099CC3399CC6699CC9999CCCC99CCFF99FF0099FF3399FF6699FF9999FFCC99FFFFCC0000CC00
310
33CC0066CC0099CC00CCCC00FFCC3300CC3333CC3366CC3399CC33CCCC33FFCC6600CC6633CC6666CC6699CC66CCCC66FFCC9900CC9933CC9966CC9999CC99CCCC99FFCCCC00CCCC33CCCC66CCCC99CCCCCCCCCCFFCCFF00CCFF33CCFF66CCFF99CCFFCCCCFFFFFF0000FF0033FF0066FF0099FF00CCFF00FFFF3300FF3333
310
FF3366FF3399FF33CCFF33FFFF6600FF6633FF6666FF6699FF66CCFF66FFFF9900FF9933FF9966FF9999FF99CCFF99FFFFCC00FFCC33FFCC66FFCC99FFCCCCFFCCFFFFFF00FFFF33FFFF66FFFF99FFFFCCFFFFFF0000000D0D0D1A1A1A2828283535354343435050505D5D5D6B6B6B787878868686939393A1A1A1AEAEAEBB
310
BBBBC9C9C9D6D6D6E4E4E4F1F1F1FFFFFF000000000000000000000000000000000000000000000000000000000000790CAC0F0000024C4944415478DAED9C417683300C447BFF63FE0B74C5BEAF4D9A98601B3BB468948C9734859F89AC91048F8F4FF2AD8F4F966CCBD02743FF06CBFDF8C3DA3BBE1C3C3E7E81023A8FCA
310
8636B4A10DFD96D0B67143BF3CB44CBD3F05FD9FBB7FE2935AD0A5864C7EC728E8ED0F4FF5C242D0E37ED683E654680E6C01A2A027CE2F059D5769322A5DF4E0AD2BCB4157FDEEE127908D6996AAFA7936E2B7FA684253A7CD93F26EE9241374FF0F69CC0565689E8DA640684602420CFA9E2EC85830A5801E2FFFE9429FD8
310
B9C0D80EBCDCA81069B7687681EB5447C771CEEF11FBAD2BB7B14B3B9402E71EF42F798D8F40E82D2A63FFA305DD341156D6130ACDDC89FBC6130E4DDF6FC4C2A35981501E8B9B303D3DDF25493DFD63989D2D700EF48380EC3343F808610F7A3DEEBF30EB42539D396DA25A049A910D1B09BD490B749271F13910856E2217
310
522B401FBF2517A63423299CF01E71A860CA0A4DD9D486432F1995CE08DD3871B57B5959A70A347B4D21DA4A1F0B8F25089ABD5657F0790F98563A0A9A5597B234EE97EB29BD7E54855A812D1B1EAB1CB72EB51187AEEDC86B7125F7E0D5A6666693D011549ABAB91445AD52F6A05F090E6EC448476C990B2F69E31277B792
310
94A64FC4B4C3631A9A3D87AFA82FA634A9629A16789698861C4AD37C00244FF6D8048BCDE5C0804C7F6A7AAC515751DAD009A11709E8CA36D468B7E694C6D0A7458CA14342C6D0861E86260D348636B4A1DFB4DD32B4A19D3D0C6D68431BFA8FA1DD6E19FAF5A133BE87497A19DAD0FBD07E9DA2A10D6D68438B43677CD3B7
310
6DDCD02DE87CEB0BC682DCB8F7B3B8D70000000049454E44AE426082
  0
ACDSRECORD
 90
        0
  2
AcDbDs::ID
280
    10
320
806
  2
Thumbnail_Data
280
    15
 94
     2302
310
89504E470D0A1A0A0000000D49484452000000C500000100080300000034B4427100000300504C5445FFFFFF000000C8C8C80000000000000000000000000000000000000000000000000000330000660000990000CC0000FF0033000033330033660033990033CC0033FF0066000066330066660066990066CC0066FF0099
310
000099330099660099990099CC0099FF00CC0000CC3300CC6600CC9900CCCC00CCFF00FF0000FF3300FF6600FF9900FFCC00FFFF3300003300333300663300993300CC3300FF3333003333333333663333993333CC3333FF3366003366333366663366993366CC3366FF3399003399333399663399993399CC3399FF33CC00
310
33CC3333CC6633CC9933CCCC33CCFF33FF0033FF3333FF6633FF9933FFCC33FFFF6600006600336600666600996600CC6600FF6633006633336633666633996633CC6633FF6666006666336666666666996666CC6666FF6699006699336699666699996699CC6699FF66CC0066CC3366CC6666CC9966CCCC66CCFF66FF0066
310
FF3366FF6666FF9966FFCC66FFFF9900009900339900669900999900CC9900FF9933009933339933669933999933CC9933FF9966009966339966669966999966CC9966FF9999009999339999669999999999CC9999FF99CC0099CC3399CC6699CC9999CCCC99CCFF99FF0099FF3399FF6699FF9999FFCC99FFFFCC0000CC00
310
33CC0066CC0099CC00CCCC00FFCC3300CC3333CC3366CC3399CC33CCCC33FFCC6600CC6633CC6666CC6699CC66CCCC66FFCC9900CC9933CC9966CC9999CC99CCCC99FFCCCC00CCCC33CCCC66CCCC99CCCCCCCCCCFFCCFF00CCFF33CCFF66CCFF99CCFFCCCCFFFFFF0000FF0033FF0066FF0099FF00CCFF00FFFF3300FF3333
310
FF3366FF3399FF33CCFF33FFFF6600FF6633FF6666FF6699FF66CCFF66FFFF9900FF9933FF9966FF9999FF99CCFF99FFFFCC00FFCC33FFCC66FFCC99FFCCCCFFCCFFFFFF00FFFF33FFFF66FFFF99FFFFCCFFFFFF0000000D0D0D1A1A1A2828283535354343435050505D5D5D6B6B6B787878868686939393A1A1A1AEAEAEBB
310
BBBBC9C9C9D6D6D6E4E4E4F1F1F1FFFFFF000000000000000000000000000000000000000000000000000000000000B0E2D235000005B94944415478DAED9D5B96E4200840B3FF65DE95CC39F3E84A2228A83158437F4E7765BC853C4572F00D3F07C737FC244552248546F1D1F6CF2FEE7640FD0D86DF3CF6A10BC5E65B29
310
2992222992223E45FAEEA4488AA4488AA4F88FB2A48C40922229922229922229922229922229926212C5EE29D6180549118622CA9E1AD50B92620945AB87E43745F38F22C8829A9146FB27169BE196D743374B14DA0DAB3D291E8A9FE55E9A9128BE7256BB44FA647170FDEA513E42700ACE4B95E4C6428FD84B51F925F322
310
B4F914589FF542A8384316439F7C9BC2B4BE1DF482F6DF07A4E0702B474859E09549FC1DF5CF6943C7A60BE6BBEB56392885D35C059685032A2EC5490FE8F7874F511C6E5980C6CF4A0A5F8441D3436333CD6F67ACEA16E286B532BFF0477BB63D78EBFD0E5F3D9001C252600562B98DF2C882279EFC2A85596DA3EB856D0B
310
05ACAAE17F6ECC08A41D23B10145D36BC7CF58E51D436D13ED218BADF20B0632BF5814F42C2FAE2C3CAB0B5D8F6A623112B6ACD6EEA39A7810B0665E0DB6F9244656F3F58A2CA01EB2DF0D191177542DAFE096E08D845E8F526049F7886E698BFD11D65F1822773AFF83F85912DF40016A82CB3614F75E1536DD51D595C7A6
310
B88C82A8F9CAC014F73D8F319C8F41E1C9A789478150CF686EFF885D5E98AB02814FC4CAEE3F537F4BB8C8FC90225884556FD3ABD67680EC4681ECC58F7D2A9C95ACFB73BC1794A26C3E65682FAEA4A0116DEC41F1843F0D4BC172DF3D9D0281246A25C7AE05FB74059F7AB4D985C27E9D22B45E6041E1355934FECC9EF5B0
310
F874D29EEBB9A289B0149F32A7CB3E45EC55F337FEC7A32864415BAF76A8AAFD5578F403BF8D7A724E9ACF0EB210167BCDC9C353C8AE118C9E631585C377576A23B1F36E97CFFB71309129EC7DF5BBDED71323B4E1E9F72B2850358873181C99A2291238225120F8056C9A1E86E2FE345BAA712A1F3E761BDF69A37C312D37
310
F145A0E8EB92AACCC07F89C2AFE210B4E30EDFD383DFD7A3B156225772CA4B61548B389B44205A3727C48CA3B0AA74E8AA9AFC6D6BB9F8CA1D3594777BEF6BC4AE1E148B3E071D21AB073EFF1DF3EEA47899909A6082DE636DAB8464A39E89C8E7EAC5E98B478D232350B49EF8B7B785C9B9DE5C0A253FBA5D5747F47E239B
310
6A72550DCD575EAC2A21733DC7D579E4A255845C8F8A6532D5958990EB616825288F308ED55ECF4BA169891A2E86A01045505CDD017F38BF8CC2FD12513C39CB1A8AB3E2D57BFEA586C1E2CA58408ACFBA651BC3839D45CCA2B83B81BB15202C054AD5EC0F04DC209F9B07E2A1D0DE00CCCD96167E8B6B793614C55335FB95
310
14C1DE0D3DE2BB1B1723ABEEC133C3E2F2450AEB69511CC60844CC33463A06C5DCA40CF4A11ED3B47A32750A9F496D0F1D400F9E69DD00ECA7E88B9ABAC7A73269E6A9A00B0353139962A3ECD5834AD46A10C394591BB3E7CF623438E2FD921117C2348A86D9A45E30F46845FB51CE4ACEBD548BCBF85BEE285ABCF3841D45
310
513EA35690756E229AB596E6E9947FB63C5DFE622C7E42BDFFE4A5E03C3C808BA7BDCD6172BBC1964B4495837F5630EA1AA05A64AB1F375B88D598D07D3AA9D6707E9EAC4E95574F2DAD0995DAB5DB7717465CCAD937608A2CDB161793199F38091C757F97BD6CF6B67509459D97343861A6E9E6E41764141EDD7434CB041B
310
A52EAED2FE8CB1F9FC521F6A38F4C777549713972BC1D2E5EB710A7467D9550954E30EE5AAC4C16C5960934575CC86B744229F5775CED0961EDA37C3C82DBC69B2A03CC4F7F8ACA1914D3CA3DDC2D5DB9A91EDD198F6D67DCC5F5C5EFDD431764AAF21F9EB51212B85334B115A48F7F8ABC392E29B2984D7D47D812C56BC54
310
EF3B288ED914F52DB62DC5BB3FF99EE2A4488AA4488AB72982A717499114AF50A48D9A2EDFA4488AA57AF11D595252244552244552643D2A33D6A4488AA4488AA4488AA4488AA4488A5D2832D74B8AA4488AA4488AFF87222390A4488AA4488AC729CAD37DFDDC5F6F0960FD87D277274552A814DFF0F31D14BF00DC2BCA66
310
4085AF6A0000000049454E44AE426082
  0
ACDSRECORD
 90
        0
  2
AcDbDs::ID
280
    10
320
22
  2
Thumbnail_Data
280
    15
 94
     2080
310
89504E470D0A1A0A0000000D494844520000010000000085080300000083A6D68B00000300504C5445212830000000C8C8C80000000000000000000000000000000000000000000000000000330000660000990000CC0000FF0033000033330033660033990033CC0033FF0066000066330066660066990066CC0066FF0099
310
000099330099660099990099CC0099FF00CC0000CC3300CC6600CC9900CCCC00CCFF00FF0000FF3300FF6600FF9900FFCC00FFFF3300003300333300663300993300CC3300FF3333003333333333663333993333CC3333FF3366003366333366663366993366CC3366FF3399003399333399663399993399CC3399FF33CC00
310
33CC3333CC6633CC9933CCCC33CCFF33FF0033FF3333FF6633FF9933FFCC33FFFF6600006600336600666600996600CC6600FF6633006633336633666633996633CC6633FF6666006666336666666666996666CC6666FF6699006699336699666699996699CC6699FF66CC0066CC3366CC6666CC9966CCCC66CCFF66FF0066
310
FF3366FF6666FF9966FFCC66FFFF9900009900339900669900999900CC9900FF9933009933339933669933999933CC9933FF9966009966339966669966999966CC9966FF9999009999339999669999999999CC9999FF99CC0099CC3399CC6699CC9999CCCC99CCFF99FF0099FF3399FF6699FF9999FFCC99FFFFCC0000CC00
310
33CC0066CC0099CC00CCCC00FFCC3300CC3333CC3366CC3399CC33CCCC33FFCC6600CC6633CC6666CC6699CC66CCCC66FFCC9900CC9933CC9966CC9999CC99CCCC99FFCCCC00CCCC33CCCC66CCCC99CCCCCCCCCCFFCCFF00CCFF33CCFF66CCFF99CCFFCCCCFFFFFF0000FF0033FF0066FF0099FF00CCFF00FFFF3300FF3333
310
FF3366FF3399FF33CCFF33FFFF6600FF6633FF6666FF6699FF66CCFF66FFFF9900FF9933FF9966FF9999FF99CCFF99FFFFCC00FFCC33FFCC66FFCC99FFCCCCFFCCFFFFFF00FFFF33FFFF66FFFF99FFFFCCFFFFFF0000000D0D0D1A1A1A2828283535354343435050505D5D5D6B6B6B787878868686939393A1A1A1AEAEAEBB
310
BBBBC9C9C9D6D6D6E4E4E4F1F1F1FFFFFF000000000000000000000000000000000000000000000000000000000000B21171F6000004DB4944415478DAED9DC9969C300C45F9FFFFBDFB9C93A6AB0AF0A0C960B99A64D309A6D1B3A627CB66DB0E175BE3A27B4769109B65D85317F5FF4075FF5B7E480A40C82B931800D384
310
5787A40180AABEE30225950640BC22650280060058B52AB10F206422739940CBA98BC4C96D02C61BF8FD9B5F031CF1A3FAB83501E06A1C0DE5580800F4CAB1B00974B3065600A02A02C8644B0A004F59CDE30030816D250B837F0058B3CBF500E04F039203408CA02CA5017C930628EE95CFF2923EE05AEFAC33C2CC00C0DD
310
C84E05C09EEC7B5148AD015619C80B00EE1786DC1AE05CCFBA92E44400B0FF89B2A58C51003500B86F98CF0418F2E03C51C016F75806806A99DB4897964A856924BFDFB032F4520E14E17ED182C83960B214006DAEBB7712D0CE7F16D680F264F32D00A8F3847464E8D3CA5553BD45DC3E79141078885AE0C80100D1DAC4B7
310
AD0B7099FFAFD10056F50178B585A33E8CBF6E32810E1528AC1371130A370080C1AC5E3462150D503E98FBEC201C007CC071B723F003105BD8CED2308D38D9D7574D39A706C3A7D3C705621B3D2EC4796E00ECE38589C4DC00042E087DAC346CB93480500D624B0740B0FCDFDD279872CF50DC76BFD42D3220623A82E89F13
310
0081FBE9F164B6CC0034DF5B421BF04695799C20961A8F77AD79E628D0DA0743C3147200E0CD060A4F594503245959F1C480E400E83B67203CA198C307607CCEB2FD01D27C2A6922E4A8A79CB8604A0088E2C464ED10C1A4FEAB6C9A3A1A2E9EE9CFEA0431F6037632C1B91602CC5CC03A7ECF92D20120F2FD82E367C6AD0D
310
8601A076D92F5A8404A4E901C010FC057EEE7442D3BC00084ED1AAA47974553FC7DAA0B417E4BC8C8AC4B6AC9160262E409D0137B79CCDBB3688EC877601A0EB05265E19AAC88CCE7328EB283934405B2E913A802C00884E974458449937021CF1C530BE1735273F434400000D07DFAD09CD5F13ECFA001AA14F5C439C5A03
310
6232D0F6D103EB354BFFCA2FDC703FBF06680B3FFF856FF25F722C8DD900D827BF81C02939CC0EC059D297FCE20113797A3D001753DFE53F23C0951E6406A0B189F2437E64FC795E004439CF569F7FEAA92064D200C4DD6C3F62EF5BA10A3A40E924969C0050AE6C9CE5A7CBA8C9038034FF7BA9FF7C55AD3B0038C8BF2D03
310
C0CA978A0DAACB420ECA13D18BDB96B0E7DCD505118CECC9074A7DD5E13728D718C9361680CE28469A6F3FCA8AC2BBB6121ED90347F820CA931B0E4039F31BEBB23D5B01070140A8E42323A5B7C1A5ECF2D14C3D8FA21149860AA728F1F4BC759F40E0AFC4F1F83347BC2D0BF40280350C9623F3FDC5020F00686FA1179B1E
310
10D00100E831D2FF336186831F00DA1AEB3401EBE7CA703DC6AC018550C7F6840D23B4B6AA183A004AC94EA3FF138F4F199934A3F63AF4391376FBBC39FC590E05579221DED80C4FDDF40C01F49353DD3A4B95FCFF10CEF75AF9449BC5C0751EBAA86BF29D4097E64CF3D1618600A0AD4DD237EEE21A52052B79F7B4B0C211
310
154CA4514098B31C7D0D84BCCAE5D7F94F3356ED77574536C54E9BD25DDE13CC848CD0C1DA510050EB1D3F2817E19FB6ED3E20ECA3708EDCA6119608DA695E5DDE566C79210A00246498B3BB6CF9EAF1D557C9DAB845FF9A81554E68CD5D17832A42FD043A366D2EF4DC0BDFFC2900C2D39F6AA2D62950CF0B80DCAD377392
310
E6F66C8C00F4C01CFA1D15B5A9100F409B088ED580C89692764FF33FD9169D3019EA39A80000000049454E44AE426082
  0
ENDSEC
  0
EOF
