  0
SECTION
  2
HEADER
  9
$ACADVER
  1
AC1027
  9
$ACADMAINTVER
 70
    55
  9
$DWGCODEPAGE
  3
ANSI_1252
  9
$LASTSAVEDBY
  1
jackson
  9
$REQUIREDVERSIONS
160
                 0
  9
$INSBASE
 10
0.0
 20
0.0
 30
0.0
  9
$EXTMIN
 10
157.8954795920868
 20
284.8120537102878
 30
0.0
  9
$EXTMAX
 10
859.7953594515114
 20
902.7987113873066
 30
0.0
  9
$LIMMIN
 10
0.0
 20
0.0
  9
$LIMMAX
 10
1000.0
 20
750.0
  9
$ORTHOMODE
 70
     1
  9
$REGENMODE
 70
     1
  9
$FILLMODE
 70
     1
  9
$QTEXTMODE
 70
     0
  9
$MIRRTEXT
 70
     0
  9
$LTSCALE
 40
1.0
  9
$ATTMODE
 70
     1
  9
$TEXTSIZE
 40
0.2
  9
$TRACEWID
 40
0.05
  9
$TEXTSTYLE
  7
Standard
  9
$CLAYER
  8
0
  9
$CELTYPE
  6
ByLayer
  9
$CECOLOR
 62
   256
  9
$CELTSCALE
 40
1.0
  9
$DISPSILH
 70
     0
  9
$DIMSCALE
 40
50.0
  9
$DIMASZ
 40
0.18
  9
$DIMEXO
 40
0.0625
  9
$DIMDLI
 40
0.38
  9
$DIMRND
 40
0.0
  9
$DIMDLE
 40
0.0
  9
$DIMEXE
 40
0.18
  9
$DIMTP
 40
0.0
  9
$DIMTM
 40
0.0
  9
$DIMTXT
 40
0.18
  9
$DIMCEN
 40
0.09
  9
$DIMTSZ
 40
0.0
  9
$DIMTOL
 70
     0
  9
$DIMLIM
 70
     0
  9
$DIMTIH
 70
     1
  9
$DIMTOH
 70
     1
  9
$DIMSE1
 70
     0
  9
$DIMSE2
 70
     0
  9
$DIMTAD
 70
     0
  9
$DIMZIN
 70
     0
  9
$DIMBLK
  1

  9
$DIMASO
 70
     1
  9
$DIMSHO
 70
     1
  9
$DIMPOST
  1
 MM\X
  9
$DIMAPOST
  1
 IN.
  9
$DIMALT
 70
     1
  9
$DIMALTD
 70
     0
  9
$DIMALTF
 40
0.0393700787401575
  9
$DIMLFAC
 40
1.0
  9
$DIMTOFL
 70
     0
  9
$DIMTVP
 40
0.0
  9
$DIMTIX
 70
     0
  9
$DIMSOXD
 70
     0
  9
$DIMSAH
 70
     0
  9
$DIMBLK1
  1

  9
$DIMBLK2
  1

  9
$DIMSTYLE
  2
Default
  9
$DIMCLRD
 70
     0
  9
$DIMCLRE
 70
     0
  9
$DIMCLRT
 70
     0
  9
$DIMTFAC
 40
1.0
  9
$DIMGAP
 40
0.09
  9
$DIMJUST
 70
     0
  9
$DIMSD1
 70
     0
  9
$DIMSD2
 70
     0
  9
$DIMTOLJ
 70
     1
  9
$DIMTZIN
 70
     0
  9
$DIMALTZ
 70
     0
  9
$DIMALTTZ
 70
     0
  9
$DIMUPT
 70
     0
  9
$DIMDEC
 70
     0
  9
$DIMTDEC
 70
     0
  9
$DIMALTU
 70
     2
  9
$DIMALTTD
 70
     0
  9
$DIMTXSTY
  7
Standard
  9
$DIMAUNIT
 70
     0
  9
$DIMADEC
 70
     0
  9
$DIMALTRND
 40
0.0
  9
$DIMAZIN
 70
     0
  9
$DIMDSEP
 70
    46
  9
$DIMATFIT
 70
     3
  9
$DIMFRAC
 70
     0
  9
$DIMLDRBLK
  1

  9
$DIMLUNIT
 70
     2
  9
$DIMLWD
 70
    -2
  9
$DIMLWE
 70
    -2
  9
$DIMTMOVE
 70
     1
  9
$DIMFXL
 40
1.0
  9
$DIMFXLON
 70
     0
  9
$DIMJOGANG
 40
0.7853981633974483
  9
$DIMTFILL
 70
     0
  9
$DIMTFILLCLR
 70
     0
  9
$DIMARCSYM
 70
     0
  9
$DIMLTYPE
  6

  9
$DIMLTEX1
  6

  9
$DIMLTEX2
  6

  9
$DIMTXTDIRECTION
 70
     0
  9
$LUNITS
 70
     2
  9
$LUPREC
 70
     2
  9
$SKETCHINC
 40
0.1
  9
$FILLETRAD
 40
0.0
  9
$AUNITS
 70
     0
  9
$AUPREC
 70
     0
  9
$MENU
  1
.
  9
$ELEVATION
 40
0.0
  9
$PELEVATION
 40
0.0
  9
$THICKNESS
 40
0.0
  9
$LIMCHECK
 70
     0
  9
$CHAMFERA
 40
0.0
  9
$CHAMFERB
 40
0.0
  9
$CHAMFERC
 40
0.0
  9
$CHAMFERD
 40
0.0
  9
$SKPOLY
 70
     0
  9
$TDCREATE
 40
2454176.562897766
  9
$TDUCREATE
 40
2454176.854564433
  9
$TDUPDATE
 40
2457150.466676794
  9
$TDUUPDATE
 40
2457150.758343461
  9
$TDINDWG
 40
0.5564688657
  9
$TDUSRTIMER
 40
0.5564686806
  9
$USRTIMER
 70
     1
  9
$ANGBASE
 50
0.0
  9
$ANGDIR
 70
     0
  9
$PDMODE
 70
     0
  9
$PDSIZE
 40
0.0
  9
$PLINEWID
 40
0.0
  9
$SPLFRAME
 70
     0
  9
$SPLINETYPE
 70
     6
  9
$SPLINESEGS
 70
     8
  9
$HANDSEED
  5
D0E
  9
$SURFTAB1
 70
     6
  9
$SURFTAB2
 70
     6
  9
$SURFTYPE
 70
     6
  9
$SURFU
 70
     6
  9
$SURFV
 70
     6
  9
$UCSBASE
  2

  9
$UCSNAME
  2

  9
$UCSORG
 10
0.0
 20
0.0
 30
0.0
  9
$UCSXDIR
 10
1.0
 20
0.0
 30
0.0
  9
$UCSYDIR
 10
0.0
 20
1.0
 30
0.0
  9
$UCSORTHOREF
  2

  9
$UCSORTHOVIEW
 70
     0
  9
$UCSORGTOP
 10
0.0
 20
0.0
 30
0.0
  9
$UCSORGBOTTOM
 10
0.0
 20
0.0
 30
0.0
  9
$UCSORGLEFT
 10
0.0
 20
0.0
 30
0.0
  9
$UCSORGRIGHT
 10
0.0
 20
0.0
 30
0.0
  9
$UCSORGFRONT
 10
0.0
 20
0.0
 30
0.0
  9
$UCSORGBACK
 10
0.0
 20
0.0
 30
0.0
  9
$PUCSBASE
  2

  9
$PUCSNAME
  2

  9
$PUCSORG
 10
0.0
 20
0.0
 30
0.0
  9
$PUCSXDIR
 10
1.0
 20
0.0
 30
0.0
  9
$PUCSYDIR
 10
0.0
 20
1.0
 30
0.0
  9
$PUCSORTHOREF
  2

  9
$PUCSORTHOVIEW
 70
     0
  9
$PUCSORGTOP
 10
0.0
 20
0.0
 30
0.0
  9
$PUCSORGBOTTOM
 10
0.0
 20
0.0
 30
0.0
  9
$PUCSORGLEFT
 10
0.0
 20
0.0
 30
0.0
  9
$PUCSORGRIGHT
 10
0.0
 20
0.0
 30
0.0
  9
$PUCSORGFRONT
 10
0.0
 20
0.0
 30
0.0
  9
$PUCSORGBACK
 10
0.0
 20
0.0
 30
0.0
  9
$USERI1
 70
     0
  9
$USERI2
 70
     0
  9
$USERI3
 70
     0
  9
$USERI4
 70
     0
  9
$USERI5
 70
     0
  9
$USERR1
 40
0.0
  9
$USERR2
 40
0.0
  9
$USERR3
 40
0.0
  9
$USERR4
 40
0.0
  9
$USERR5
 40
0.0
  9
$WORLDVIEW
 70
     1
  9
$SHADEDGE
 70
     3
  9
$SHADEDIF
 70
    70
  9
$TILEMODE
 70
     1
  9
$MAXACTVP
 70
    64
  9
$PINSBASE
 10
0.0
 20
0.0
 30
0.0
  9
$PLIMCHECK
 70
     0
  9
$PEXTMIN
 10
-0.3463343147566178
 20
-0.615652900034668
 30
0.0
  9
$PEXTMAX
 10
8.564798468433693
 20
10.86031197662988
 30
0.0
  9
$PLIMMIN
 10
-0.2499999962453767
 20
-0.2499999962453767
  9
$PLIMMAX
 10
8.249999763458733
 20
10.74999976345873
  9
$UNITMODE
 70
     0
  9
$VISRETAIN
 70
     1
  9
$PLINEGEN
 70
     0
  9
$PSLTSCALE
 70
     1
  9
$TREEDEPTH
 70
  3020
  9
$CMLSTYLE
  2
Standard
  9
$CMLJUST
 70
     0
  9
$CMLSCALE
 40
1.0
  9
$PROXYGRAPHICS
 70
     1
  9
$MEASUREMENT
 70
     0
  9
$CELWEIGHT
370
    -1
  9
$ENDCAPS
280
     0
  9
$JOINSTYLE
280
     0
  9
$LWDISPLAY
290
     0
  9
$INSUNITS
 70
     4
  9
$HYPERLINKBASE
  1

  9
$STYLESHEET
  1

  9
$XEDIT
290
     1
  9
$CEPSNTYPE
380
     0
  9
$PSTYLEMODE
290
     1
  9
$FINGERPRINTGUID
  2
{FDEAD576-A652-11D2-9A35-0060089B3A3F}
  9
$VERSIONGUID
  2
{EF2B2E55-AE6D-49BC-8A96-2C08867B683F}
  9
$EXTNAMES
290
     1
  9
$PSVPSCALE
 40
0.0
  9
$OLESTARTUP
290
     0
  9
$SORTENTS
280
   127
  9
$INDEXCTL
280
     0
  9
$HIDETEXT
280
     1
  9
$XCLIPFRAME
280
     0
  9
$HALOGAP
280
     0
  9
$OBSCOLOR
 70
   257
  9
$OBSLTYPE
280
     0
  9
$INTERSECTIONDISPLAY
280
     0
  9
$INTERSECTIONCOLOR
 70
   257
  9
$DIMASSOC
280
     2
  9
$PROJECTNAME
  1

  9
$CAMERADISPLAY
290
     0
  9
$LENSLENGTH
 40
50.0
  9
$CAMERAHEIGHT
 40
0.0
  9
$STEPSPERSEC
 40
2.0
  9
$STEPSIZE
 40
6.0
  9
$3DDWFPREC
 40
2.0
  9
$PSOLWIDTH
 40
0.25
  9
$PSOLHEIGHT
 40
4.0
  9
$LOFTANG1
 40
1.570796326794896
  9
$LOFTANG2
 40
1.570796326794896
  9
$LOFTMAG1
 40
0.0
  9
$LOFTMAG2
 40
0.0
  9
$LOFTPARAM
 70
     7
  9
$LOFTNORMALS
280
     1
  9
$LATITUDE
 40
37.795
  9
$LONGITUDE
 40
-122.394
  9
$NORTHDIRECTION
 40
0.0
  9
$TIMEZONE
 70
 -8000
  9
$LIGHTGLYPHDISPLAY
280
     1
  9
$TILEMODELIGHTSYNCH
280
     1
  9
$CMATERIAL
347
93D
  9
$SOLIDHIST
280
     1
  9
$SHOWHIST
280
     1
  9
$DWFFRAME
280
     2
  9
$DGNFRAME
280
     0
  9
$REALWORLDSCALE
290
     1
  9
$INTERFERECOLOR
 62
     1
  9
$INTERFEREOBJVS
345
95F
  9
$INTERFEREVPVS
346
95C
  9
$CSHADOW
280
     0
  9
$SHADOWPLANELOCATION
 40
0.0
  0
ENDSEC
  0
SECTION
  2
CLASSES
  0
CLASS
  1
ACDBDICTIONARYWDFLT
  2
AcDbDictionaryWithDefault
  3
ObjectDBX Classes
 90
        0
 91
        1
280
     0
281
     0
  0
CLASS
  1
DICTIONARYVAR
  2
AcDbDictionaryVar
  3
ObjectDBX Classes
 90
        0
 91
       19
280
     0
281
     0
  0
CLASS
  1
DIMASSOC
  2
AcDbDimAssoc
  3
"AcDbDimAssoc|Product Desc:     AcDim ARX App For Dimension|Company:          Autodesk, Inc.|WEB Address:      www.autodesk.com"
 90
        0
 91
        2
280
     0
281
     0
  0
CLASS
  1
MATERIAL
  2
AcDbMaterial
  3
ObjectDBX Classes
 90
     1153
 91
        3
280
     0
281
     0
  0
CLASS
  1
VISUALSTYLE
  2
AcDbVisualStyle
  3
ObjectDBX Classes
 90
     4095
 91
       26
280
     0
281
     0
  0
CLASS
  1
TABLESTYLE
  2
AcDbTableStyle
  3
ObjectDBX Classes
 90
     4095
 91
        1
280
     0
281
     0
  0
CLASS
  1
SCALE
  2
AcDbScale
  3
ObjectDBX Classes
 90
     1153
 91
       33
280
     0
281
     0
  0
CLASS
  1
MLEADERSTYLE
  2
AcDbMLeaderStyle
  3
ACDB_MLEADERSTYLE_CLASS
 90
     4095
 91
        1
280
     0
281
     0
  0
CLASS
  1
CELLSTYLEMAP
  2
AcDbCellStyleMap
  3
ObjectDBX Classes
 90
     1152
 91
        2
280
     0
281
     0
  0
CLASS
  1
SORTENTSTABLE
  2
AcDbSortentsTable
  3
ObjectDBX Classes
 90
        0
 91
        1
280
     0
281
     0
  0
CLASS
  1
ACDBSECTIONVIEWSTYLE
  2
AcDbSectionViewStyle
  3
ObjectDBX Classes
 90
     1025
 91
        1
280
     0
281
     0
  0
CLASS
  1
ACDBDETAILVIEWSTYLE
  2
AcDbDetailViewStyle
  3
ObjectDBX Classes
 90
     1025
 91
        1
280
     0
281
     0
  0
ENDSEC
  0
SECTION
  2
TABLES
  0
TABLE
  2
VPORT
  5
8
330
0
100
AcDbSymbolTable
 70
     1
  0
VPORT
  5
93B
330
8
100
AcDbSymbolTableRecord
100
AcDbViewportTableRecord
  2
*Active
 70
     0
 10
0.0
 20
0.0
 11
1.0
 21
1.0
 12
511.981819466154
 22
584.9731463796009
 13
0.0
 23
0.0
 14
0.5
 24
0.5
 15
10.0
 25
10.0
 16
0.0
 26
0.0
 36
1.0
 17
0.0
 27
0.0
 37
0.0
 40
244.0098698577194
 41
1.912037037037037
 42
50.0
 43
0.0
 44
0.0
 50
0.0
 51
0.0
 71
     0
 72
  1000
 73
     1
 74
     3
 75
     0
 76
     0
 77
     0
 78
     0
281
     0
 65
     1
110
0.0
120
0.0
130
0.0
111
1.0
121
0.0
131
0.0
112
0.0
122
1.0
132
0.0
 79
     0
146
0.0
348
95B
 60
     3
 61
     5
292
     1
282
     1
141
0.0
142
0.0
 63
   250
421
  3355443
1001
ACAD_NAV_VCDISPLAY
1070
     3
  0
ENDTAB
  0
TABLE
  2
LTYPE
  5
5
330
0
100
AcDbSymbolTable
 70
     2
  0
LTYPE
  5
14
330
5
100
AcDbSymbolTableRecord
100
AcDbLinetypeTableRecord
  2
ByBlock
 70
     0
  3

 72
    65
 73
     0
 40
0.0
  0
LTYPE
  5
15
330
5
100
AcDbSymbolTableRecord
100
AcDbLinetypeTableRecord
  2
ByLayer
 70
     0
  3

 72
    65
 73
     0
 40
0.0
  0
LTYPE
  5
16
330
5
100
AcDbSymbolTableRecord
100
AcDbLinetypeTableRecord
  2
Continuous
 70
     0
  3
Solid line
 72
    65
 73
     0
 40
0.0
  0
ENDTAB
  0
TABLE
  2
LAYER
  5
2
102
{ACAD_XDICTIONARY
360
A8C
102
}
330
0
100
AcDbSymbolTable
 70
     2
  0
LAYER
  5
10
102
{ACAD_XDICTIONARY
360
AA6
102
}
330
2
100
AcDbSymbolTableRecord
100
AcDbLayerTableRecord
  2
0
 70
     0
 62
     7
  6
Continuous
370
    -3
390
F
347
94D
348
0
  0
LAYER
  5
44B
330
2
100
AcDbSymbolTableRecord
100
AcDbLayerTableRecord
  2
Defpoints
 70
     0
 62
     7
  6
Continuous
290
     0
370
    -3
390
F
347
94D
348
0
  0
ENDTAB
  0
TABLE
  2
STYLE
  5
3
330
0
100
AcDbSymbolTable
 70
     1
  0
STYLE
  5
11
330
3
100
AcDbSymbolTableRecord
100
AcDbTextStyleTableRecord
  2
Standard
 70
     0
 40
0.0
 41
1.0
 50
0.0
 71
     0
 42
0.2
  3
ARIAL.TTF
  4

1001
ACAD
1000
Arial
1071
       34
  0
ENDTAB
  0
TABLE
  2
VIEW
  5
6
330
0
100
AcDbSymbolTable
 70
     3
  0
ENDTAB
  0
TABLE
  2
UCS
  5
7
330
0
100
AcDbSymbolTable
 70
     0
  0
ENDTAB
  0
TABLE
  2
APPID
  5
9
330
0
100
AcDbSymbolTable
 70
     9
  0
APPID
  5
12
330
9
100
AcDbSymbolTableRecord
100
AcDbRegAppTableRecord
  2
ACAD
 70
     0
  0
APPID
  5
98C
330
9
100
AcDbSymbolTableRecord
100
AcDbRegAppTableRecord
  2
ACAD_MLEADERVER
 70
     0
  0
APPID
  5
9A0
330
9
100
AcDbSymbolTableRecord
100
AcDbRegAppTableRecord
  2
ACAD_DSTYLE_DIMJAG
 70
     0
  0
APPID
  5
9A1
330
9
100
AcDbSymbolTableRecord
100
AcDbRegAppTableRecord
  2
ACAD_DSTYLE_DIMTALN
 70
     0
  0
APPID
  5
A39
330
9
100
AcDbSymbolTableRecord
100
AcDbRegAppTableRecord
  2
ACAD_DSTYLE_DIMBREAK
 70
     0
  0
APPID
  5
A40
330
9
100
AcDbSymbolTableRecord
100
AcDbRegAppTableRecord
  2
AcadAnnoPO
 70
     0
  0
APPID
  5
ABA
330
9
100
AcDbSymbolTableRecord
100
AcDbRegAppTableRecord
  2
ACAD_PSEXT
 70
     0
  0
APPID
  5
ACA
330
9
100
AcDbSymbolTableRecord
100
AcDbRegAppTableRecord
  2
ACAD_EXEMPT_FROM_CAD_STANDARDS
 70
     0
  0
APPID
  5
CE7
330
9
100
AcDbSymbolTableRecord
100
AcDbRegAppTableRecord
  2
ACAD_NAV_VCDISPLAY
 70
     0
  0
ENDTAB
  0
TABLE
  2
DIMSTYLE
  5
A
330
0
100
AcDbSymbolTable
 70
     3
100
AcDbDimStyleTable
 71
     3
340
A3A
340
756
340
27
  0
DIMSTYLE
105
27
330
A
100
AcDbSymbolTableRecord
100
AcDbDimStyleTableRecord
  2
Standard
 70
     0
340
11
  0
DIMSTYLE
105
756
330
A
100
AcDbSymbolTableRecord
100
AcDbDimStyleTableRecord
  2
KRYTON
 70
     0
  3
MM\X
  4
IN.
 41
2.0
140
3.0
143
0.0393700787401575
147
0.54
170
     1
171
     1
271
     1
272
     1
274
     1
340
11
  0
DIMSTYLE
105
A3A
102
{ACAD_REACTORS
330
A50
330
8FE
330
B9C
102
}
330
A
100
AcDbSymbolTableRecord
100
AcDbDimStyleTableRecord
  2
Default
 70
     0
  3
 MM\X
  4
 IN.
 40
50.0
143
0.0393700787401575
170
     1
171
     0
271
     0
272
     0
274
     0
279
     1
340
11
1001
ACAD_DSTYLE_DIMBREAK
1070
   391
1040
0.125
1001
ACAD_DSTYLE_DIMJAG
1070
   388
1040
1.5
1001
ACAD_DSTYLE_DIMTALN
1070
   392
1070
     0
  0
ENDTAB
  0
TABLE
  2
BLOCK_RECORD
  5
1
330
0
100
AcDbSymbolTable
 70
     6
  0
BLOCK_RECORD
  5
1F
102
{ACAD_XDICTIONARY
360
CA0
102
}
330
1
100
AcDbSymbolTableRecord
100
AcDbBlockTableRecord
  2
*Model_Space
340
22
 70
     0
280
     1
281
     0
  0
BLOCK_RECORD
  5
AB0
330
1
100
AcDbSymbolTableRecord
100
AcDbBlockTableRecord
  2
*Paper_Space
340
AB1
 70
     0
280
     1
281
     0
  0
BLOCK_RECORD
  5
5D
330
1
100
AcDbSymbolTableRecord
100
AcDbBlockTableRecord
  2
*Paper_Space0
340
5E
 70
     0
280
     1
281
     0
  0
BLOCK_RECORD
  5
757
102
{ACAD_XDICTIONARY
360
759
102
}
330
1
100
AcDbSymbolTableRecord
100
AcDbBlockTableRecord
  2
joint line
340
0
102
{BLKREFS
331
75C
331
760
102
}
 70
     4
280
     1
281
     0
  0
BLOCK_RECORD
  5
8FF
330
1
100
AcDbSymbolTableRecord
100
AcDbBlockTableRecord
  2
*D2
340
0
 70
     0
280
     1
281
     0
  0
BLOCK_RECORD
  5
A51
330
1
100
AcDbSymbolTableRecord
100
AcDbBlockTableRecord
  2
*D3
340
0
 70
     0
280
     1
281
     0
  0
BLOCK_RECORD
  5
58
330
1
100
AcDbSymbolTableRecord
100
AcDbBlockTableRecord
  2
*Paper_Space4
340
59
 70
     0
280
     1
281
     0
  0
BLOCK_RECORD
  5
B9D
330
1
100
AcDbSymbolTableRecord
100
AcDbBlockTableRecord
  2
*D5
340
0
 70
     0
280
     1
281
     0
  0
ENDTAB
  0
ENDSEC
  0
SECTION
  2
BLOCKS
  0
BLOCK
  5
20
330
1F
100
AcDbEntity
  8
0
100
AcDbBlockBegin
  2
*Model_Space
 70
     0
 10
0.0
 20
0.0
 30
0.0
  3
*Model_Space
  1

  0
ENDBLK
  5
21
330
1F
100
AcDbEntity
  8
0
100
AcDbBlockEnd
  0
BLOCK
  5
AB2
330
AB0
100
AcDbEntity
 67
     1
  8
0
100
AcDbBlockBegin
  2
*Paper_Space
 70
     0
 10
0.0
 20
0.0
 30
0.0
  3
*Paper_Space
  1

  0
ENDBLK
  5
AB3
330
AB0
100
AcDbEntity
 67
     1
  8
0
100
AcDbBlockEnd
  0
BLOCK
  5
5F
330
5D
100
AcDbEntity
 67
     1
  8
0
100
AcDbBlockBegin
  2
*Paper_Space0
 70
     0
 10
0.0
 20
0.0
 30
0.0
  3
*Paper_Space0
  1

  0
VIEWPORT
  5
3B6
330
5D
100
AcDbEntity
 67
     1
  8
0
100
AcDbViewport
 10
6.681714964117093
 20
5.240074866478493
 30
0.0
 40
19.05428239869843
 41
11.47314971151058
 68
     0
 69
     0
 12
6.681714964117093
 22
5.240074866478493
 13
0.0
 23
0.0
 14
0.5
 24
0.5
 15
0.5
 25
0.5
 16
0.0
 26
0.0
 36
1.0
 17
0.0
 27
0.0
 37
0.0
 42
50.0
 43
0.0
 44
0.0
 45
11.47314971151058
 50
0.0
 51
0.0
 72
  1000
 90
    32800
  1

281
     0
 71
     1
 74
     0
110
0.0
120
0.0
130
0.0
111
1.0
121
0.0
131
0.0
112
0.0
122
1.0
132
0.0
 79
     0
146
0.0
170
     0
 61
     5
348
95B
292
     1
282
     1
141
0.0
142
0.0
 63
   250
421
  3355443
  0
VIEWPORT
  5
3B8
330
5D
100
AcDbEntity
 67
     1
  8
0
100
AcDbViewport
 10
5.24999976158142
 20
3.99999976158142
 30
0.0
 40
8.399999618530271
 41
6.399999618530272
 68
     0
 69
     0
 12
175.0
 22
192.5000000000002
 13
0.0
 23
0.0
 14
0.5
 24
0.5
 15
0.5
 25
0.5
 16
0.0
 26
0.0
 36
1.0
 17
0.0
 27
0.0
 37
0.0
 42
50.0
 43
0.0
 44
0.0
 45
370.9189189189194
 50
0.0
 51
0.0
 72
  1000
 90
    32864
  1

281
     0
 71
     1
 74
     0
110
0.0
120
0.0
130
0.0
111
1.0
121
0.0
131
0.0
112
0.0
122
1.0
132
0.0
 79
     0
146
0.0
170
     0
 61
     5
348
95B
292
     1
282
     1
141
0.0
142
0.0
 63
   250
421
  3355443
  0
ENDBLK
  5
60
330
5D
100
AcDbEntity
 67
     1
  8
0
100
AcDbBlockEnd
  0
BLOCK
  5
75A
330
757
100
AcDbEntity
  8
0
100
AcDbBlockBegin
  2
joint line
 70
     0
 10
0.0
 20
0.0
 30
0.0
  3
joint line
  1

  0
LWPOLYLINE
  5
758
330
757
100
AcDbEntity
  8
0
100
AcDbPolyline
 90
        7
 70
     0
 43
0.0
 10
40.06469683741646
 20
0.0
 10
14.66469683741647
 20
0.0
 10
0.0
 20
25.40000000000001
 10
0.0
 20
0.0
 10
0.0
 20
-25.40000000000001
 10
-14.66469683741645
 20
0.0
 10
-40.06469683741646
 20
0.0
  0
ENDBLK
  5
75B
330
757
100
AcDbEntity
  8
0
100
AcDbBlockEnd
  0
BLOCK
  5
90B
330
8FF
100
AcDbEntity
  8
0
100
AcDbBlockBegin
  2
*D2
 70
     1
 10
0.0
 20
0.0
 30
0.0
  3
*D2
  1

  0
LINE
  5
C38
330
8FF
100
AcDbEntity
  8
0
 62
     0
440
 16777216
370
    -2
100
AcDbLine
 10
419.0704795920866
 20
556.7939533185494
 30
0.0
 11
382.8861442449274
 21
556.7939533185494
 31
0.0
  0
LINE
  5
C39
330
8FF
100
AcDbEntity
  8
0
 62
     0
440
 16777216
370
    -2
100
AcDbLine
 10
419.0704795920866
 20
516.7939533185495
 30
0.0
 11
382.8861442449274
 21
516.7939533185495
 31
0.0
  0
LINE
  5
C3A
330
8FF
100
AcDbEntity
  8
0
 62
     0
440
 16777216
370
    -2
100
AcDbLine
 10
391.8861442449274
 20
565.7939533185494
 30
0.0
 11
391.8861442449274
 21
574.7939533185494
 31
0.0
  0
LINE
  5
C3B
330
8FF
100
AcDbEntity
  8
0
 62
     0
440
 16777216
370
    -2
100
AcDbLine
 10
391.8861442449274
 20
507.7939533185494
 30
0.0
 11
391.8861442449274
 21
498.7939533185494
 31
0.0
  0
SOLID
  5
C3C
330
8FF
100
AcDbEntity
  8
0
 62
     0
440
 16777216
100
AcDbTrace
 10
390.3861442449274
 20
565.7939533185494
 30
0.0
 11
393.3861442449274
 21
565.7939533185494
 31
0.0
 12
391.8861442449274
 22
556.7939533185494
 32
0.0
 13
391.8861442449274
 23
556.7939533185494
 33
0.0
  0
SOLID
  5
C3D
330
8FF
100
AcDbEntity
  8
0
 62
     0
440
 16777216
100
AcDbTrace
 10
390.3861442449274
 20
507.7939533185494
 30
0.0
 11
393.3861442449274
 21
507.7939533185494
 31
0.0
 12
391.8861442449274
 22
516.7939533185495
 32
0.0
 13
391.8861442449274
 23
516.7939533185495
 33
0.0
  0
MTEXT
  5
C3E
330
8FF
100
AcDbEntity
  8
0
 62
     0
440
 16777216
100
AcDbMText
 10
391.8861442449274
 20
545.8891102080448
 30
0.0
 40
9.0
 41
0.0
 46
0.0
 71
     5
 72
     1
  1
\A1;40 MM
 73
     1
 44
1.0
  0
MTEXT
  5
C3F
330
8FF
100
AcDbEntity
  8
0
 62
     0
440
 16777216
100
AcDbMText
 10
391.8861442449274
 20
526.5262179843067
 30
0.0
 40
9.0
 41
0.0
 46
0.0
 71
     5
 72
     1
  1
\A1;[1.5 IN.]
 73
     1
 44
1.0
  0
POINT
  5
C40
330
8FF
100
AcDbEntity
  8
Defpoints
 62
     0
440
 16777216
100
AcDbPoint
 10
422.1954795920866
 20
556.7939533185494
 30
0.0
  0
POINT
  5
C41
330
8FF
100
AcDbEntity
  8
Defpoints
 62
     0
440
 16777216
100
AcDbPoint
 10
422.1954795920866
 20
516.7939533185495
 30
0.0
  0
POINT
  5
C42
330
8FF
100
AcDbEntity
  8
Defpoints
 62
     0
440
 16777216
100
AcDbPoint
 10
391.8861442449274
 20
516.7939533185495
 30
0.0
  0
ENDBLK
  5
90C
330
8FF
100
AcDbEntity
  8
0
100
AcDbBlockEnd
  0
BLOCK
  5
A52
330
A51
100
AcDbEntity
  8
0
100
AcDbBlockBegin
  2
*D3
 70
     1
 10
0.0
 20
0.0
 30
0.0
  3
*D3
  1

  0
LINE
  5
C21
330
A51
100
AcDbEntity
  8
0
 62
     0
440
 16777216
370
    -2
100
AcDbLine
 10
422.1954795920866
 20
559.9189533185494
 30
0.0
 11
422.1954795920866
 21
588.6897618058335
 31
0.0
  0
LINE
  5
C22
330
A51
100
AcDbEntity
  8
0
 62
     0
440
 16777216
370
    -2
100
AcDbLine
 10
462.1954795920866
 20
559.9189533185494
 30
0.0
 11
462.1954795920866
 21
588.6897618058335
 31
0.0
  0
LINE
  5
C23
330
A51
100
AcDbEntity
  8
0
 62
     0
440
 16777216
370
    -2
100
AcDbLine
 10
431.1954795920867
 20
579.6897618058335
 30
0.0
 11
453.1954795920866
 21
579.6897618058335
 31
0.0
  0
LINE
  5
C24
330
A51
100
AcDbEntity
  8
0
 62
     0
440
 16777216
370
    -2
100
AcDbLine
 10
442.1954795920866
 20
579.6897618058335
 30
0.0
 11
442.1954795920866
 21
620.6655462533096
 31
0.0
  0
LINE
  5
C25
330
A51
100
AcDbEntity
  8
0
 62
     0
440
 16777216
370
    -2
100
AcDbLine
 10
442.1954795920866
 20
620.6655462533096
 30
0.0
 11
451.1954795920866
 21
620.6655462533096
 31
0.0
  0
MTEXT
  5
C26
330
A51
100
AcDbEntity
  8
0
 62
     0
440
 16777216
100
AcDbMText
 10
474.3523690873117
 20
629.7607031428049
 30
0.0
 40
9.0
 41
0.0
 46
0.0
 71
     5
 72
     1
  1
\A1;40 MM
 73
     1
 44
1.0
  0
MTEXT
  5
C27
330
A51
100
AcDbEntity
  8
0
 62
     0
440
 16777216
100
AcDbMText
 10
476.8724918703949
 20
610.3978109190668
 30
0.0
 40
9.0
 41
0.0
 46
0.0
 71
     5
 72
     1
  1
\A1;[1.5 IN.]
 73
     1
 44
1.0
  0
SOLID
  5
C28
330
A51
100
AcDbEntity
  8
0
 62
     0
440
 16777216
100
AcDbTrace
 10
431.1954795920867
 20
581.1897618058335
 30
0.0
 11
431.1954795920867
 21
578.1897618058335
 31
0.0
 12
422.1954795920866
 22
579.6897618058335
 32
0.0
 13
422.1954795920866
 23
579.6897618058335
 33
0.0
  0
SOLID
  5
C29
330
A51
100
AcDbEntity
  8
0
 62
     0
440
 16777216
100
AcDbTrace
 10
453.1954795920866
 20
581.1897618058335
 30
0.0
 11
453.1954795920866
 21
578.1897618058335
 31
0.0
 12
462.1954795920866
 22
579.6897618058335
 32
0.0
 13
462.1954795920866
 23
579.6897618058335
 33
0.0
  0
POINT
  5
C2A
330
A51
100
AcDbEntity
  8
Defpoints
 62
     0
440
 16777216
100
AcDbPoint
 10
422.1954795920866
 20
556.7939533185494
 30
0.0
  0
POINT
  5
C2B
330
A51
100
AcDbEntity
  8
Defpoints
 62
     0
440
 16777216
100
AcDbPoint
 10
462.1954795920866
 20
556.7939533185494
 30
0.0
  0
POINT
  5
C2C
330
A51
100
AcDbEntity
  8
Defpoints
 62
     0
440
 16777216
100
AcDbPoint
 10
462.1954795920866
 20
579.6897618058335
 30
0.0
  0
ENDBLK
  5
A53
330
A51
100
AcDbEntity
  8
0
100
AcDbBlockEnd
  0
BLOCK
  5
5A
330
58
100
AcDbEntity
 67
     1
  8
0
100
AcDbBlockBegin
  2
*Paper_Space4
 70
     0
 10
0.0
 20
0.0
 30
0.0
  3
*Paper_Space4
  1

  0
VIEWPORT
  5
8D
330
58
100
AcDbEntity
 67
     1
  8
0
100
AcDbViewport
 10
16.70428741029273
 20
9.999999709016693
 30
0.0
 40
47.63570599674609
 41
22.48249936441737
 68
     0
 69
     0
 12
16.70428741029273
 22
9.999999709016693
 13
0.0
 23
0.0
 14
0.5
 24
0.5
 15
0.5
 25
0.5
 16
0.0
 26
0.0
 36
1.0
 17
0.0
 27
0.0
 37
0.0
 42
50.0
 43
0.0
 44
0.0
 45
22.48249936441737
 50
0.0
 51
0.0
 72
  1000
 90
    32800
  1

281
     0
 71
     1
 74
     0
110
0.0
120
0.0
130
0.0
111
1.0
121
0.0
131
0.0
112
0.0
122
1.0
132
0.0
 79
     0
146
0.0
170
     0
 61
     5
348
95B
292
     1
282
     1
141
0.0
142
0.0
 63
   250
421
  3355443
  0
VIEWPORT
  5
8F
330
58
100
AcDbEntity
 67
     1
  8
0
100
AcDbViewport
 10
12.93082500557209
 20
9.665609875446349
 30
0.0
 40
23.84659008504624
 41
12.66255716166765
 68
     0
 69
     0
 12
87.4650996018005
 22
113.5014182633942
 13
0.0
 23
0.0
 14
0.5
 24
0.5
 15
0.5
 25
0.5
 16
0.0
 26
0.0
 36
1.0
 17
0.0
 27
0.0
 37
0.0
 42
50.0
 43
0.0
 44
0.0
 45
244.1753892479596
 50
0.0
 51
0.0
 72
  1000
 90
    32864
  1

281
     0
 71
     1
 74
     0
110
0.0
120
0.0
130
0.0
111
1.0
121
0.0
131
0.0
112
0.0
122
1.0
132
0.0
 79
     0
146
0.0
170
     0
 61
     5
348
95B
292
     1
282
     1
141
0.0
142
0.0
 63
   250
421
  3355443
  0
MTEXT
  5
3DD
330
58
100
AcDbEntity
 67
     1
  8
0
100
AcDbMText
 10
3.727752798924512
 20
1.579829956684761
 30
0.0
 40
0.5
 41
12.24228416685076
 46
0.0
 71
     1
 72
     5
  1
WALL TO SLAB CONNECTION
 73
     1
 44
1.0
  0
ENDBLK
  5
5B
330
58
100
AcDbEntity
 67
     1
  8
0
100
AcDbBlockEnd
  0
BLOCK
  5
B9E
330
B9D
100
AcDbEntity
  8
0
100
AcDbBlockBegin
  2
*D5
 70
     1
 10
0.0
 20
0.0
 30
0.0
  3
*D5
  1

  0
LINE
  5
BDE
330
B9D
100
AcDbEntity
  8
0
 62
     0
440
 16777216
370
    -2
100
AcDbLine
 10
424.205434881813
 20
513.6689533185495
 30
0.0
 11
424.205434881813
 21
493.7609529948275
 31
0.0
  0
LINE
  5
BDF
330
B9D
100
AcDbEntity
  8
0
 62
     0
440
 16777216
370
    -2
100
AcDbLine
 10
454.3218575303508
 20
513.6689533185495
 30
0.0
 11
454.3218575303508
 21
493.7609529948275
 31
0.0
  0
LINE
  5
BE0
330
B9D
100
AcDbEntity
  8
0
 62
     0
440
 16777216
370
    -2
100
AcDbLine
 10
433.2054348818131
 20
502.7609529948275
 30
0.0
 11
445.3218575303508
 21
502.7609529948275
 31
0.0
  0
LINE
  5
BE1
330
B9D
100
AcDbEntity
  8
0
 62
     0
440
 16777216
370
    -2
100
AcDbLine
 10
439.2636462060819
 20
502.7609529948275
 30
0.0
 11
439.2636462060819
 21
432.0471057915533
 31
0.0
  0
LINE
  5
BE2
330
B9D
100
AcDbEntity
  8
0
 62
     0
440
 16777216
370
    -2
100
AcDbLine
 10
439.2636462060819
 20
432.0471057915533
 30
0.0
 11
448.2636462060819
 21
432.0471057915533
 31
0.0
  0
MTEXT
  5
BE3
330
B9D
100
AcDbEntity
  8
0
 62
     0
440
 16777216
100
AcDbMText
 10
471.2363610764775
 20
441.1453322581291
 30
0.0
 40
9.0
 41
0.0
 46
0.0
 71
     5
 72
     1
  1
\A1;30 MM
 73
     1
 44
1.0
  0
MTEXT
  5
BE4
330
B9D
100
AcDbEntity
  8
0
 62
     0
440
 16777216
100
AcDbMText
 10
473.9406584843902
 20
421.7793704573105
 30
0.0
 40
9.0
 41
0.0
 46
0.0
 71
     5
 72
     1
  1
\A1;[1.2 IN.]
 73
     1
 44
1.0
  0
SOLID
  5
BE5
330
B9D
100
AcDbEntity
  8
0
 62
     0
440
 16777216
100
AcDbTrace
 10
433.2054348818131
 20
504.2609529948276
 30
0.0
 11
433.2054348818131
 21
501.2609529948275
 31
0.0
 12
424.205434881813
 22
502.7609529948275
 32
0.0
 13
424.205434881813
 23
502.7609529948275
 33
0.0
  0
SOLID
  5
BE6
330
B9D
100
AcDbEntity
  8
0
 62
     0
440
 16777216
100
AcDbTrace
 10
445.3218575303508
 20
504.2609529948276
 30
0.0
 11
445.3218575303508
 21
501.2609529948275
 31
0.0
 12
454.3218575303508
 22
502.7609529948275
 32
0.0
 13
454.3218575303508
 23
502.7609529948275
 33
0.0
  0
POINT
  5
BE7
330
B9D
100
AcDbEntity
  8
Defpoints
 62
     0
440
 16777216
100
AcDbPoint
 10
424.205434881813
 20
516.7939533185495
 30
0.0
  0
POINT
  5
BE8
330
B9D
100
AcDbEntity
  8
Defpoints
 62
     0
440
 16777216
100
AcDbPoint
 10
454.3218575303508
 20
516.7939533185495
 30
0.0
  0
POINT
  5
BE9
330
B9D
100
AcDbEntity
  8
Defpoints
 62
     0
440
 16777216
100
AcDbPoint
 10
454.3218575303508
 20
502.7609529948275
 30
0.0
  0
ENDBLK
  5
B9F
330
B9D
100
AcDbEntity
  8
0
100
AcDbBlockEnd
  0
ENDSEC
  0
SECTION
  2
ENTITIES
  0
LINE
  5
407
102
{ACAD_REACTORS
330
775
102
}
330
1F
100
AcDbEntity
  8
0
100
AcDbLine
 10
177.8954795920867
 20
407.5078421994694
 30
0.0
 11
177.8954795920868
 21
877.3987113873067
 31
0.0
  0
LINE
  5
40B
330
1F
100
AcDbEntity
  8
0
100
AcDbLine
 10
834.3953594515115
 20
556.7939533185493
 30
0.0
 11
419.1954795920866
 21
556.7939533185494
 31
0.0
  0
LINE
  5
40C
102
{ACAD_REACTORS
330
775
102
}
330
1F
100
AcDbEntity
  8
0
100
AcDbLine
 10
177.8954795920867
 20
407.5078421994694
 30
0.0
 11
177.8954795920867
 21
362.7585448788
 31
0.0
  0
LINE
  5
41C
102
{ACAD_REACTORS
330
775
102
}
330
1F
100
AcDbEntity
  8
0
100
AcDbLine
 10
419.1954795920866
 20
556.7939533185494
 30
0.0
 11
419.1954795920866
 21
877.3987113873067
 31
0.0
  0
LEADER
  5
444
330
1F
100
AcDbEntity
  8
0
100
AcDbLeader
  3
Standard
 73
     0
 74
     0
 75
     1
 40
26.96261214188267
 41
220.9665757162347
 76
     3
 10
420.1454795920867
 20
433.0295647114694
 30
0.0
 10
542.9455018037388
 20
593.5609787597793
 30
0.0
 10
551.9455018037388
 20
593.5609787597793
 30
0.0
340
445
213
1.4079502529421
223
0.0
233
0.0
1001
ACAD
1000
DSTYLE
1002
{
1070
   147
1040
0.09
1070
    77
1070
     0
1070
    40
1040
50.0
1002
}
  0
MTEXT
  5
445
102
{ACAD_REACTORS
330
444
102
}
330
1F
100
AcDbEntity
  8
0
100
AcDbMText
 10
555.0375515507966
 20
593.5609787597793
 30
0.0
 40
9.0
 41
0.0
 46
0.0
 71
     1
 72
     1
  1
KRYSTOL WATERSTOP TREATMENT\P1 {\H1.0003x;kg/}m{\H0.7x;\S2^ ;\H1.429x; (}0.2 lb. /sq.ft.) 
 73
     1
 44
1.0
  0
LEADER
  5
448
330
1F
100
AcDbEntity
  8
0
100
AcDbLeader
  3
Standard
 73
     0
 74
     0
 75
     1
 40
26.95907230559345
 41
238.5184174624829
 76
     3
 10
447.5954795920865
 20
532.6702704553675
 30
0.0
 10
542.9455018037388
 20
652.7777989760643
 30
0.0
 10
551.9455018037388
 20
652.7777989760643
 30
0.0
340
449
213
1.510534961488247
223
16.90746055897739
233
0.0
1001
ACAD
1000
DSTYLE
1002
{
1070
    40
1040
50.0
1002
}
  0
MTEXT
  5
449
102
{ACAD_REACTORS
330
448
102
}
330
1F
100
AcDbEntity
  8
0
100
AcDbMText
 10
554.9349668422506
 20
635.8703384170869
 30
0.0
 40
9.0
 41
0.0
 46
0.0
 71
     4
 72
     1
  1
KRYSTOL WATERSTOP GROUT External\P3.33 kg/m (2.23 lb. /ft.)
 73
     1
 44
1.0
  0
MTEXT
  5
63E
102
{ACAD_XDICTIONARY
360
CBE
102
}
330
1F
100
AcDbEntity
  8
0
100
AcDbMText
 10
182.2031035072168
 20
316.5153939194738
 30
0.0
 40
11.0
 41
651.1597279769321
 46
0.0
 71
     1
 72
     5
  1
{\H1.0909x;NEW CONSTRUCTION - WALL TO SLAB - SHOTCRETE (WALL INBOARD OF SLAB)}\P\pi386.89;{\H0.81818x;REFER TO APPLICATION INSTRUCTION 4.21 }
 73
     1
 44
1.0
  0
LINE
  5
686
330
1F
100
AcDbEntity
  8
0
100
AcDbLine
 10
422.1954795920866
 20
556.7939533185494
 30
0.0
 11
422.1954795920866
 21
518.6939533185497
 31
0.0
  0
LINE
  5
69F
102
{ACAD_REACTORS
330
775
102
}
330
1F
100
AcDbEntity
  8
0
100
AcDbLine
 10
419.1954795920866
 20
556.7939533185494
 30
0.0
 11
419.1954795920866
 21
362.7585448788
 31
0.0
  0
LINE
  5
6A0
102
{ACAD_REACTORS
330
775
102
}
330
1F
100
AcDbEntity
  8
0
100
AcDbLine
 10
419.1954795920866
 20
362.7585448788
 30
0.0
 11
177.8954795920867
 21
362.7585448788
 31
0.0
  0
LINE
  5
6A1
330
1F
100
AcDbEntity
  8
0
100
AcDbLine
 10
419.1954795920866
 20
362.7585448788
 30
0.0
 11
834.3953594515113
 21
362.7585448788
 31
0.0
  0
INSERT
  5
75C
330
1F
100
AcDbEntity
  8
0
100
AcDbBlockReference
  2
joint line
 10
834.3953594515115
 20
459.7762490986746
 30
0.0
 50
270.0
  0
LINE
  5
75E
330
1F
100
AcDbEntity
  8
0
100
AcDbLine
 10
834.3953594515115
 20
499.8409459360911
 30
0.0
 11
834.3953594515115
 21
576.7939533185494
 31
0.0
  0
LINE
  5
75F
330
1F
100
AcDbEntity
  8
0
100
AcDbLine
 10
834.3953594515115
 20
419.7115522612581
 30
0.0
 11
834.3953594515113
 21
342.7585448788
 31
0.0
  0
INSERT
  5
760
102
{ACAD_REACTORS
330
775
102
}
330
1F
100
AcDbEntity
  8
0
100
AcDbBlockReference
  2
joint line
 10
298.5454795920867
 20
877.3987113873067
 30
0.0
  0
LINE
  5
761
102
{ACAD_REACTORS
330
775
102
}
330
1F
100
AcDbEntity
  8
0
100
AcDbLine
 10
157.8954795920868
 20
877.3987113873067
 30
0.0
 11
283.8807827546702
 21
877.3987113873067
 31
0.0
  0
LINE
  5
762
102
{ACAD_REACTORS
330
775
102
}
330
1F
100
AcDbEntity
  8
0
100
AcDbLine
 10
338.6101764295032
 20
877.3987113873067
 30
0.0
 11
439.1954795920865
 21
877.3987113873067
 31
0.0
  0
HATCH
  5
775
330
1F
100
AcDbEntity
  8
0
100
AcDbHatch
 10
0.0
 20
0.0
 30
0.0
210
0.0
220
0.0
230
1.0
  2
AR-CONC
 70
     0
 71
     1
 91
        1
 92
        7
 72
     0
 73
     1
 93
       13
 10
177.8954795920867
 20
407.5078421994694
 10
177.8954795920867
 20
362.7585448787999
 10
419.1954795920867
 20
362.7585448788
 10
419.1954795920866
 20
556.7939533185494
 10
419.1954795920866
 20
877.3987113873067
 10
338.6101764295032
 20
877.3987113873067
 10
313.2101764295032
 20
877.3987113873067
 10
298.5454795920867
 20
902.7987113873066
 10
298.5454795920867
 20
877.3987113873067
 10
298.5454795920867
 20
851.9987113873067
 10
283.8807827546703
 20
877.3987113873067
 10
258.4807827546702
 20
877.3987113873067
 10
177.8954795920867
 20
877.3987113873067
 97
        8
330
762
330
760
330
761
330
407
330
40C
330
6A0
330
69F
330
41C
 75
     0
 76
     1
 52
0.0
 41
10.0
 77
     0
 78
    13
 53
50.0
 43
0.0
 44
202.2500842351521
 45
71.72601826007535
 46
-6.27521349825951
 79
     2
 49
7.5
 49
-82.5
 53
355.0
 43
0.0
 44
202.2500842351521
 45
-13.8751333613
 46
75.21921337000119
 79
     2
 49
6.0
 49
-66.0
 53
100.4514
 43
5.977168
 44
201.7271502351522
 45
57.85093817140215
 46
68.94395420609535
 79
     2
 49
6.374019
 49
-70.1142112
 53
46.1842
 43
0.0
 44
222.2500842351522
 45
106.7241048625644
 46
-16.5519014329018
 79
     2
 49
11.25
 49
-123.75
 53
96.6356
 43
8.893674499999999
 44
220.8707535351521
 45
93.46627055487033
 46
97.41178709004417
 79
     2
 49
9.561028799999998
 49
-105.1713
 53
351.1842000000001
 43
0.0
 44
222.2500842351522
 45
93.46619451336271
 46
97.41186009253247
 79
     2
 49
9.0
 49
-99.0
 53
21.0
 43
10.0
 44
217.2500842351521
 45
59.69070521184616
 46
-40.26188906653388
 79
     2
 49
7.5
 49
-82.5
 53
326.0
 43
10.0
 44
217.2500842351521
 45
24.33153319215817
 46
72.5150045046853
 79
     2
 49
6.0
 49
-66.0
 53
71.45140000000001
 43
14.9742233
 44
213.8949236351521
 45
84.02226285814899
 46
32.25304967099524
 79
     2
 49
6.374019
 49
-70.1142112
 53
37.5
 43
0.0
 44
202.2500842351521
 45
1.215985531729066
 46
33.28938538313115
 79
     6
 49
0.0
 49
-65.19999999999999
 49
0.0
 49
-67.0
 49
0.0
 49
-66.25
 53
7.499999999999999
 43
0.0
 44
202.2500842351521
 45
26.30695374421486
 46
39.44117118823603
 79
     6
 49
0.0
 49
-38.2
 49
0.0
 49
-63.7
 49
0.0
 49
-25.25
 53
327.5
 43
-22.3
 44
202.2500842351521
 45
53.3822436172409
 46
-2.255487173437979
 79
     6
 49
0.0
 49
-25.0
 49
0.0
 49
-78.0
 49
0.0
 49
-103.5
 53
317.5
 43
-32.3
 44
202.2500842351521
 45
58.31861693423862
 46
10.01049823323176
 79
     6
 49
0.0
 49
-32.5
 49
0.0
 49
-51.79999999999999
 49
0.0
 49
-73.5
 47
3.38729164788968
 98
        1
 10
244.3209823810462
 20
595.1250733642711
  0
HATCH
  5
788
330
1F
100
AcDbEntity
  8
0
100
AcDbHatch
 10
0.0
 20
0.0
 30
0.0
210
0.0
220
0.0
230
1.0
  2
AR-CONC
 70
     0
 71
     0
 91
        1
 92
        5
 93
       13
 72
     1
 10
834.3953594515115
 20
419.7115522612581
 11
834.3953594515115
 21
445.1115522612583
 72
     1
 10
834.3953594515115
 20
445.1115522612583
 11
859.7953594515114
 21
459.7762490986746
 72
     1
 10
859.7953594515114
 20
459.7762490986746
 11
834.3953594515115
 21
459.7762490986746
 72
     1
 10
834.3953594515115
 20
459.7762490986746
 11
808.9953594515113
 21
459.7762490986746
 72
     1
 10
808.9953594515113
 20
459.7762490986746
 11
834.3953594515115
 21
474.4409459360911
 72
     1
 10
834.3953594515115
 20
474.4409459360911
 11
834.3953594515115
 21
499.8409459360911
 72
     1
 10
834.3953594515115
 20
499.8409459360911
 11
834.3953594515115
 21
556.7939533185493
 72
     1
 10
834.3953594515115
 20
556.7939533185493
 11
447.5954795920864
 21
556.7939533185494
 72
     1
 10
447.5954795920864
 20
556.7939533185494
 11
447.5954795920866
 21
518.6939533185494
 72
     1
 10
447.5954795920866
 20
518.6939533185494
 11
422.1954795920865
 21
518.6939533185494
 72
     4
 94
        3
 73
     0
 74
     0
 95
       25
 96
       21
 40
0.0
 40
0.0
 40
0.0
 40
0.0
 40
6.964999605766905
 40
24.56695880582135
 40
44.26789002516438
 40
53.25147836723553
 40
61.70857404335454
 40
67.61280159434473
 40
70.40692720693863
 40
74.9991863047991
 40
81.39527658773992
 40
90.49156161183752
 40
97.82946066574304
 40
106.8147722830879
 40
117.8294520754429
 40
128.0599336868258
 40
138.7392496739504
 40
147.6452449757123
 40
152.9236720961682
 40
156.6060501703399
 40
156.6060501703399
 40
156.6060501703399
 40
156.6060501703399
 10
422.1954795920866
 20
518.6939533185494
 10
421.6712172698738
 20
516.4112927593873
 10
419.8220382889331
 20
508.3598884379601
 10
424.6874014993917
 20
493.5914452746433
 10
418.7387470449794
 20
478.1702702338122
 10
423.1043448045572
 20
466.0044183430438
 10
420.950918385766
 20
458.291797266812
 10
421.178835262497
 20
452.5119013356957
 10
422.586966864195
 20
448.2263221730078
 10
421.4265433458487
 20
443.6233193473795
 10
420.5179780250487
 20
437.0000250690274
 10
421.799918837617
 20
429.392145098776
 10
421.3270840138211
 20
420.91949534047
 10
421.248249570971
 20
411.8088156487628
 10
421.4251231770835
 20
401.7276597103897
 10
420.1834075836767
 20
391.104149866678
 10
421.7363391595674
 20
381.1782448352019
 10
420.1672864279547
 20
372.8898189969539
 10
421.3204448414983
 20
366.9757624320231
 10
421.133569676795
 20
363.9868264849302
 10
421.0567746796754
 20
362.7585448788
 97
        0
 72
     1
 10
421.0567746796754
 20
362.7585448788
 11
834.3953594515111
 21
362.7585448788
 72
     1
 10
834.3953594515111
 20
362.7585448788
 11
834.3953594515115
 21
419.7115522612582
 97
        0
 75
     0
 76
     1
 52
0.0
 41
10.0
 77
     0
 78
    13
 53
50.0
 43
0.0
 44
202.2500842351521
 45
71.72601826007535
 46
-6.27521349825951
 79
     2
 49
7.5
 49
-82.5
 53
355.0
 43
0.0
 44
202.2500842351521
 45
-13.8751333613
 46
75.21921337000119
 79
     2
 49
6.0
 49
-66.0
 53
100.4514
 43
5.977168
 44
201.7271502351522
 45
57.85093817140215
 46
68.94395420609535
 79
     2
 49
6.374019
 49
-70.1142112
 53
46.1842
 43
0.0
 44
222.2500842351522
 45
106.7241048625644
 46
-16.5519014329018
 79
     2
 49
11.25
 49
-123.75
 53
96.6356
 43
8.893674499999999
 44
220.8707535351521
 45
93.46627055487033
 46
97.41178709004417
 79
     2
 49
9.561028799999998
 49
-105.1713
 53
351.1842000000001
 43
0.0
 44
222.2500842351522
 45
93.46619451336271
 46
97.41186009253247
 79
     2
 49
9.0
 49
-99.0
 53
21.0
 43
10.0
 44
217.2500842351521
 45
59.69070521184616
 46
-40.26188906653388
 79
     2
 49
7.5
 49
-82.5
 53
326.0
 43
10.0
 44
217.2500842351521
 45
24.33153319215817
 46
72.5150045046853
 79
     2
 49
6.0
 49
-66.0
 53
71.45140000000001
 43
14.9742233
 44
213.8949236351521
 45
84.02226285814899
 46
32.25304967099524
 79
     2
 49
6.374019
 49
-70.1142112
 53
37.5
 43
0.0
 44
202.2500842351521
 45
1.215985531729066
 46
33.28938538313115
 79
     6
 49
0.0
 49
-65.19999999999999
 49
0.0
 49
-67.0
 49
0.0
 49
-66.25
 53
7.499999999999999
 43
0.0
 44
202.2500842351521
 45
26.30695374421486
 46
39.44117118823603
 79
     6
 49
0.0
 49
-38.2
 49
0.0
 49
-63.7
 49
0.0
 49
-25.25
 53
327.5
 43
-22.3
 44
202.2500842351521
 45
53.3822436172409
 46
-2.255487173437979
 79
     6
 49
0.0
 49
-25.0
 49
0.0
 49
-78.0
 49
0.0
 49
-103.5
 53
317.5
 43
-32.3
 44
202.2500842351521
 45
58.31861693423862
 46
10.01049823323176
 79
     6
 49
0.0
 49
-32.5
 49
0.0
 49
-51.79999999999999
 49
0.0
 49
-73.5
 47
1.671859158509763
 98
        1
 10
591.8046623095838
 20
401.9238114370564
  0
LINE
  5
7A1
102
{ACAD_REACTORS
330
92F
102
}
330
1F
100
AcDbEntity
  8
0
100
AcDbLine
 10
422.1954795920866
 20
556.7939533185494
 30
0.0
 11
462.1954795920866
 21
556.7939533185494
 31
0.0
  0
LINE
  5
7A2
102
{ACAD_REACTORS
330
92F
330
A6D
102
}
330
1F
100
AcDbEntity
  8
0
100
AcDbLine
 10
462.1954795920866
 20
556.7939533185494
 30
0.0
 11
455.1424003637481
 21
516.7939533185495
 31
0.0
  0
LINE
  5
7A3
102
{ACAD_REACTORS
330
92F
102
}
330
1F
100
AcDbEntity
  8
0
100
AcDbLine
 10
422.1954795920866
 20
556.7939533185494
 30
0.0
 11
422.1954795920866
 21
516.7939533185495
 31
0.0
  0
LINE
  5
7A4
102
{ACAD_REACTORS
330
919
330
92F
102
}
330
1F
100
AcDbEntity
  8
0
100
AcDbLine
 10
422.1954795920866
 20
516.7939533185495
 30
0.0
 11
455.1424003637481
 21
516.7939533185495
 31
0.0
  0
DIMENSION
  5
8FE
102
{ACAD_XDICTIONARY
360
90D
102
}
102
{ACAD_REACTORS
330
919
102
}
330
1F
100
AcDbEntity
  8
0
100
AcDbDimension
280
     0
  2
*D2
 10
391.8861442449274
 20
516.7939533185495
 30
0.0
 11
391.8861442449274
 21
536.7939533185496
 31
0.0
 70
    33
 71
     5
 42
40.0
 73
     0
 74
     0
 75
     0
  3
Default
100
AcDbAlignedDimension
 13
422.1954795920866
 23
556.7939533185494
 33
0.0
 14
422.1954795920866
 24
516.7939533185495
 34
0.0
1001
ACAD
1000
DSTYLE
1002
{
1070
   171
1070
     1
1070
   148
1040
0.5
1002
}
  0
HATCH
  5
92F
330
1F
100
AcDbEntity
  8
0
100
AcDbHatch
 10
0.0
 20
0.0
 30
0.0
210
0.0
220
0.0
230
1.0
  2
CS42
 70
     0
 71
     1
 91
        1
 92
        7
 72
     0
 73
     1
 93
        4
 10
422.1954795920866
 20
516.7939533185495
 10
455.1424003637481
 20
516.7939533185495
 10
462.1954795920866
 20
556.7939533185494
 10
422.1954795920866
 20
556.7939533185494
 97
        4
330
7A1
330
7A3
330
7A4
330
7A2
 75
     0
 76
     1
 52
180.0
 41
0.5
 77
     0
 78
    46
 53
180.0
 43
-0.0000000000000006
 44
197.2500842351521
 45
-5.0
 46
-4.999999999999999
 79
     2
 49
0.375
 49
-9.625
 53
180.0
 43
-0.1745000000000006
 44
197.2530842351521
 45
-5.0
 46
-4.999999999999999
 79
     2
 49
0.375
 49
-9.625
 53
180.0
 43
-0.3490000000000006
 44
197.2620842351521
 45
-5.0
 46
-4.999999999999999
 79
     2
 49
0.375
 49
-9.625
 53
180.0
 43
-0.5225000000000005
 44
197.2775842351521
 45
-5.0
 46
-4.999999999999999
 79
     2
 49
0.375
 49
-9.625
 53
180.0
 43
-0.6960000000000006
 44
197.2985842351521
 45
-5.0
 46
-4.999999999999999
 79
     2
 49
0.375
 49
-9.625
 53
180.0
 43
-0.8680000000000005
 44
197.3260842351521
 45
-5.0
 46
-4.999999999999999
 79
     2
 49
0.375
 49
-9.625
 53
180.0
 43
-1.0395
 44
197.3595842351521
 45
-5.0
 46
-4.999999999999999
 79
     2
 49
0.375
 49
-9.625
 53
180.0
 43
-1.2095
 44
197.3985842351521
 45
-5.0
 46
-4.999999999999999
 79
     2
 49
0.375
 49
-9.625
 53
180.0
 43
-1.378
 44
197.4435842351521
 45
-5.0
 46
-4.999999999999999
 79
     2
 49
0.375
 49
-9.625
 53
180.0
 43
-1.545
 44
197.4945842351521
 45
-5.0
 46
-4.999999999999999
 79
     2
 49
0.375
 49
-9.625
 53
180.0
 43
-1.71
 44
197.5515842351521
 45
-5.0
 46
-4.999999999999999
 79
     2
 49
0.375
 49
-9.625
 53
180.0
 43
-1.873
 44
197.6140842351521
 45
-5.0
 46
-4.999999999999999
 79
     2
 49
0.375
 49
-9.625
 53
180.0
 43
-2.0335
 44
197.6825842351521
 45
-5.0
 46
-4.999999999999999
 79
     2
 49
0.375
 49
-9.625
 53
180.0
 43
-2.192
 44
197.7560842351521
 45
-5.0
 46
-4.999999999999999
 79
     2
 49
0.375
 49
-9.625
 53
180.0
 43
-2.3475
 44
197.8355842351521
 45
-5.0
 46
-4.999999999999999
 79
     2
 49
0.375
 49
-9.625
 53
180.0
 43
-2.5
 44
197.9200842351521
 45
-5.0
 46
-4.999999999999999
 79
     2
 49
0.375
 49
-9.625
 53
180.0
 43
-2.6495
 44
198.0100842351521
 45
-5.0
 46
-4.999999999999999
 79
     2
 49
0.375
 49
-9.625
 53
180.0
 43
-2.796
 44
198.1050842351521
 45
-5.0
 46
-4.999999999999999
 79
     2
 49
0.375
 49
-9.625
 53
180.0
 43
-2.939
 44
198.2050842351521
 45
-5.0
 46
-4.999999999999999
 79
     2
 49
0.375
 49
-9.625
 53
180.0
 43
-3.0785
 44
198.3100842351521
 45
-5.0
 46
-4.999999999999999
 79
     2
 49
0.375
 49
-9.625
 53
180.0
 43
-3.214
 44
198.4200842351521
 45
-5.0
 46
-4.999999999999999
 79
     2
 49
0.375
 49
-9.625
 53
180.0
 43
-3.3455
 44
198.5345842351521
 45
-5.0
 46
-4.999999999999999
 79
     2
 49
0.375
 49
-9.625
 53
180.0
 43
-3.4735
 44
198.6535842351521
 45
-5.0
 46
-4.999999999999999
 79
     2
 49
0.375
 49
-9.625
 53
180.0
 43
-3.5965
 44
198.7765842351521
 45
-5.0
 46
-4.999999999999999
 79
     2
 49
0.375
 49
-9.625
 53
180.0
 43
-3.7155
 44
198.9045842351521
 45
-5.0
 46
-4.999999999999999
 79
     2
 49
0.375
 49
-9.625
 53
180.0
 43
-3.83
 44
199.0360842351521
 45
-5.0
 46
-4.999999999999999
 79
     2
 49
0.375
 49
-9.625
 53
180.0
 43
-3.94
 44
199.1715842351521
 45
-5.0
 46
-4.999999999999999
 79
     2
 49
0.375
 49
-9.625
 53
180.0
 43
-4.044999999999999
 44
199.3110842351521
 45
-5.0
 46
-4.999999999999999
 79
     2
 49
0.375
 49
-9.625
 53
180.0
 43
-4.144999999999999
 44
199.4540842351521
 45
-5.0
 46
-4.999999999999999
 79
     2
 49
0.375
 49
-9.625
 53
180.0
 43
-4.24
 44
199.6005842351521
 45
-5.0
 46
-4.999999999999999
 79
     2
 49
0.375
 49
-9.625
 53
180.0
 43
-4.33
 44
199.7500842351521
 45
-5.0
 46
-4.999999999999999
 79
     2
 49
0.375
 49
-9.625
 53
180.0
 43
-4.4145
 44
199.9025842351521
 45
-5.0
 46
-4.999999999999999
 79
     2
 49
0.375
 49
-9.625
 53
180.0
 43
-4.493999999999999
 44
200.0580842351521
 45
-5.0
 46
-4.999999999999999
 79
     2
 49
0.375
 49
-9.625
 53
180.0
 43
-4.567499999999999
 44
200.2165842351522
 45
-5.0
 46
-4.999999999999999
 79
     2
 49
0.375
 49
-9.625
 53
180.0
 43
-4.636
 44
200.3770842351522
 45
-5.0
 46
-4.999999999999999
 79
     2
 49
0.375
 49
-9.625
 53
180.0
 43
-4.6985
 44
200.5400842351521
 45
-5.0
 46
-4.999999999999999
 79
     2
 49
0.375
 49
-9.625
 53
180.0
 43
-4.7555
 44
200.7050842351521
 45
-5.0
 46
-4.999999999999999
 79
     2
 49
0.375
 49
-9.625
 53
180.0
 43
-4.806499999999999
 44
200.8720842351522
 45
-5.0
 46
-4.999999999999999
 79
     2
 49
0.375
 49
-9.625
 53
180.0
 43
-4.851499999999999
 44
201.0405842351521
 45
-5.0
 46
-4.999999999999999
 79
     2
 49
0.375
 49
-9.625
 53
180.0
 43
-4.8905
 44
201.2105842351521
 45
-5.0
 46
-4.999999999999999
 79
     2
 49
0.375
 49
-9.625
 53
180.0
 43
-4.923999999999999
 44
201.3820842351521
 45
-5.0
 46
-4.999999999999999
 79
     2
 49
0.375
 49
-9.625
 53
180.0
 43
-4.951499999999999
 44
201.5540842351521
 45
-5.0
 46
-4.999999999999999
 79
     2
 49
0.375
 49
-9.625
 53
180.0
 43
-4.9725
 44
201.7275842351522
 45
-5.0
 46
-4.999999999999999
 79
     2
 49
0.375
 49
-9.625
 53
180.0
 43
-4.988
 44
201.9010842351522
 45
-5.0
 46
-4.999999999999999
 79
     2
 49
0.375
 49
-9.625
 53
180.0
 43
-4.996999999999999
 44
202.0755842351522
 45
-5.0
 46
-4.999999999999999
 79
     2
 49
0.375
 49
-9.625
 53
180.0
 43
-5.0
 44
202.2500842351521
 45
-5.0
 46
-4.999999999999999
 79
     2
 49
0.375
 49
-9.625
 47
0.1414344929803562
 98
        1
 10
436.5989115316765
 20
538.0815425620744
  0
DIMENSION
  5
A50
102
{ACAD_XDICTIONARY
360
A60
102
}
102
{ACAD_REACTORS
330
A6D
102
}
330
1F
100
AcDbEntity
  8
0
100
AcDbDimension
280
     0
  2
*D3
 10
462.1954795920866
 20
579.6897618058335
 30
0.0
 11
455.6954795920866
 21
620.6655462533096
 31
0.0
 70
    32
 71
     5
 42
40.0
 73
     0
 74
     0
 75
     0
  3
Default
100
AcDbAlignedDimension
 13
422.1954795920866
 23
556.7939533185494
 33
0.0
 14
462.1954795920866
 24
556.7939533185494
 34
0.0
100
AcDbRotatedDimension
1001
ACAD
1000
DSTYLE
1002
{
1070
   148
1040
0.5
1070
   171
1070
     1
1070
   271
1070
     0
1002
}
  0
DIMENSION
  5
B9C
330
1F
100
AcDbEntity
  8
0
100
AcDbDimension
280
     0
  2
*D5
 10
454.3218575303508
 20
502.7609529948275
 30
0.0
 11
452.7636462060819
 21
432.0471057915533
 31
0.0
 70
    32
 71
     5
 42
30.11642264853776
 73
     0
 74
     0
 75
     0
  3
Default
100
AcDbAlignedDimension
 13
424.205434881813
 23
516.7939533185495
 33
0.0
 14
454.3218575303508
 24
516.7939533185495
 34
0.0
100
AcDbRotatedDimension
1001
ACAD
1000
DSTYLE
1002
{
1070
   171
1070
     1
1002
}
  0
LINE
  5
C93
330
1F
100
AcDbEntity
  8
0
100
AcDbLine
 10
422.1954795920866
 20
516.7939533185495
 30
0.0
 11
422.1954795920866
 21
362.7585448788
 31
0.0
  0
HATCH
  5
C9F
330
1F
100
AcDbEntity
  8
0
100
AcDbHatch
 10
0.0
 20
0.0
 30
0.0
210
0.0
220
0.0
230
1.0
  2
HEX
 70
     0
 71
     0
 91
        1
 92
        7
 72
     0
 73
     1
 93
        5
 10
422.1954795920866
 20
516.7939533185495
 10
422.1954795920866
 20
556.7939533185494
 10
419.1954795920866
 20
556.7939533185494
 10
419.1954795920866
 20
362.7585448788
 10
422.1954795920867
 20
362.7585448788
 97
        0
 75
     0
 76
     1
 52
0.0
 41
1.0
 77
     0
 78
     3
 53
0.0
 43
0.0
 44
0.0
 45
0.0
 46
0.216506351
 79
     2
 49
0.125
 49
-0.25
 53
120.0
 43
0.0
 44
0.0
 45
-0.1875000000466704
 46
-0.1082531755
 79
     2
 49
0.125
 49
-0.25
 53
60.0
 43
0.125
 44
0.0
 45
-0.1875000000466704
 46
0.1082531755
 79
     2
 49
0.125
 49
-0.25
 47
0.3034064556885937
 98
        1
 10
420.8210670369435
 20
477.0224673021369
1001
ACAD
1010
0.0
1020
0.0
1030
0.0
  0
VIEWPORT
  5
AB7
102
{ACAD_XDICTIONARY
360
AB8
102
}
330
AB0
100
AcDbEntity
 67
     1
  8
0
100
AcDbViewport
 10
6.082188480312304
 20
5.099703067449564
 30
0.0
 40
12.99395757417246
 41
6.795871273659204
 68
     1
 69
     1
 12
6.082188480312304
 22
5.099703067449564
 13
0.0
 23
0.0
 14
0.5
 24
0.5
 15
0.5
 25
0.5
 16
0.0
 26
0.0
 36
1.0
 17
0.0
 27
0.0
 37
0.0
 42
50.0
 43
0.0
 44
0.0
 45
6.795871273659204
 50
0.0
 51
0.0
 72
  1000
 90
   819232
  1

281
     0
 71
     1
 74
     0
110
0.0
120
0.0
130
0.0
111
1.0
121
0.0
131
0.0
112
0.0
122
1.0
132
0.0
 79
     0
146
0.0
170
     0
 61
     5
348
95B
292
     1
282
     1
141
0.0
142
0.0
 63
   250
421
  3355443
  0
VIEWPORT
  5
ABC
102
{ACAD_XDICTIONARY
360
ABD
102
}
330
AB0
100
AcDbEntity
 67
     1
  8
0
100
AcDbViewport
 10
4.109232076838537
 20
5.122329538297606
 30
0.0
 40
8.911132783190311
 41
11.47596487666455
 68
     2
 69
     2
 12
521.8119900452667
 22
590.5507946789713
 13
0.0
 23
0.0
 14
0.5
 24
0.5
 15
10.0
 25
10.0
 16
0.0
 26
0.0
 36
1.0
 17
0.0
 27
0.0
 37
0.0
 42
50.0
 43
0.0
 44
0.0
 45
1147.596487666455
 50
0.0
 51
0.0
 72
  1000
 90
   819296
  1

281
     0
 71
     1
 74
     0
110
0.0
120
0.0
130
0.0
111
1.0
121
0.0
131
0.0
112
0.0
122
1.0
132
0.0
 79
     0
146
0.0
170
     0
 61
     5
348
95B
292
     1
282
     1
141
0.0
142
0.0
 63
   250
421
  3355443
  0
ENDSEC
  0
SECTION
  2
OBJECTS
  0
DICTIONARY
  5
C
330
0
100
AcDbDictionary
281
     1
  3
ACAD_CIP_PREVIOUS_PRODUCT_INFO
350
CD6
  3
ACAD_COLOR
350
73
  3
ACAD_DETAILVIEWSTYLE
350
CCE
  3
ACAD_GROUP
350
D
  3
ACAD_LAYOUT
350
1A
  3
ACAD_MATERIAL
350
72
  3
ACAD_MLEADERSTYLE
350
98A
  3
ACAD_MLINESTYLE
350
17
  3
ACAD_PLOTSETTINGS
350
19
  3
ACAD_PLOTSTYLENAME
350
E
  3
ACAD_SCALELIST
350
968
  3
ACAD_SECTIONVIEWSTYLE
350
CCC
  3
ACAD_TABLESTYLE
350
966
  3
ACAD_VISUALSTYLE
350
955
  3
AcadDim
350
441
  3
ACDB_RECOMPOSE_DATA
350
D0D
  3
AcDbVariableDictionary
350
66
  0
DICTIONARY
  5
A8C
330
2
100
AcDbDictionary
280
     1
281
     1
  3
ACAD_LAYERSTATES
360
A8D
  0
DICTIONARY
  5
AA6
330
10
100
AcDbDictionary
280
     1
281
     1
  3
ADSK_XREC_LAYER_RECONCILED
360
AA7
  0
DICTIONARY
  5
CA0
330
1F
100
AcDbDictionary
280
     1
281
     1
  3
ACAD_SORTENTS
360
CA1
  0
DICTIONARY
  5
759
330
757
100
AcDbDictionary
280
     1
281
     1
  0
DICTIONARY
  5
CBE
330
63E
100
AcDbDictionary
280
     1
281
     1
  3
ACAD_MTEXT_2008_RT
360
D07
  0
DICTIONARY
  5
90D
330
8FE
100
AcDbDictionary
280
     1
281
     1
  3
ACAD_DIMASSOC
360
919
  0
DICTIONARY
  5
A60
330
A50
100
AcDbDictionary
280
     1
281
     1
  3
ACAD_DIMASSOC
360
A6D
  0
DICTIONARY
  5
AB8
330
AB7
100
AcDbDictionary
280
     1
281
     1
  3
ASDK_XREC_ANNOTATION_SCALE_INFO
360
AB9
  0
DICTIONARY
  5
ABD
330
ABC
100
AcDbDictionary
280
     1
281
     1
  3
ASDK_XREC_ANNOTATION_SCALE_INFO
360
ABE
  0
XRECORD
  5
CD6
102
{ACAD_REACTORS
330
C
102
}
330
C
100
AcDbXrecord
280
     1
300
ACD
300
2014
300
ACD_F_S
  0
DICTIONARY
  5
73
102
{ACAD_REACTORS
330
C
102
}
330
C
100
AcDbDictionary
281
     1
  0
DICTIONARY
  5
CCE
102
{ACAD_REACTORS
330
C
102
}
330
C
100
AcDbDictionary
281
     1
  3
Imperial24
350
CCF
  0
DICTIONARY
  5
D
102
{ACAD_REACTORS
330
C
102
}
330
C
100
AcDbDictionary
281
     1
  0
DICTIONARY
  5
1A
102
{ACAD_REACTORS
330
C
102
}
330
C
100
AcDbDictionary
281
     1
  3
Layout1
350
59
  3
Layout2
350
5E
  3
Layout3
350
AB1
  3
Model
350
22
  0
DICTIONARY
  5
72
102
{ACAD_REACTORS
330
C
102
}
330
C
100
AcDbDictionary
281
     1
  3
ByBlock
350
945
  3
ByLayer
350
93D
  3
Global
350
94D
  0
DICTIONARY
  5
98A
102
{ACAD_REACTORS
330
C
102
}
330
C
100
AcDbDictionary
281
     1
  3
Standard
350
98B
  0
DICTIONARY
  5
17
102
{ACAD_REACTORS
330
C
102
}
330
C
100
AcDbDictionary
281
     1
  3
Standard
350
18
  0
DICTIONARY
  5
19
102
{ACAD_REACTORS
330
C
102
}
330
C
100
AcDbDictionary
281
     1
  0
ACDBDICTIONARYWDFLT
  5
E
102
{ACAD_REACTORS
330
C
102
}
330
C
100
AcDbDictionary
281
     1
  3
Normal
350
F
100
AcDbDictionaryWithDefault
340
F
  0
DICTIONARY
  5
968
102
{ACAD_REACTORS
330
C
102
}
330
C
100
AcDbDictionary
281
     1
  3
A0
350
969
  3
A1
350
AF0
  3
A2
350
AF1
  3
A3
350
AF2
  3
A4
350
AF3
  3
A5
350
AF4
  3
A6
350
AF5
  3
A7
350
AF6
  3
A8
350
AF7
  3
A9
350
AF8
  3
B0
350
AF9
  3
B1
350
AFA
  3
B2
350
AFB
  3
B3
350
AFC
  3
B4
350
AFD
  3
B5
350
AFE
  3
B6
350
AFF
  3
B7
350
B00
  3
B8
350
B01
  3
B9
350
B02
  3
C0
350
B03
  3
C1
350
B04
  3
C2
350
B05
  3
C3
350
B06
  3
C4
350
B07
  3
C5
350
B08
  3
C6
350
B09
  3
C7
350
B0A
  3
C8
350
B0B
  3
C9
350
B0C
  3
D0
350
B0D
  3
D1
350
B0E
  3
D2
350
B0F
  0
DICTIONARY
  5
CCC
102
{ACAD_REACTORS
330
C
102
}
330
C
100
AcDbDictionary
281
     1
  3
Imperial24
350
CCD
  0
DICTIONARY
  5
966
102
{ACAD_REACTORS
330
C
102
}
330
C
100
AcDbDictionary
281
     1
  3
Standard
350
967
  0
DICTIONARY
  5
955
102
{ACAD_REACTORS
330
C
102
}
330
C
100
AcDbDictionary
281
     1
  3
2dWireframe
350
95B
  3
3D Hidden
350
95D
  3
3dWireframe
350
95C
  3
Basic
350
95A
  3
Brighten
350
961
  3
ColorChange
350
965
  3
Conceptual
350
95E
  3
Dim
350
960
  3
EdgeColorOff
350
CCB
  3
Facepattern
350
964
  3
Flat
350
956
  3
FlatWithEdges
350
957
  3
Gouraud
350
958
  3
GouraudWithEdges
350
959
  3
Hidden
350
CC3
  3
JitterOff
350
CC9
  3
Linepattern
350
963
  3
OverhangOff
350
CCA
  3
Realistic
350
95F
  3
Shaded
350
CC8
  3
Shaded with edges
350
CC7
  3
Shades of Gray
350
CC4
  3
Sketchy
350
CC5
  3
Thicken
350
962
  3
Wireframe
350
CC2
  3
X-Ray
350
CC6
  0
XRECORD
  5
441
102
{ACAD_REACTORS
330
C
102
}
330
C
100
AcDbXrecord
280
     1
 90
   990106
  3

 60
     0
 61
     0
 62
     1
 63
     1
 64
     0
 65
     0
 66
     0
 67
     3
 68
     1
 69
     0
 70
     0
 71
     0
 72
     0
 40
0.0
170
     2
340
445
  0
XRECORD
  5
D0D
102
{ACAD_REACTORS
330
C
102
}
330
C
100
AcDbXrecord
280
     1
 90
        1
330
63E
330
967
330
CCD
330
CCF
  0
DICTIONARY
  5
66
102
{ACAD_REACTORS
330
C
102
}
330
C
100
AcDbDictionary
281
     1
  3
CANNOSCALE
350
B28
  3
CMLEADERSTYLE
350
B26
  3
CTABLESTYLE
350
B25
  3
CVIEWDETAILSTYLE
350
D03
  3
CVIEWSECTIONSTYLE
350
D04
  3
DIMASSOC
350
67
  3
HIDETEXT
350
6B
  3
LAYEREVAL
350
D05
  3
LAYERNOTIFY
350
D06
  3
LIGHTINGUNITS
350
B29
  3
MSLTSCALE
350
B27
  0
DICTIONARY
  5
A8D
102
{ACAD_REACTORS
330
A8C
102
}
330
A8C
100
AcDbDictionary
281
     1
  0
XRECORD
  5
AA7
102
{ACAD_REACTORS
330
AA6
102
}
330
AA6
100
AcDbXrecord
280
     1
290
     1
  0
SORTENTSTABLE
  5
CA1
102
{ACAD_REACTORS
330
CA0
102
}
330
CA0
100
AcDbSortentsTable
330
1F
331
7A2
  5
7A3
331
686
  5
69F
331
75C
  5
75E
331
6A1
  5
75C
331
762
  5
775
331
63E
  5
686
331
C9F
  5
40B
331
7A3
  5
7A4
331
41C
  5
444
331
775
  5
788
331
8FE
  5
92F
331
40B
  5
40C
331
B9C
  5
C93
331
7A4
  5
8FE
331
75E
  5
75F
331
40C
  5
41C
331
448
  5
449
331
407
  5
407
331
75F
  5
760
331
A50
  5
B9C
331
449
  5
63E
331
69F
  5
6A0
331
444
  5
445
331
760
  5
761
331
788
  5
7A1
331
7A1
  5
7A2
331
92F
  5
A50
331
C93
  5
C94
331
6A0
  5
6A1
331
445
  5
448
331
761
  5
762
  0
XRECORD
  5
D07
102
{ACAD_REACTORS
330
CBE
102
}
330
CBE
100
AcDbXrecord
280
     1
 40
687286.0
  1
{\H1.0909x;NEW CONSTRUCTION - WALL TO SLAB - SHOTCRETE (WALL INBOARD OF SLAB)}\P\pxqr;{\H0.81818x;REFER TO APPLICATION INSTRUCTION 4.21 }
  0
DIMASSOC
  5
919
102
{ACAD_REACTORS
330
90D
102
}
330
90D
100
AcDbDimAssoc
330
8FE
 90
        2
 70
     0
 71
     0
  1
AcDbOsnapPointRef
 72
    13
331
7A4
 73
     2
 91
        0
 40
0.0
 10
0.0
 20
0.0
 30
2.000000000000000E+50
 75
     0
  0
DIMASSOC
  5
A6D
102
{ACAD_REACTORS
330
A60
102
}
330
A60
100
AcDbDimAssoc
330
A50
 90
        2
 70
     0
 71
     0
  1
AcDbOsnapPointRef
 72
    13
331
7A2
 73
     2
 91
        0
 40
0.0
 10
0.0
 20
0.0
 30
2.000000000000000E+50
 75
     0
  0
XRECORD
  5
AB9
102
{ACAD_REACTORS
330
AB8
102
}
330
AB8
100
AcDbXrecord
280
     1
 90
        1
340
969
  0
XRECORD
  5
ABE
102
{ACAD_REACTORS
330
ABD
102
}
330
ABD
100
AcDbXrecord
280
     1
 90
        1
340
AFA
  0
ACDBDETAILVIEWSTYLE
  5
CCF
102
{ACAD_XDICTIONARY
360
D0B
102
}
102
{ACAD_REACTORS
330
CCE
102
}
330
CCE
100
AcDbModelDocViewStyle
 70
     0
  3
Imperial24
290
     0
100
AcDbDetailViewStyle
 70
     0
 71
     0
 90
        3
 71
     1
340
11
 62
   256
 40
0.24
340
0
 62
   256
 40
0.24
300

 40
0.36
280
     3
 71
     2
340
16
 90
       25
 62
   256
 71
     3
340
11
 62
   256
 40
0.24
 90
        1
 40
0.75
 90
        1
300
%<\AcVar ViewType \f "%tc1">% %<\AcVar ViewDetailId>%\PSCALE %<\AcVar ViewScale \f "%sn">%
 71
     4
340
16
 90
       25
 62
   256
340
16
 90
       25
 62
   256
280
     0
  0
LAYOUT
  5
59
102
{ACAD_XDICTIONARY
360
A91
102
}
102
{ACAD_REACTORS
330
1A
102
}
330
1A
100
AcDbPlotSettings
  1

  2
none_device
  4
Letter_(8.50_x_11.00_Inches)
  6

 40
6.349999904632568
 41
6.349999904632568
 42
6.350006103515625
 43
6.350006103515625
 44
215.8999938964844
 45
279.3999938964844
 46
0.0
 47
0.0
 48
0.0
 49
0.0
140
0.0
141
0.0
142
1.0
143
2.5
 70
   672
 72
     0
 73
     1
 74
     5
  7

 75
     0
147
0.25
 76
     1
 77
     2
 78
   300
148
0.0
149
0.0
100
AcDbLayout
  1
Layout1
 70
     1
 71
     1
 10
-0.6250006007397269
 20
-0.6249999906134418
 11
26.87499879852055
 21
20.62499940864683
 12
0.0
 22
0.0
 32
0.0
 14
1.007529963048968
 24
0.9229404614596592
 34
0.0
 15
24.85412004809521
 25
15.99688845628017
 35
0.0
146
0.0
 13
0.0
 23
0.0
 33
0.0
 16
1.0
 26
0.0
 36
0.0
 17
0.0
 27
1.0
 37
0.0
 76
     0
330
58
331
8D
  0
LAYOUT
  5
5E
102
{ACAD_XDICTIONARY
360
A9B
102
}
102
{ACAD_REACTORS
330
1A
102
}
330
1A
100
AcDbPlotSettings
  1

  2
none_device
  4
Letter_(8.50_x_11.00_Inches)
  6

 40
6.349999904632568
 41
6.349999904632568
 42
6.350006103515625
 43
6.350006103515625
 44
215.8999938964844
 45
279.3999938964844
 46
0.0
 47
0.0
 48
0.0
 49
0.0
140
0.0
141
0.0
142
1.0
143
1.0
 70
   688
 72
     0
 73
     1
 74
     5
  7

 75
    16
147
1.0
 76
     1
 77
     2
 78
   300
148
0.0
149
0.0
100
AcDbLayout
  1
Layout2
 70
     1
 71
     2
 10
-0.2500002402958907
 20
-0.2499999962453767
 11
10.74999951940821
 21
8.249999763458731
 12
0.0
 22
0.0
 32
0.0
 14
1.049999952316284
 24
0.7999999523162842
 34
0.0
 15
9.449999570846555
 25
7.199999570846556
 35
0.0
146
0.0
 13
0.0
 23
0.0
 33
0.0
 16
1.0
 26
0.0
 36
0.0
 17
0.0
 27
1.0
 37
0.0
 76
     0
330
5D
331
3B6
  0
LAYOUT
  5
AB1
102
{ACAD_XDICTIONARY
360
B17
102
}
102
{ACAD_REACTORS
330
1A
102
}
330
1A
100
AcDbPlotSettings
  1

  2
none_device
  4
Letter_(8.50_x_11.00_Inches)
  6

 40
6.349999904632568
 41
6.349999904632568
 42
6.350006103515625
 43
6.350006103515625
 44
215.8999938964844
 45
279.3999938964844
 46
0.0
 47
0.0
 48
0.0
 49
0.0
140
0.0
141
0.0
142
1.0
143
1.0
 70
   688
 72
     0
 73
     0
 74
     5
  7

 75
    16
147
1.0
 76
     0
 77
     2
 78
   300
148
0.0
149
0.0
100
AcDbLayout
  1
Layout3
 70
     1
 71
     3
 10
-0.2499999962453767
 20
-0.2499999962453767
 11
8.249999763458733
 21
10.74999976345873
 12
0.0
 22
0.0
 32
0.0
 14
-0.3463343147566178
 24
-0.615652900034668
 34
0.0
 15
8.564798468433693
 25
10.86031197662988
 35
0.0
146
0.0
 13
0.0
 23
0.0
 33
0.0
 16
1.0
 26
0.0
 36
0.0
 17
0.0
 27
1.0
 37
0.0
 76
     0
330
AB0
331
AB7
1001
ACAD_PSEXT
1000
None
1000
None
1000
Not applicable
1000
The layout will not be plotted unless a new plotter configuration name is selected.
1070
     0
  0
LAYOUT
  5
22
102
{ACAD_REACTORS
330
1A
102
}
330
1A
100
AcDbPlotSettings
  1

  2
none_device
  4
ANSI_A_(8.50_x_11.00_Inches)
  6

 40
6.349999904632568
 41
19.04999923706055
 42
6.350006103515625
 43
19.04998779296875
 44
215.8999938964844
 45
279.3999938964844
 46
0.0
 47
0.0
 48
0.0
 49
0.0
140
0.0
141
0.0
142
1.0
143
2.584895464708373
 70
 11952
 72
     0
 73
     1
 74
     0
  7

 75
     0
147
0.3868628397755418
 76
     0
 77
     2
 78
   300
148
0.0
149
0.0
100
AcDbLayout
  1
Model
 70
     1
 71
     0
 10
0.0
 20
0.0
 11
12.0
 21
9.0
 12
0.0
 22
0.0
 32
0.0
 14
0.0
 24
0.0
 34
0.0
 15
0.0
 25
0.0
 35
0.0
146
0.0
 13
0.0
 23
0.0
 33
0.0
 16
1.0
 26
0.0
 36
0.0
 17
0.0
 27
1.0
 37
0.0
 76
     0
330
1F
331
93B
  0
MATERIAL
  5
945
102
{ACAD_XDICTIONARY
360
946
102
}
102
{ACAD_REACTORS
330
72
102
}
330
72
100
AcDbMaterial
  1
ByBlock
 72
     0
 43
0.0008202099737533
 43
0.0
 43
0.0
 43
0.0
 43
0.0
 43
0.0008202099737533
 43
0.0
 43
0.0
 43
0.0
 43
0.0
 43
1.0
 43
0.0
 43
0.0
 43
0.0
 43
0.0
 43
1.0
 77
     0
 47
0.0008202099737533
 47
0.0
 47
0.0
 47
0.0
 47
0.0
 47
0.0008202099737533
 47
0.0
 47
0.0
 47
0.0
 47
0.0
 47
1.0
 47
0.0
 47
0.0
 47
0.0
 47
0.0
 47
1.0
171
     0
 49
0.0008202099737533
 49
0.0
 49
0.0
 49
0.0
 49
0.0
 49
0.0008202099737533
 49
0.0
 49
0.0
 49
0.0
 49
0.0
 49
1.0
 49
0.0
 49
0.0
 49
0.0
 49
0.0
 49
1.0
175
     0
142
0.0008202099737533
142
0.0
142
0.0
142
0.0
142
0.0
142
0.0008202099737533
142
0.0
142
0.0
142
0.0
142
0.0
142
1.0
142
0.0
142
0.0
142
0.0
142
0.0
142
1.0
179
     0
144
0.0008202099737533
144
0.0
144
0.0
144
0.0
144
0.0
144
0.0008202099737533
144
0.0
144
0.0
144
0.0
144
0.0
144
1.0
144
0.0
144
0.0
144
0.0
144
0.0
144
1.0
147
0.0008202099737533
147
0.0
147
0.0
147
0.0
147
0.0
147
0.0008202099737533
147
0.0
147
0.0
147
0.0
147
0.0
147
1.0
147
0.0
147
0.0
147
0.0
147
0.0
147
1.0
  0
MATERIAL
  5
93D
102
{ACAD_XDICTIONARY
360
93E
102
}
102
{ACAD_REACTORS
330
72
102
}
330
72
100
AcDbMaterial
  1
ByLayer
 72
     0
 43
0.0008202099737533
 43
0.0
 43
0.0
 43
0.0
 43
0.0
 43
0.0008202099737533
 43
0.0
 43
0.0
 43
0.0
 43
0.0
 43
1.0
 43
0.0
 43
0.0
 43
0.0
 43
0.0
 43
1.0
 77
     0
 47
0.0008202099737533
 47
0.0
 47
0.0
 47
0.0
 47
0.0
 47
0.0008202099737533
 47
0.0
 47
0.0
 47
0.0
 47
0.0
 47
1.0
 47
0.0
 47
0.0
 47
0.0
 47
0.0
 47
1.0
171
     0
 49
0.0008202099737533
 49
0.0
 49
0.0
 49
0.0
 49
0.0
 49
0.0008202099737533
 49
0.0
 49
0.0
 49
0.0
 49
0.0
 49
1.0
 49
0.0
 49
0.0
 49
0.0
 49
0.0
 49
1.0
175
     0
142
0.0008202099737533
142
0.0
142
0.0
142
0.0
142
0.0
142
0.0008202099737533
142
0.0
142
0.0
142
0.0
142
0.0
142
1.0
142
0.0
142
0.0
142
0.0
142
0.0
142
1.0
179
     0
144
0.0008202099737533
144
0.0
144
0.0
144
0.0
144
0.0
144
0.0008202099737533
144
0.0
144
0.0
144
0.0
144
0.0
144
1.0
144
0.0
144
0.0
144
0.0
144
0.0
144
1.0
147
0.0008202099737533
147
0.0
147
0.0
147
0.0
147
0.0
147
0.0008202099737533
147
0.0
147
0.0
147
0.0
147
0.0
147
1.0
147
0.0
147
0.0
147
0.0
147
0.0
147
1.0
  0
MATERIAL
  5
94D
102
{ACAD_XDICTIONARY
360
94E
102
}
102
{ACAD_REACTORS
330
72
102
}
330
72
100
AcDbMaterial
  1
Global
 72
     0
 43
0.0008202099737533
 43
0.0
 43
0.0
 43
0.0
 43
0.0
 43
0.0008202099737533
 43
0.0
 43
0.0
 43
0.0
 43
0.0
 43
1.0
 43
0.0
 43
0.0
 43
0.0
 43
0.0
 43
1.0
 77
     0
 47
0.0008202099737533
 47
0.0
 47
0.0
 47
0.0
 47
0.0
 47
0.0008202099737533
 47
0.0
 47
0.0
 47
0.0
 47
0.0
 47
1.0
 47
0.0
 47
0.0
 47
0.0
 47
0.0
 47
1.0
171
     0
 49
0.0008202099737533
 49
0.0
 49
0.0
 49
0.0
 49
0.0
 49
0.0008202099737533
 49
0.0
 49
0.0
 49
0.0
 49
0.0
 49
1.0
 49
0.0
 49
0.0
 49
0.0
 49
0.0
 49
1.0
175
     0
142
0.0008202099737533
142
0.0
142
0.0
142
0.0
142
0.0
142
0.0008202099737533
142
0.0
142
0.0
142
0.0
142
0.0
142
1.0
142
0.0
142
0.0
142
0.0
142
0.0
142
1.0
179
     0
144
0.0008202099737533
144
0.0
144
0.0
144
0.0
144
0.0
144
0.0008202099737533
144
0.0
144
0.0
144
0.0
144
0.0
144
1.0
144
0.0
144
0.0
144
0.0
144
0.0
144
1.0
147
0.0008202099737533
147
0.0
147
0.0
147
0.0
147
0.0
147
0.0008202099737533
147
0.0
147
0.0
147
0.0
147
0.0
147
1.0
147
0.0
147
0.0
147
0.0
147
0.0
147
1.0
  0
MLEADERSTYLE
  5
98B
102
{ACAD_REACTORS
330
98A
102
}
330
98A
100
AcDbMLeaderStyle
179
     2
170
     2
171
     1
172
     0
 90
        2
 40
0.0
 41
0.0
173
     1
 91
-1056964608
340
14
 92
       -2
290
     1
 42
0.09
291
     1
 43
0.36
  3
Standard
 44
0.18
300

342
11
174
     1
178
     6
175
     1
176
     0
 93
-1056964608
 45
0.18
292
     0
297
     0
 46
0.18
 94
-1056964608
 47
1.0
 49
1.0
140
1.0
293
     1
141
0.0
294
     1
177
     0
142
1.0
295
     1
296
     0
143
0.125
271
     0
272
     9
273
     9
298
     0
  0
MLINESTYLE
  5
18
102
{ACAD_REACTORS
330
17
102
}
330
17
100
AcDbMlineStyle
  2
STANDARD
 70
     0
  3

 62
   256
 51
90.0
 52
90.0
 71
     2
 49
0.5
 62
   256
  6
BYLAYER
 49
-0.5
 62
   256
  6
BYLAYER
  0
ACDBPLACEHOLDER
  5
F
102
{ACAD_REACTORS
330
E
102
}
330
E
  0
SCALE
  5
969
102
{ACAD_REACTORS
330
968
102
}
330
968
100
AcDbScale
 70
     0
300
1:1
140
1.0
141
1.0
290
     1
  0
SCALE
  5
AF0
102
{ACAD_REACTORS
330
968
102
}
330
968
100
AcDbScale
 70
     0
300
1:2
140
1.0
141
2.0
290
     0
  0
SCALE
  5
AF1
102
{ACAD_REACTORS
330
968
102
}
330
968
100
AcDbScale
 70
     0
300
1:4
140
1.0
141
4.0
290
     0
  0
SCALE
  5
AF2
102
{ACAD_REACTORS
330
968
102
}
330
968
100
AcDbScale
 70
     0
300
1:5
140
1.0
141
5.0
290
     0
  0
SCALE
  5
AF3
102
{ACAD_REACTORS
330
968
102
}
330
968
100
AcDbScale
 70
     0
300
1:8
140
1.0
141
8.0
290
     0
  0
SCALE
  5
AF4
102
{ACAD_REACTORS
330
968
102
}
330
968
100
AcDbScale
 70
     0
300
1:10
140
1.0
141
10.0
290
     0
  0
SCALE
  5
AF5
102
{ACAD_REACTORS
330
968
102
}
330
968
100
AcDbScale
 70
     0
300
1:16
140
1.0
141
16.0
290
     0
  0
SCALE
  5
AF6
102
{ACAD_REACTORS
330
968
102
}
330
968
100
AcDbScale
 70
     0
300
1:20
140
1.0
141
20.0
290
     0
  0
SCALE
  5
AF7
102
{ACAD_REACTORS
330
968
102
}
330
968
100
AcDbScale
 70
     0
300
1:30
140
1.0
141
30.0
290
     0
  0
SCALE
  5
AF8
102
{ACAD_REACTORS
330
968
102
}
330
968
100
AcDbScale
 70
     0
300
1:40
140
1.0
141
40.0
290
     0
  0
SCALE
  5
AF9
102
{ACAD_REACTORS
330
968
102
}
330
968
100
AcDbScale
 70
     0
300
1:50
140
1.0
141
50.0
290
     0
  0
SCALE
  5
AFA
102
{ACAD_REACTORS
330
968
102
}
330
968
100
AcDbScale
 70
     0
300
1:100
140
1.0
141
100.0
290
     0
  0
SCALE
  5
AFB
102
{ACAD_REACTORS
330
968
102
}
330
968
100
AcDbScale
 70
     0
300
2:1
140
2.0
141
1.0
290
     0
  0
SCALE
  5
AFC
102
{ACAD_REACTORS
330
968
102
}
330
968
100
AcDbScale
 70
     0
300
4:1
140
4.0
141
1.0
290
     0
  0
SCALE
  5
AFD
102
{ACAD_REACTORS
330
968
102
}
330
968
100
AcDbScale
 70
     0
300
8:1
140
8.0
141
1.0
290
     0
  0
SCALE
  5
AFE
102
{ACAD_REACTORS
330
968
102
}
330
968
100
AcDbScale
 70
     0
300
10:1
140
10.0
141
1.0
290
     0
  0
SCALE
  5
AFF
102
{ACAD_REACTORS
330
968
102
}
330
968
100
AcDbScale
 70
     0
300
100:1
140
100.0
141
1.0
290
     0
  0
SCALE
  5
B00
102
{ACAD_REACTORS
330
968
102
}
330
968
100
AcDbScale
 70
     0
300
1/128" = 1'-0"
140
0.0078125
141
12.0
290
     0
  0
SCALE
  5
B01
102
{ACAD_REACTORS
330
968
102
}
330
968
100
AcDbScale
 70
     0
300
1/64" = 1'-0"
140
0.015625
141
12.0
290
     0
  0
SCALE
  5
B02
102
{ACAD_REACTORS
330
968
102
}
330
968
100
AcDbScale
 70
     0
300
1/32" = 1'-0"
140
0.03125
141
12.0
290
     0
  0
SCALE
  5
B03
102
{ACAD_REACTORS
330
968
102
}
330
968
100
AcDbScale
 70
     0
300
1/16" = 1'-0"
140
0.0625
141
12.0
290
     0
  0
SCALE
  5
B04
102
{ACAD_REACTORS
330
968
102
}
330
968
100
AcDbScale
 70
     0
300
3/32" = 1'-0"
140
0.09375
141
12.0
290
     0
  0
SCALE
  5
B05
102
{ACAD_REACTORS
330
968
102
}
330
968
100
AcDbScale
 70
     0
300
1/8" = 1'-0"
140
0.125
141
12.0
290
     0
  0
SCALE
  5
B06
102
{ACAD_REACTORS
330
968
102
}
330
968
100
AcDbScale
 70
     0
300
3/16" = 1'-0"
140
0.1875
141
12.0
290
     0
  0
SCALE
  5
B07
102
{ACAD_REACTORS
330
968
102
}
330
968
100
AcDbScale
 70
     0
300
1/4" = 1'-0"
140
0.25
141
12.0
290
     0
  0
SCALE
  5
B08
102
{ACAD_REACTORS
330
968
102
}
330
968
100
AcDbScale
 70
     0
300
3/8" = 1'-0"
140
0.375
141
12.0
290
     0
  0
SCALE
  5
B09
102
{ACAD_REACTORS
330
968
102
}
330
968
100
AcDbScale
 70
     0
300
1/2" = 1'-0"
140
0.5
141
12.0
290
     0
  0
SCALE
  5
B0A
102
{ACAD_REACTORS
330
968
102
}
330
968
100
AcDbScale
 70
     0
300
3/4" = 1'-0"
140
0.75
141
12.0
290
     0
  0
SCALE
  5
B0B
102
{ACAD_REACTORS
330
968
102
}
330
968
100
AcDbScale
 70
     0
300
1" = 1'-0"
140
1.0
141
12.0
290
     0
  0
SCALE
  5
B0C
102
{ACAD_REACTORS
330
968
102
}
330
968
100
AcDbScale
 70
     0
300
1-1/2" = 1'-0"
140
1.5
141
12.0
290
     0
  0
SCALE
  5
B0D
102
{ACAD_REACTORS
330
968
102
}
330
968
100
AcDbScale
 70
     0
300
3" = 1'-0"
140
3.0
141
12.0
290
     0
  0
SCALE
  5
B0E
102
{ACAD_REACTORS
330
968
102
}
330
968
100
AcDbScale
 70
     0
300
6" = 1'-0"
140
6.0
141
12.0
290
     0
  0
SCALE
  5
B0F
102
{ACAD_REACTORS
330
968
102
}
330
968
100
AcDbScale
 70
     0
300
1'-0" = 1'-0"
140
12.0
141
12.0
290
     0
  0
ACDBSECTIONVIEWSTYLE
  5
CCD
102
{ACAD_XDICTIONARY
360
D09
102
}
102
{ACAD_REACTORS
330
CCC
102
}
330
CCC
100
AcDbModelDocViewStyle
 70
     0
  3
Imperial24
290
     0
100
AcDbSectionViewStyle
 70
     0
 71
     0
 90
       78
 71
     1
340
11
 62
   256
 40
0.24
340
0
340
0
 62
   256
 40
0.24
300
I, O, Q, S, X, Z
 40
0.48
 90
        3
 40
0.18
 90
        1
 71
     2
340
16
 90
       25
 62
   256
340
16
 90
       50
 62
   256
 40
0.24
 40
0.0
 40
0.24
 71
     3
340
11
 62
   256
 40
0.24
 90
        1
 40
0.75
 90
        1
300
%<\AcVar ViewType \f "%tc1">% %<\AcVar ViewSectionStartId>%-%<\AcVar ViewSectionEndId>%\PSCALE %<\AcVar ViewScale \f "%sn">%
 71
     4
 62
   256
 62
   257
300
ANSI31
 40
1.0
 90
        0
290
     0
290
     0
 90
        6
 40
0.0
 40
1.570796326794896
 40
0.2617993877991494
 40
1.308996938995747
 40
-0.2617993877991494
 40
1.832595714594046
  0
TABLESTYLE
  5
967
102
{ACAD_XDICTIONARY
360
B22
102
}
102
{ACAD_REACTORS
330
966
102
}
330
966
100
AcDbTableStyle
280
     0
  3
Standard
 70
     0
 71
     0
 40
0.06
 41
0.06
280
     0
281
     0
  7
Standard
140
0.18
170
     2
 62
     0
 63
     7
283
     0
 90
      512
 91
        0
  1

274
    -2
284
     1
 64
     0
275
    -2
285
     1
 65
     0
276
    -2
286
     1
 66
     0
277
    -2
287
     1
 67
     0
278
    -2
288
     1
 68
     0
279
    -2
289
     1
 69
     0
  7
Standard
140
0.25
170
     5
 62
     0
 63
     7
283
     0
 90
      512
 91
        0
  1

274
    -2
284
     1
 64
     0
275
    -2
285
     1
 65
     0
276
    -2
286
     1
 66
     0
277
    -2
287
     1
 67
     0
278
    -2
288
     1
 68
     0
279
    -2
289
     1
 69
     0
  7
Standard
140
0.18
170
     5
 62
     0
 63
     7
283
     0
 90
      512
 91
        0
  1

274
    -2
284
     1
 64
     0
275
    -2
285
     1
 65
     0
276
    -2
286
     1
 66
     0
277
    -2
287
     1
 67
     0
278
    -2
288
     1
 68
     0
279
    -2
289
     1
 69
     0
  0
VISUALSTYLE
  5
95B
102
{ACAD_REACTORS
330
955
102
}
330
955
100
AcDbVisualStyle
  2
2dWireframe
 70
     4
177
     3
291
     0
 70
    58
 90
        0
176
     1
 90
        2
176
     1
 90
        0
176
     1
 90
        0
176
     1
 40
0.6
176
     1
 40
30.0
176
     1
 62
     7
420
 16777215
176
     1
 90
        1
176
     1
 90
        4
176
     1
 62
     7
176
     1
 62
   257
176
     1
 90
        1
176
     1
 90
        1
176
     1
 40
1.0
176
     1
 90
        0
176
     1
 62
   257
176
     1
 40
1.0
176
     1
 90
        1
176
     1
 90
        6
176
     1
 90
        2
176
     1
 62
     7
176
     1
 90
        5
176
     1
 90
        0
176
     1
 90
        0
176
     1
290
     0
176
     1
 90
        1
176
     1
 40
0.0
176
     1
 90
        0
176
     1
290
     1
176
     1
290
     1
176
     1
290
     0
176
     1
290
     0
176
     1
290
     0
176
     1
290
     0
176
     1
290
     0
176
     1
290
     0
176
     1
290
     0
176
     1
 90
       50
176
     1
 40
0.0
176
     1
 40
1.0
176
     1
 90
        0
176
     1
 62
    18
420
        0
176
     1
 90
       50
176
     1
 90
        3
176
     1
 62
     5
420
      255
176
     1
290
     0
176
     1
 90
       50
176
     1
 90
       50
176
     1
 90
       50
176
     1
290
     0
176
     1
 90
       50
176
     1
 62
   256
176
     0
 40
1.0
176
     0
 90
        2
176
     1
  1
strokes_ogs.tif
176
     1
290
     0
176
     1
 40
1.0
176
     1
 40
1.0
176
     1
  0
VISUALSTYLE
  5
95D
102
{ACAD_REACTORS
330
955
102
}
330
955
100
AcDbVisualStyle
  2
3D Hidden
 70
     6
177
     3
291
     0
 70
    58
 90
        1
176
     1
 90
        2
176
     1
 90
        2
176
     1
 90
        0
176
     1
 40
0.6
176
     1
 40
30.0
176
     1
 62
     7
420
 16777215
176
     1
 90
        2
176
     1
 90
        2
176
     1
 62
     7
176
     1
 62
   257
176
     1
 90
        2
176
     1
 90
        1
176
     1
 40
40.0
176
     1
 90
        0
176
     1
 62
   257
176
     1
 40
1.0
176
     1
 90
        1
176
     1
 90
        6
176
     1
 90
        2
176
     1
 62
     7
176
     1
 90
        3
176
     1
 90
        0
176
     1
 90
        0
176
     1
290
     0
176
     1
 90
        1
176
     1
 40
0.0
176
     1
 90
        0
176
     1
290
     0
176
     1
290
     1
176
     1
290
     1
176
     1
290
     0
176
     1
290
     0
176
     1
290
     0
176
     1
290
     0
176
     1
290
     0
176
     1
290
     0
176
     1
 90
       50
176
     1
 40
0.0
176
     1
 40
1.0
176
     1
 90
        0
176
     1
 62
    18
420
        0
176
     1
 90
       50
176
     1
 90
        3
176
     1
 62
     5
420
      255
176
     1
290
     0
176
     1
 90
       50
176
     1
 90
       50
176
     1
 90
       50
176
     1
290
     0
176
     1
 90
       50
176
     1
 62
   256
176
     0
 40
1.0
176
     0
 90
        2
176
     1
  1
strokes_ogs.tif
176
     1
290
     0
176
     1
 40
1.0
176
     1
 40
1.0
176
     1
  0
VISUALSTYLE
  5
95C
102
{ACAD_REACTORS
330
955
102
}
330
955
100
AcDbVisualStyle
  2
3dWireframe
 70
     5
177
     3
291
     0
 70
    58
 90
        0
176
     1
 90
        2
176
     1
 90
        0
176
     1
 90
        0
176
     1
 40
0.6
176
     1
 40
30.0
176
     1
 62
     7
420
 16777215
176
     1
 90
        1
176
     1
 90
        4
176
     1
 62
     7
176
     1
 62
   257
176
     1
 90
        1
176
     1
 90
        1
176
     1
 40
1.0
176
     1
 90
        0
176
     1
 62
   257
176
     1
 40
1.0
176
     1
 90
        1
176
     1
 90
        6
176
     1
 90
        2
176
     1
 62
     7
176
     1
 90
        5
176
     1
 90
        0
176
     1
 90
        0
176
     1
290
     0
176
     1
 90
        1
176
     1
 40
0.0
176
     1
 90
        0
176
     1
290
     0
176
     1
290
     1
176
     1
290
     1
176
     1
290
     0
176
     1
290
     0
176
     1
290
     0
176
     1
290
     0
176
     1
290
     0
176
     1
290
     0
176
     1
 90
       50
176
     1
 40
0.0
176
     1
 40
1.0
176
     1
 90
        0
176
     1
 62
    18
420
        0
176
     1
 90
       50
176
     1
 90
        3
176
     1
 62
     5
420
      255
176
     1
290
     0
176
     1
 90
       50
176
     1
 90
       50
176
     1
 90
       50
176
     1
290
     0
176
     1
 90
       50
176
     1
 62
   256
176
     0
 40
1.0
176
     0
 90
        2
176
     1
  1
strokes_ogs.tif
176
     1
290
     0
176
     1
 40
1.0
176
     1
 40
1.0
176
     1
  0
VISUALSTYLE
  5
95A
102
{ACAD_REACTORS
330
955
102
}
330
955
100
AcDbVisualStyle
  2
Basic
 70
     7
177
     3
291
     1
 70
    58
 90
        1
176
     1
 90
        0
176
     1
 90
        1
176
     1
 90
        0
176
     1
 40
0.6
176
     1
 40
30.0
176
     1
 62
     7
420
 16777215
176
     1
 90
        0
176
     1
 90
        4
176
     1
 62
     7
176
     1
 62
   257
176
     1
 90
        1
176
     1
 90
        1
176
     1
 40
1.0
176
     1
 90
        8
176
     1
 62
     7
176
     1
 40
1.0
176
     1
 90
        1
176
     1
 90
        6
176
     1
 90
        2
176
     1
 62
     7
176
     1
 90
        5
176
     1
 90
        0
176
     1
 90
        0
176
     1
290
     0
176
     1
 90
        1
176
     1
 40
0.0
176
     1
 90
        0
176
     1
290
     0
176
     1
290
     1
176
     1
290
     1
176
     1
290
     0
176
     1
290
     0
176
     1
290
     0
176
     1
290
     0
176
     1
290
     0
176
     1
290
     0
176
     1
 90
       50
176
     1
 40
0.0
176
     1
 40
1.0
176
     1
 90
        0
176
     1
 62
    18
420
        0
176
     1
 90
       50
176
     1
 90
        3
176
     1
 62
     5
420
      255
176
     1
290
     0
176
     1
 90
       50
176
     1
 90
       50
176
     1
 90
       50
176
     1
290
     0
176
     1
 90
       50
176
     1
 62
   256
176
     0
 40
1.0
176
     0
 90
        2
176
     1
  1
strokes_ogs.tif
176
     1
290
     0
176
     1
 40
1.0
176
     1
 40
1.0
176
     1
  0
VISUALSTYLE
  5
961
102
{ACAD_REACTORS
330
955
102
}
330
955
100
AcDbVisualStyle
  2
Brighten
 70
    12
177
     3
291
     1
 70
    58
 90
        2
176
     1
 90
        2
176
     1
 90
        0
176
     1
 90
        0
176
     1
 40
0.6
176
     1
 40
30.0
176
     1
 62
     7
420
 16777215
176
     1
 90
        1
176
     1
 90
        4
176
     1
 62
     7
176
     1
 62
   257
176
     1
 90
        1
176
     1
 90
        1
176
     1
 40
1.0
176
     1
 90
        8
176
     1
 62
     7
176
     1
 40
1.0
176
     1
 90
        1
176
     1
 90
        6
176
     1
 90
        2
176
     1
 62
     7
176
     1
 90
        5
176
     1
 90
        0
176
     1
 90
        0
176
     1
290
     0
176
     1
 90
        1
176
     1
 40
50.0
176
     1
 90
        0
176
     1
290
     0
176
     1
290
     1
176
     1
290
     1
176
     1
290
     0
176
     1
290
     0
176
     1
290
     0
176
     1
290
     0
176
     1
290
     0
176
     1
290
     0
176
     1
 90
       50
176
     1
 40
0.0
176
     1
 40
1.0
176
     1
 90
        0
176
     1
 62
    18
420
        0
176
     1
 90
       50
176
     1
 90
        3
176
     1
 62
     5
420
      255
176
     1
290
     0
176
     1
 90
       50
176
     1
 90
       50
176
     1
 90
       50
176
     1
290
     0
176
     1
 90
       50
176
     1
 62
   256
176
     0
 40
1.0
176
     0
 90
        2
176
     1
  1
strokes_ogs.tif
176
     1
290
     0
176
     1
 40
1.0
176
     1
 40
1.0
176
     1
  0
VISUALSTYLE
  5
965
102
{ACAD_REACTORS
330
955
102
}
330
955
100
AcDbVisualStyle
  2
ColorChange
 70
    16
177
     3
291
     1
 70
    58
 90
        2
176
     1
 90
        2
176
     1
 90
        3
176
     1
 90
        0
176
     1
 40
0.6
176
     1
 40
30.0
176
     1
 62
     8
420
  8421504
176
     1
 90
        1
176
     1
 90
        4
176
     1
 62
     7
176
     1
 62
   257
176
     1
 90
        1
176
     1
 90
        1
176
     1
 40
1.0
176
     1
 90
        8
176
     1
 62
     8
420
  8421504
176
     1
 40
1.0
176
     1
 90
        1
176
     1
 90
        6
176
     1
 90
        2
176
     1
 62
     7
176
     1
 90
        5
176
     1
 90
        0
176
     1
 90
        0
176
     1
290
     0
176
     1
 90
        1
176
     1
 40
0.0
176
     1
 90
        0
176
     1
290
     0
176
     1
290
     1
176
     1
290
     1
176
     1
290
     0
176
     1
290
     0
176
     1
290
     0
176
     1
290
     0
176
     1
290
     0
176
     1
290
     0
176
     1
 90
       50
176
     1
 40
0.0
176
     1
 40
1.0
176
     1
 90
        0
176
     1
 62
    18
420
        0
176
     1
 90
       50
176
     1
 90
        3
176
     1
 62
     5
420
      255
176
     1
290
     0
176
     1
 90
       50
176
     1
 90
       50
176
     1
 90
       50
176
     1
290
     0
176
     1
 90
       50
176
     1
 62
   256
176
     0
 40
1.0
176
     0
 90
        2
176
     1
  1
strokes_ogs.tif
176
     1
290
     0
176
     1
 40
1.0
176
     1
 40
1.0
176
     1
  0
VISUALSTYLE
  5
95E
102
{ACAD_REACTORS
330
955
102
}
330
955
100
AcDbVisualStyle
  2
Conceptual
 70
     9
177
     3
291
     0
 70
    58
 90
        3
176
     1
 90
        2
176
     1
 90
        0
176
     1
 90
        0
176
     1
 40
0.6
176
     1
 40
30.0
176
     1
 62
     7
420
 16777215
176
     1
 90
        2
176
     1
 90
        2
176
     1
 62
     7
176
     1
 62
   257
176
     1
 90
        1
176
     1
 90
        1
176
     1
 40
40.0
176
     1
 90
        8
176
     1
 62
     7
176
     1
 40
1.0
176
     1
 90
        1
176
     1
 90
        6
176
     1
 90
        2
176
     1
 62
     7
176
     1
 90
        3
176
     1
 90
        0
176
     1
 90
        0
176
     1
290
     0
176
     1
 90
        1
176
     1
 40
0.0
176
     1
 90
        0
176
     1
290
     0
176
     1
290
     1
176
     1
290
     1
176
     1
290
     0
176
     1
290
     0
176
     1
290
     0
176
     1
290
     0
176
     1
290
     0
176
     1
290
     0
176
     1
 90
       50
176
     1
 40
0.0
176
     1
 40
1.0
176
     1
 90
        0
176
     1
 62
    18
420
        0
176
     1
 90
       50
176
     1
 90
        3
176
     1
 62
     5
420
      255
176
     1
290
     0
176
     1
 90
       50
176
     1
 90
       50
176
     1
 90
       50
176
     1
290
     0
176
     1
 90
       50
176
     1
 62
   256
176
     0
 40
1.0
176
     0
 90
        2
176
     1
  1
strokes_ogs.tif
176
     1
290
     0
176
     1
 40
1.0
176
     1
 40
1.0
176
     1
  0
VISUALSTYLE
  5
960
102
{ACAD_REACTORS
330
955
102
}
330
955
100
AcDbVisualStyle
  2
Dim
 70
    11
177
     3
291
     1
 70
    58
 90
        2
176
     1
 90
        2
176
     1
 90
        0
176
     1
 90
        0
176
     1
 40
0.6
176
     1
 40
30.0
176
     1
 62
     7
420
 16777215
176
     1
 90
        1
176
     1
 90
        4
176
     1
 62
     7
176
     1
 62
   257
176
     1
 90
        1
176
     1
 90
        1
176
     1
 40
1.0
176
     1
 90
        8
176
     1
 62
     7
176
     1
 40
1.0
176
     1
 90
        1
176
     1
 90
        6
176
     1
 90
        2
176
     1
 62
     7
176
     1
 90
        5
176
     1
 90
        0
176
     1
 90
        0
176
     1
290
     0
176
     1
 90
        1
176
     1
 40
-50.0
176
     1
 90
        0
176
     1
290
     0
176
     1
290
     1
176
     1
290
     1
176
     1
290
     0
176
     1
290
     0
176
     1
290
     0
176
     1
290
     0
176
     1
290
     0
176
     1
290
     0
176
     1
 90
       50
176
     1
 40
0.0
176
     1
 40
1.0
176
     1
 90
        0
176
     1
 62
    18
420
        0
176
     1
 90
       50
176
     1
 90
        3
176
     1
 62
     5
420
      255
176
     1
290
     0
176
     1
 90
       50
176
     1
 90
       50
176
     1
 90
       50
176
     1
290
     0
176
     1
 90
       50
176
     1
 62
   256
176
     0
 40
1.0
176
     0
 90
        2
176
     1
  1
strokes_ogs.tif
176
     1
290
     0
176
     1
 40
1.0
176
     1
 40
1.0
176
     1
  0
VISUALSTYLE
  5
CCB
102
{ACAD_REACTORS
330
955
102
}
330
955
100
AcDbVisualStyle
  2
EdgeColorOff
 70
    22
177
     3
291
     1
 70
    58
 90
        2
176
     0
 90
        2
176
     0
 90
        0
176
     0
 90
        0
176
     0
 40
0.6
176
     0
 40
30.0
176
     0
 62
     7
420
 16777215
176
     0
 90
        1
176
     0
 90
        4
176
     0
 62
     7
176
     0
 62
   257
176
     0
 90
        1
176
     0
 90
        1
176
     0
 40
1.0
176
     0
 90
        8
176
     2
 62
     7
176
     0
 40
1.0
176
     0
 90
        1
176
     0
 90
        6
176
     0
 90
        2
176
     0
 62
     7
176
     0
 90
        5
176
     0
 90
        0
176
     0
 90
        0
176
     0
290
     0
176
     0
 90
        1
176
     0
 40
0.0
176
     0
 90
        0
176
     0
290
     0
176
     0
290
     1
176
     0
290
     1
176
     0
290
     0
176
     0
290
     0
176
     0
290
     0
176
     0
290
     0
176
     0
290
     0
176
     0
290
     0
176
     0
 90
       50
176
     0
 40
0.0
176
     0
 40
1.0
176
     0
 90
        0
176
     0
 62
    18
420
        0
176
     0
 90
       50
176
     0
 90
        3
176
     0
 62
     5
420
      255
176
     0
290
     0
176
     0
 90
       50
176
     0
 90
       50
176
     0
 90
       50
176
     0
290
     0
176
     0
 90
       50
176
     0
 62
   256
176
     0
 40
1.0
176
     0
 90
        2
176
     0
  1
strokes_ogs.tif
176
     0
290
     0
176
     0
 40
1.0
176
     0
 40
1.0
176
     0
  0
VISUALSTYLE
  5
964
102
{ACAD_REACTORS
330
955
102
}
330
955
100
AcDbVisualStyle
  2
Facepattern
 70
    15
177
     3
291
     1
 70
    58
 90
        2
176
     1
 90
        2
176
     1
 90
        0
176
     1
 90
        0
176
     1
 40
0.6
176
     1
 40
30.0
176
     1
 62
     7
420
 16777215
176
     1
 90
        1
176
     1
 90
        4
176
     1
 62
     7
176
     1
 62
   257
176
     1
 90
        1
176
     1
 90
        1
176
     1
 40
1.0
176
     1
 90
        8
176
     1
 62
     7
176
     1
 40
1.0
176
     1
 90
        1
176
     1
 90
        6
176
     1
 90
        2
176
     1
 62
     7
176
     1
 90
        5
176
     1
 90
        0
176
     1
 90
        0
176
     1
290
     0
176
     1
 90
        1
176
     1
 40
0.0
176
     1
 90
        0
176
     1
290
     0
176
     1
290
     1
176
     1
290
     1
176
     1
290
     0
176
     1
290
     0
176
     1
290
     0
176
     1
290
     0
176
     1
290
     0
176
     1
290
     0
176
     1
 90
       50
176
     1
 40
0.0
176
     1
 40
1.0
176
     1
 90
        0
176
     1
 62
    18
420
        0
176
     1
 90
       50
176
     1
 90
        3
176
     1
 62
     5
420
      255
176
     1
290
     0
176
     1
 90
       50
176
     1
 90
       50
176
     1
 90
       50
176
     1
290
     0
176
     1
 90
       50
176
     1
 62
   256
176
     0
 40
1.0
176
     0
 90
        2
176
     1
  1
strokes_ogs.tif
176
     1
290
     0
176
     1
 40
1.0
176
     1
 40
1.0
176
     1
  0
VISUALSTYLE
  5
956
102
{ACAD_REACTORS
330
955
102
}
330
955
100
AcDbVisualStyle
  2
Flat
 70
     0
177
     3
291
     1
 70
    58
 90
        2
176
     1
 90
        1
176
     1
 90
        1
176
     1
 90
        2
176
     1
 40
0.6
176
     1
 40
30.0
176
     1
 62
     7
420
 16777215
176
     1
 90
        0
176
     1
 90
        4
176
     1
 62
     7
176
     1
 62
   257
176
     1
 90
        1
176
     1
 90
        1
176
     1
 40
1.0
176
     1
 90
        8
176
     1
 62
     7
176
     1
 40
1.0
176
     1
 90
        1
176
     1
 90
        6
176
     1
 90
        2
176
     1
 62
     7
176
     1
 90
        5
176
     1
 90
        0
176
     1
 90
        0
176
     1
290
     0
176
     1
 90
       13
176
     1
 40
0.0
176
     1
 90
        0
176
     1
290
     0
176
     1
290
     1
176
     1
290
     1
176
     1
290
     0
176
     1
290
     0
176
     1
290
     0
176
     1
290
     0
176
     1
290
     0
176
     1
290
     0
176
     1
 90
       50
176
     1
 40
0.0
176
     1
 40
1.0
176
     1
 90
        0
176
     1
 62
    18
420
        0
176
     1
 90
       50
176
     1
 90
        3
176
     1
 62
     5
420
      255
176
     1
290
     0
176
     1
 90
       50
176
     1
 90
       50
176
     1
 90
       50
176
     1
290
     0
176
     1
 90
       50
176
     1
 62
   256
176
     0
 40
1.0
176
     0
 90
        2
176
     1
  1
strokes_ogs.tif
176
     1
290
     0
176
     1
 40
1.0
176
     1
 40
1.0
176
     1
  0
VISUALSTYLE
  5
957
102
{ACAD_REACTORS
330
955
102
}
330
955
100
AcDbVisualStyle
  2
FlatWithEdges
 70
     1
177
     3
291
     1
 70
    58
 90
        2
176
     1
 90
        1
176
     1
 90
        1
176
     1
 90
        2
176
     1
 40
0.6
176
     1
 40
30.0
176
     1
 62
     7
420
 16777215
176
     1
 90
        1
176
     1
 90
        4
176
     1
 62
     7
176
     1
 62
   257
176
     1
 90
        1
176
     1
 90
        1
176
     1
 40
1.0
176
     1
 90
        0
176
     1
 62
   257
176
     1
 40
1.0
176
     1
 90
        1
176
     1
 90
        6
176
     1
 90
        2
176
     1
 62
     7
176
     1
 90
        5
176
     1
 90
        0
176
     1
 90
        0
176
     1
290
     0
176
     1
 90
       13
176
     1
 40
0.0
176
     1
 90
        0
176
     1
290
     0
176
     1
290
     1
176
     1
290
     1
176
     1
290
     0
176
     1
290
     0
176
     1
290
     0
176
     1
290
     0
176
     1
290
     0
176
     1
290
     0
176
     1
 90
       50
176
     1
 40
0.0
176
     1
 40
1.0
176
     1
 90
        0
176
     1
 62
    18
420
        0
176
     1
 90
       50
176
     1
 90
        3
176
     1
 62
     5
420
      255
176
     1
290
     0
176
     1
 90
       50
176
     1
 90
       50
176
     1
 90
       50
176
     1
290
     0
176
     1
 90
       50
176
     1
 62
   256
176
     0
 40
1.0
176
     0
 90
        2
176
     1
  1
strokes_ogs.tif
176
     1
290
     0
176
     1
 40
1.0
176
     1
 40
1.0
176
     1
  0
VISUALSTYLE
  5
958
102
{ACAD_REACTORS
330
955
102
}
330
955
100
AcDbVisualStyle
  2
Gouraud
 70
     2
177
     3
291
     1
 70
    58
 90
        2
176
     1
 90
        2
176
     1
 90
        1
176
     1
 90
        2
176
     1
 40
0.6
176
     1
 40
30.0
176
     1
 62
     7
420
 16777215
176
     1
 90
        0
176
     1
 90
        4
176
     1
 62
     7
176
     1
 62
   257
176
     1
 90
        1
176
     1
 90
        1
176
     1
 40
1.0
176
     1
 90
        0
176
     1
 62
     7
176
     1
 40
1.0
176
     1
 90
        1
176
     1
 90
        6
176
     1
 90
        2
176
     1
 62
     7
176
     1
 90
        5
176
     1
 90
        0
176
     1
 90
        0
176
     1
290
     0
176
     1
 90
       13
176
     1
 40
0.0
176
     1
 90
        0
176
     1
290
     0
176
     1
290
     1
176
     1
290
     1
176
     1
290
     0
176
     1
290
     0
176
     1
290
     0
176
     1
290
     0
176
     1
290
     0
176
     1
290
     0
176
     1
 90
       50
176
     1
 40
0.0
176
     1
 40
1.0
176
     1
 90
        0
176
     1
 62
    18
420
        0
176
     1
 90
       50
176
     1
 90
        3
176
     1
 62
     5
420
      255
176
     1
290
     0
176
     1
 90
       50
176
     1
 90
       50
176
     1
 90
       50
176
     1
290
     0
176
     1
 90
       50
176
     1
 62
   256
176
     0
 40
1.0
176
     0
 90
        2
176
     1
  1
strokes_ogs.tif
176
     1
290
     0
176
     1
 40
1.0
176
     1
 40
1.0
176
     1
  0
VISUALSTYLE
  5
959
102
{ACAD_REACTORS
330
955
102
}
330
955
100
AcDbVisualStyle
  2
GouraudWithEdges
 70
     3
177
     3
291
     1
 70
    58
 90
        2
176
     1
 90
        2
176
     1
 90
        1
176
     1
 90
        2
176
     1
 40
0.6
176
     1
 40
30.0
176
     1
 62
     7
420
 16777215
176
     1
 90
        1
176
     1
 90
        4
176
     1
 62
     7
176
     1
 62
   257
176
     1
 90
        1
176
     1
 90
        1
176
     1
 40
1.0
176
     1
 90
        0
176
     1
 62
   257
176
     1
 40
1.0
176
     1
 90
        1
176
     1
 90
        6
176
     1
 90
        2
176
     1
 62
     7
176
     1
 90
        5
176
     1
 90
        0
176
     1
 90
        0
176
     1
290
     0
176
     1
 90
       13
176
     1
 40
0.0
176
     1
 90
        0
176
     1
290
     0
176
     1
290
     1
176
     1
290
     1
176
     1
290
     0
176
     1
290
     0
176
     1
290
     0
176
     1
290
     0
176
     1
290
     0
176
     1
290
     0
176
     1
 90
       50
176
     1
 40
0.0
176
     1
 40
1.0
176
     1
 90
        0
176
     1
 62
    18
420
        0
176
     1
 90
       50
176
     1
 90
        3
176
     1
 62
     5
420
      255
176
     1
290
     0
176
     1
 90
       50
176
     1
 90
       50
176
     1
 90
       50
176
     1
290
     0
176
     1
 90
       50
176
     1
 62
   256
176
     0
 40
1.0
176
     0
 90
        2
176
     1
  1
strokes_ogs.tif
176
     1
290
     0
176
     1
 40
1.0
176
     1
 40
1.0
176
     1
  0
VISUALSTYLE
  5
CC3
102
{ACAD_REACTORS
330
955
102
}
330
955
100
AcDbVisualStyle
  2
Hidden
 70
     6
177
     3
291
     0
 70
    58
 90
        1
176
     1
 90
        2
176
     1
 90
        2
176
     1
 90
        0
176
     1
 40
0.6
176
     1
 40
30.0
176
     1
 62
     7
420
 16777215
176
     1
 90
        2
176
     1
 90
        2
176
     1
 62
     7
176
     1
 62
   257
176
     1
 90
        2
176
     1
 90
        1
176
     1
 40
40.0
176
     1
 90
        0
176
     1
 62
   257
176
     1
 40
1.0
176
     1
 90
        1
176
     1
 90
        6
176
     1
 90
        2
176
     1
 62
     7
176
     1
 90
        3
176
     1
 90
        0
176
     1
 90
        0
176
     1
290
     0
176
     1
 90
        1
176
     1
 40
0.0
176
     1
 90
        0
176
     1
290
     0
176
     1
290
     1
176
     1
290
     1
176
     1
290
     0
176
     1
290
     0
176
     1
290
     0
176
     1
290
     0
176
     1
290
     0
176
     1
290
     0
176
     1
 90
       50
176
     1
 40
0.0
176
     1
 40
1.0
176
     1
 90
        0
176
     1
 62
    18
420
        0
176
     1
 90
       50
176
     1
 90
        3
176
     1
 62
     5
420
      255
176
     1
290
     0
176
     1
 90
       50
176
     1
 90
       50
176
     1
 90
       50
176
     1
290
     0
176
     1
 90
       50
176
     1
 62
   256
176
     0
 40
1.0
176
     0
 90
        2
176
     1
  1
strokes_ogs.tif
176
     1
290
     0
176
     1
 40
1.0
176
     1
 40
1.0
176
     1
  0
VISUALSTYLE
  5
CC9
102
{ACAD_REACTORS
330
955
102
}
330
955
100
AcDbVisualStyle
  2
JitterOff
 70
    20
177
     3
291
     1
 70
    58
 90
        2
176
     0
 90
        2
176
     0
 90
        0
176
     0
 90
        0
176
     0
 40
0.6
176
     0
 40
30.0
176
     0
 62
     7
420
 16777215
176
     0
 90
        1
176
     0
 90
        4
176
     0
 62
     7
176
     0
 62
   257
176
     0
 90
        1
176
     0
 90
        1
176
     0
 40
1.0
176
     0
 90
       10
176
     2
 62
     7
176
     0
 40
1.0
176
     0
 90
        1
176
     0
 90
        6
176
     0
 90
        2
176
     0
 62
     7
176
     0
 90
        5
176
     0
 90
        0
176
     0
 90
        0
176
     0
290
     0
176
     0
 90
        1
176
     0
 40
0.0
176
     0
 90
        0
176
     0
290
     0
176
     0
290
     1
176
     0
290
     1
176
     0
290
     0
176
     0
290
     0
176
     0
290
     0
176
     0
290
     0
176
     0
290
     0
176
     0
290
     0
176
     0
 90
       50
176
     0
 40
0.0
176
     0
 40
1.0
176
     0
 90
        0
176
     0
 62
    18
420
        0
176
     0
 90
       50
176
     0
 90
        3
176
     0
 62
     5
420
      255
176
     0
290
     0
176
     0
 90
       50
176
     0
 90
       50
176
     0
 90
       50
176
     0
290
     0
176
     0
 90
       50
176
     0
 62
   256
176
     0
 40
1.0
176
     0
 90
        2
176
     0
  1
strokes_ogs.tif
176
     0
290
     0
176
     0
 40
1.0
176
     0
 40
1.0
176
     0
  0
VISUALSTYLE
  5
963
102
{ACAD_REACTORS
330
955
102
}
330
955
100
AcDbVisualStyle
  2
Linepattern
 70
    14
177
     3
291
     1
 70
    58
 90
        2
176
     1
 90
        2
176
     1
 90
        0
176
     1
 90
        0
176
     1
 40
0.6
176
     1
 40
30.0
176
     1
 62
     7
420
 16777215
176
     1
 90
        1
176
     1
 90
        4
176
     1
 62
     7
176
     1
 62
   257
176
     1
 90
        7
176
     1
 90
        7
176
     1
 40
1.0
176
     1
 90
        8
176
     1
 62
     7
176
     1
 40
1.0
176
     1
 90
        1
176
     1
 90
        6
176
     1
 90
        2
176
     1
 62
     7
176
     1
 90
        5
176
     1
 90
        0
176
     1
 90
        0
176
     1
290
     0
176
     1
 90
        1
176
     1
 40
0.0
176
     1
 90
        0
176
     1
290
     0
176
     1
290
     1
176
     1
290
     1
176
     1
290
     0
176
     1
290
     0
176
     1
290
     0
176
     1
290
     0
176
     1
290
     0
176
     1
290
     0
176
     1
 90
       50
176
     1
 40
0.0
176
     1
 40
1.0
176
     1
 90
        0
176
     1
 62
    18
420
        0
176
     1
 90
       50
176
     1
 90
        3
176
     1
 62
     5
420
      255
176
     1
290
     0
176
     1
 90
       50
176
     1
 90
       50
176
     1
 90
       50
176
     1
290
     0
176
     1
 90
       50
176
     1
 62
   256
176
     0
 40
1.0
176
     0
 90
        2
176
     1
  1
strokes_ogs.tif
176
     1
290
     0
176
     1
 40
1.0
176
     1
 40
1.0
176
     1
  0
VISUALSTYLE
  5
CCA
102
{ACAD_REACTORS
330
955
102
}
330
955
100
AcDbVisualStyle
  2
OverhangOff
 70
    21
177
     3
291
     1
 70
    58
 90
        2
176
     0
 90
        2
176
     0
 90
        0
176
     0
 90
        0
176
     0
 40
0.6
176
     0
 40
30.0
176
     0
 62
     7
420
 16777215
176
     0
 90
        1
176
     0
 90
        4
176
     0
 62
     7
176
     0
 62
   257
176
     0
 90
        1
176
     0
 90
        1
176
     0
 40
1.0
176
     0
 90
        9
176
     2
 62
     7
176
     0
 40
1.0
176
     0
 90
        1
176
     0
 90
        6
176
     0
 90
        2
176
     0
 62
     7
176
     0
 90
        5
176
     0
 90
        0
176
     0
 90
        0
176
     0
290
     0
176
     0
 90
        1
176
     0
 40
0.0
176
     0
 90
        0
176
     0
290
     0
176
     0
290
     1
176
     0
290
     1
176
     0
290
     0
176
     0
290
     0
176
     0
290
     0
176
     0
290
     0
176
     0
290
     0
176
     0
290
     0
176
     0
 90
       50
176
     0
 40
0.0
176
     0
 40
1.0
176
     0
 90
        0
176
     0
 62
    18
420
        0
176
     0
 90
       50
176
     0
 90
        3
176
     0
 62
     5
420
      255
176
     0
290
     0
176
     0
 90
       50
176
     0
 90
       50
176
     0
 90
       50
176
     0
290
     0
176
     0
 90
       50
176
     0
 62
   256
176
     0
 40
1.0
176
     0
 90
        2
176
     0
  1
strokes_ogs.tif
176
     0
290
     0
176
     0
 40
1.0
176
     0
 40
1.0
176
     0
  0
VISUALSTYLE
  5
95F
102
{ACAD_REACTORS
330
955
102
}
330
955
100
AcDbVisualStyle
  2
Realistic
 70
     8
177
     3
291
     0
 70
    58
 90
        2
176
     1
 90
        2
176
     1
 90
        0
176
     1
 90
        0
176
     1
 40
0.6
176
     1
 40
30.0
176
     1
 62
     7
420
 16777215
176
     1
 90
        1
176
     1
 90
        0
176
     1
 62
     7
176
     1
 62
   257
176
     1
 90
        1
176
     1
 90
        1
176
     1
 40
1.0
176
     1
 90
        8
176
     1
 62
     8
420
  7895160
176
     1
 40
1.0
176
     1
 90
        1
176
     1
 90
        6
176
     1
 90
        2
176
     1
 62
     7
176
     1
 90
        5
176
     1
 90
        0
176
     1
 90
        0
176
     1
290
     0
176
     1
 90
       13
176
     1
 40
0.0
176
     1
 90
        0
176
     1
290
     0
176
     1
290
     1
176
     1
290
     1
176
     1
290
     0
176
     1
290
     0
176
     1
290
     0
176
     1
290
     0
176
     1
290
     0
176
     1
290
     0
176
     1
 90
       50
176
     1
 40
0.0
176
     1
 40
1.0
176
     1
 90
        0
176
     1
 62
    18
420
        0
176
     1
 90
       50
176
     1
 90
        3
176
     1
 62
     5
420
      255
176
     1
290
     0
176
     1
 90
       50
176
     1
 90
       50
176
     1
 90
       50
176
     1
290
     0
176
     1
 90
       50
176
     1
 62
   256
176
     0
 40
1.0
176
     0
 90
        2
176
     1
  1
strokes_ogs.tif
176
     1
290
     0
176
     1
 40
1.0
176
     1
 40
1.0
176
     1
  0
VISUALSTYLE
  5
CC8
102
{ACAD_REACTORS
330
955
102
}
330
955
100
AcDbVisualStyle
  2
Shaded
 70
    27
177
     3
291
     0
 70
    58
 90
        2
176
     1
 90
        2
176
     1
 90
        1
176
     1
 90
        2
176
     1
 40
0.6
176
     1
 40
30.0
176
     1
 62
     7
420
 16777215
176
     1
 90
        0
176
     1
 90
        4
176
     1
 62
     7
176
     1
 62
   257
176
     1
 90
        1
176
     1
 90
        1
176
     1
 40
1.0
176
     1
 90
        8
176
     1
 62
   257
176
     1
 40
1.0
176
     1
 90
        1
176
     1
 90
        6
176
     1
 90
        2
176
     1
 62
     8
420
  7895160
176
     1
 90
        3
176
     1
 90
        0
176
     1
 90
        0
176
     1
290
     0
176
     1
 90
        5
176
     1
 40
0.0
176
     1
 90
        0
176
     1
290
     0
176
     1
290
     1
176
     1
290
     1
176
     1
290
     0
176
     1
290
     0
176
     1
290
     0
176
     1
290
     0
176
     1
290
     0
176
     1
290
     0
176
     1
 90
       50
176
     1
 40
0.0
176
     1
 40
1.0
176
     1
 90
        0
176
     1
 62
    18
420
        0
176
     1
 90
       50
176
     1
 90
        3
176
     1
 62
     5
420
      255
176
     1
290
     0
176
     1
 90
       50
176
     1
 90
       50
176
     1
 90
       50
176
     1
290
     0
176
     1
 90
       50
176
     1
 62
   256
176
     0
 40
1.0
176
     0
 90
        2
176
     1
  1
strokes_ogs.tif
176
     1
290
     0
176
     1
 40
1.0
176
     1
 40
1.0
176
     1
  0
VISUALSTYLE
  5
CC7
102
{ACAD_REACTORS
330
955
102
}
330
955
100
AcDbVisualStyle
  2
Shaded with edges
 70
    26
177
     3
291
     0
 70
    58
 90
        2
176
     1
 90
        2
176
     1
 90
        1
176
     1
 90
        2
176
     1
 40
0.6
176
     1
 40
30.0
176
     1
 62
     7
420
 16777215
176
     1
 90
        1
176
     1
 90
       10
176
     1
 62
     7
176
     1
 62
   257
176
     1
 90
        2
176
     1
 90
        1
176
     1
 40
1.0
176
     1
 90
        8
176
     1
 62
   257
176
     1
 40
1.0
176
     1
 90
        1
176
     1
 90
        6
176
     1
 90
        2
176
     1
 62
     7
176
     1
 90
        3
176
     1
 90
        0
176
     1
 90
        0
176
     1
290
     0
176
     1
 90
        5
176
     1
 40
0.0
176
     1
 90
        0
176
     1
290
     0
176
     1
290
     1
176
     1
290
     1
176
     1
290
     0
176
     1
290
     0
176
     1
290
     0
176
     1
290
     0
176
     1
290
     0
176
     1
290
     0
176
     1
 90
       50
176
     1
 40
0.0
176
     1
 40
1.0
176
     1
 90
        0
176
     1
 62
    18
420
        0
176
     1
 90
       50
176
     1
 90
        3
176
     1
 62
     5
420
      255
176
     1
290
     0
176
     1
 90
       50
176
     1
 90
       50
176
     1
 90
       50
176
     1
290
     0
176
     1
 90
       50
176
     1
 62
   256
176
     0
 40
1.0
176
     0
 90
        2
176
     1
  1
strokes_ogs.tif
176
     1
290
     0
176
     1
 40
1.0
176
     1
 40
1.0
176
     1
  0
VISUALSTYLE
  5
CC4
102
{ACAD_REACTORS
330
955
102
}
330
955
100
AcDbVisualStyle
  2
Shades of Gray
 70
    23
177
     3
291
     0
 70
    58
 90
        2
176
     1
 90
        2
176
     1
 90
        3
176
     1
 90
        0
176
     1
 40
0.6
176
     1
 40
30.0
176
     1
 62
     7
420
 16777215
176
     1
 90
        2
176
     1
 90
        2
176
     1
 62
     7
176
     1
 62
     7
176
     1
 90
        1
176
     1
 90
        1
176
     1
 40
40.0
176
     1
 90
        8
176
     1
 62
     7
176
     1
 40
1.0
176
     1
 90
        1
176
     1
 90
        6
176
     1
 90
        2
176
     1
 62
     7
176
     1
 90
        3
176
     1
 90
        0
176
     1
 90
        0
176
     1
290
     0
176
     1
 90
        1
176
     1
 40
0.0
176
     1
 90
        0
176
     1
290
     0
176
     1
290
     1
176
     1
290
     1
176
     1
290
     0
176
     1
290
     0
176
     1
290
     0
176
     1
290
     0
176
     1
290
     0
176
     1
290
     0
176
     1
 90
       50
176
     1
 40
0.0
176
     1
 40
1.0
176
     1
 90
        0
176
     1
 62
    18
420
        0
176
     1
 90
       50
176
     1
 90
        3
176
     1
 62
     5
420
      255
176
     1
290
     0
176
     1
 90
       50
176
     1
 90
       50
176
     1
 90
       50
176
     1
290
     0
176
     1
 90
       50
176
     1
 62
   256
176
     0
 40
1.0
176
     0
 90
        2
176
     1
  1
strokes_ogs.tif
176
     1
290
     0
176
     1
 40
1.0
176
     1
 40
1.0
176
     1
  0
VISUALSTYLE
  5
CC5
102
{ACAD_REACTORS
330
955
102
}
330
955
100
AcDbVisualStyle
  2
Sketchy
 70
    24
177
     3
291
     0
 70
    58
 90
        1
176
     1
 90
        2
176
     1
 90
        2
176
     1
 90
        0
176
     1
 40
0.6
176
     1
 40
30.0
176
     1
 62
     7
420
 16777215
176
     1
 90
        2
176
     1
 90
        2
176
     1
 62
     7
176
     1
 62
     7
176
     1
 90
        1
176
     1
 90
        1
176
     1
 40
40.0
176
     1
 90
       11
176
     1
 62
     7
176
     1
 40
1.0
176
     1
 90
        1
176
     1
 90
        6
176
     1
 90
        2
176
     1
 62
     7
176
     1
 90
        6
176
     1
 90
        0
176
     1
 90
        0
176
     1
290
     0
176
     1
 90
        1
176
     1
 40
0.0
176
     1
 90
        0
176
     1
290
     0
176
     1
290
     1
176
     1
290
     1
176
     1
290
     0
176
     1
290
     0
176
     1
290
     0
176
     1
290
     0
176
     1
290
     0
176
     1
290
     0
176
     1
 90
       50
176
     1
 40
0.0
176
     1
 40
1.0
176
     1
 90
        0
176
     1
 62
    18
420
        0
176
     1
 90
       50
176
     1
 90
        3
176
     1
 62
     5
420
      255
176
     1
290
     0
176
     1
 90
       50
176
     1
 90
       50
176
     1
 90
       50
176
     1
290
     0
176
     1
 90
       50
176
     1
 62
   256
176
     0
 40
1.0
176
     0
 90
        2
176
     1
  1
strokes_ogs.tif
176
     1
290
     0
176
     1
 40
1.0
176
     1
 40
1.0
176
     1
  0
VISUALSTYLE
  5
962
102
{ACAD_REACTORS
330
955
102
}
330
955
100
AcDbVisualStyle
  2
Thicken
 70
    13
177
     3
291
     1
 70
    58
 90
        2
176
     1
 90
        2
176
     1
 90
        0
176
     1
 90
        0
176
     1
 40
0.6
176
     1
 40
30.0
176
     1
 62
     7
420
 16777215
176
     1
 90
        1
176
     1
 90
        4
176
     1
 62
     7
176
     1
 62
   257
176
     1
 90
        1
176
     1
 90
        1
176
     1
 40
1.0
176
     1
 90
       12
176
     1
 62
     7
176
     1
 40
1.0
176
     1
 90
        1
176
     1
 90
        6
176
     1
 90
        2
176
     1
 62
     7
176
     1
 90
        5
176
     1
 90
        0
176
     1
 90
        0
176
     1
290
     0
176
     1
 90
        1
176
     1
 40
0.0
176
     1
 90
        0
176
     1
290
     0
176
     1
290
     1
176
     1
290
     1
176
     1
290
     0
176
     1
290
     0
176
     1
290
     0
176
     1
290
     0
176
     1
290
     0
176
     1
290
     0
176
     1
 90
       50
176
     1
 40
0.0
176
     1
 40
1.0
176
     1
 90
        0
176
     1
 62
    18
420
        0
176
     1
 90
       50
176
     1
 90
        3
176
     1
 62
     5
420
      255
176
     1
290
     0
176
     1
 90
       50
176
     1
 90
       50
176
     1
 90
       50
176
     1
290
     0
176
     1
 90
       50
176
     1
 62
   256
176
     0
 40
1.0
176
     0
 90
        2
176
     1
  1
strokes_ogs.tif
176
     1
290
     0
176
     1
 40
1.0
176
     1
 40
1.0
176
     1
  0
VISUALSTYLE
  5
CC2
102
{ACAD_REACTORS
330
955
102
}
330
955
100
AcDbVisualStyle
  2
Wireframe
 70
     5
177
     3
291
     0
 70
    58
 90
        0
176
     1
 90
        2
176
     1
 90
        0
176
     1
 90
        0
176
     1
 40
0.6
176
     1
 40
30.0
176
     1
 62
     7
420
 16777215
176
     1
 90
        1
176
     1
 90
        4
176
     1
 62
     7
176
     1
 62
   257
176
     1
 90
        1
176
     1
 90
        1
176
     1
 40
1.0
176
     1
 90
        0
176
     1
 62
   257
176
     1
 40
1.0
176
     1
 90
        1
176
     1
 90
        6
176
     1
 90
        2
176
     1
 62
     7
176
     1
 90
        3
176
     1
 90
        0
176
     1
 90
        0
176
     1
290
     0
176
     1
 90
        1
176
     1
 40
0.0
176
     1
 90
        0
176
     1
290
     0
176
     1
290
     1
176
     1
290
     1
176
     1
290
     0
176
     1
290
     0
176
     1
290
     0
176
     1
290
     0
176
     1
290
     0
176
     1
290
     0
176
     1
 90
       50
176
     1
 40
0.0
176
     1
 40
1.0
176
     1
 90
        0
176
     1
 62
    18
420
        0
176
     1
 90
       50
176
     1
 90
        3
176
     1
 62
     5
420
      255
176
     1
290
     0
176
     1
 90
       50
176
     1
 90
       50
176
     1
 90
       50
176
     1
290
     0
176
     1
 90
       50
176
     1
 62
   256
176
     0
 40
1.0
176
     0
 90
        2
176
     1
  1
strokes_ogs.tif
176
     1
290
     0
176
     1
 40
1.0
176
     1
 40
1.0
176
     1
  0
VISUALSTYLE
  5
CC6
102
{ACAD_REACTORS
330
955
102
}
330
955
100
AcDbVisualStyle
  2
X-Ray
 70
    25
177
     3
291
     0
 70
    58
 90
        2
176
     1
 90
        2
176
     1
 90
        1
176
     1
 90
        1
176
     1
 40
0.5
176
     1
 40
30.0
176
     1
 62
     7
420
 16777215
176
     1
 90
        1
176
     1
 90
        0
176
     1
 62
     7
176
     1
 62
   257
176
     1
 90
        1
176
     1
 90
        1
176
     1
 40
1.0
176
     1
 90
        8
176
     1
 62
     7
176
     1
 40
1.0
176
     1
 90
        1
176
     1
 90
        6
176
     1
 90
        2
176
     1
 62
     7
176
     1
 90
        3
176
     1
 90
        0
176
     1
 90
        0
176
     1
290
     0
176
     1
 90
       13
176
     1
 40
0.0
176
     1
 90
        0
176
     1
290
     0
176
     1
290
     1
176
     1
290
     1
176
     1
290
     0
176
     1
290
     0
176
     1
290
     0
176
     1
290
     0
176
     1
290
     0
176
     1
290
     0
176
     1
 90
       50
176
     1
 40
0.0
176
     1
 40
1.0
176
     1
 90
        0
176
     1
 62
    18
420
        0
176
     1
 90
       50
176
     1
 90
        3
176
     1
 62
     5
420
      255
176
     1
290
     0
176
     1
 90
       50
176
     1
 90
       50
176
     1
 90
       50
176
     1
290
     0
176
     1
 90
       50
176
     1
 62
   256
176
     0
 40
1.0
176
     0
 90
        2
176
     1
  1
strokes_ogs.tif
176
     1
290
     0
176
     1
 40
1.0
176
     1
 40
1.0
176
     1
  0
DICTIONARYVAR
  5
B28
102
{ACAD_REACTORS
330
66
102
}
330
66
100
DictionaryVariables
280
     0
  1
1:1
  0
DICTIONARYVAR
  5
B26
102
{ACAD_REACTORS
330
66
102
}
330
66
100
DictionaryVariables
280
     0
  1
STANDARD
  0
DICTIONARYVAR
  5
B25
102
{ACAD_REACTORS
330
66
102
}
330
66
100
DictionaryVariables
280
     0
  1
STANDARD
  0
DICTIONARYVAR
  5
D03
102
{ACAD_REACTORS
330
66
102
}
330
66
100
DictionaryVariables
280
     0
  1
Imperial24
  0
DICTIONARYVAR
  5
D04
102
{ACAD_REACTORS
330
66
102
}
330
66
100
DictionaryVariables
280
     0
  1
Imperial24
  0
DICTIONARYVAR
  5
67
102
{ACAD_REACTORS
330
66
102
}
330
66
100
DictionaryVariables
280
     0
  1
2
  0
DICTIONARYVAR
  5
6B
102
{ACAD_REACTORS
330
66
102
}
330
66
100
DictionaryVariables
280
     0
  1
1
  0
DICTIONARYVAR
  5
D05
102
{ACAD_REACTORS
330
66
102
}
330
66
100
DictionaryVariables
280
     0
  1
1
  0
DICTIONARYVAR
  5
D06
102
{ACAD_REACTORS
330
66
102
}
330
66
100
DictionaryVariables
280
     0
  1
15
  0
DICTIONARYVAR
  5
B29
102
{ACAD_REACTORS
330
66
102
}
330
66
100
DictionaryVariables
280
     0
  1
0
  0
DICTIONARYVAR
  5
B27
102
{ACAD_REACTORS
330
66
102
}
330
66
100
DictionaryVariables
280
     0
  1
0
  0
DICTIONARY
  5
D0B
330
CCF
100
AcDbDictionary
280
     1
281
     1
  3
ACAD_XREC_ROUNDTRIP
360
D0C
  0
DICTIONARY
  5
A91
330
59
100
AcDbDictionary
280
     1
281
     1
  0
DICTIONARY
  5
A9B
330
5E
100
AcDbDictionary
280
     1
281
     1
  0
DICTIONARY
  5
B17
330
AB1
100
AcDbDictionary
280
     1
281
     1
  0
DICTIONARY
  5
946
330
945
100
AcDbDictionary
280
     1
281
     1
  3
BUMPTILE
360
948
  3
DIFFUSETILE
360
947
  3
OPACITYTILE
360
94B
  3
REFLECTIONTILE
360
94A
  3
REFRACTIONTILE
360
94C
  3
SPECULARTILE
360
949
  0
DICTIONARY
  5
93E
330
93D
100
AcDbDictionary
280
     1
281
     1
  3
BUMPTILE
360
940
  3
DIFFUSETILE
360
93F
  3
OPACITYTILE
360
943
  3
REFLECTIONTILE
360
942
  3
REFRACTIONTILE
360
944
  3
SPECULARTILE
360
941
  0
DICTIONARY
  5
94E
330
94D
100
AcDbDictionary
280
     1
281
     1
  3
BUMPTILE
360
950
  3
DIFFUSETILE
360
94F
  3
OPACITYTILE
360
953
  3
REFLECTIONTILE
360
952
  3
REFRACTIONTILE
360
954
  3
SPECULARTILE
360
951
  0
DICTIONARY
  5
D09
330
CCD
100
AcDbDictionary
280
     1
281
     1
  3
ACAD_XREC_ROUNDTRIP
360
D0A
  0
DICTIONARY
  5
B22
330
967
100
AcDbDictionary
280
     1
281
     1
  3
ACAD_ROUNDTRIP_2008_TABLESTYLE_CELLSTYLEMAP
360
D08
  0
XRECORD
  5
D0C
102
{ACAD_REACTORS
330
D0B
102
}
330
D0B
100
AcDbXrecord
280
     1
102
DISPLAYNAME
  1
Imperial24
102
FLAGS
 90
        0
  0
XRECORD
  5
948
102
{ACAD_REACTORS
330
946
102
}
330
946
100
AcDbXrecord
280
     1
270
     1
271
     1
  0
XRECORD
  5
947
102
{ACAD_REACTORS
330
946
102
}
330
946
100
AcDbXrecord
280
     1
270
     1
271
     1
  0
XRECORD
  5
94B
102
{ACAD_REACTORS
330
946
102
}
330
946
100
AcDbXrecord
280
     1
270
     1
271
     1
  0
XRECORD
  5
94A
102
{ACAD_REACTORS
330
946
102
}
330
946
100
AcDbXrecord
280
     1
270
     1
271
     1
  0
XRECORD
  5
94C
102
{ACAD_REACTORS
330
946
102
}
330
946
100
AcDbXrecord
280
     1
270
     1
271
     1
  0
XRECORD
  5
949
102
{ACAD_REACTORS
330
946
102
}
330
946
100
AcDbXrecord
280
     1
270
     1
271
     1
  0
XRECORD
  5
940
102
{ACAD_REACTORS
330
93E
102
}
330
93E
100
AcDbXrecord
280
     1
270
     1
271
     1
  0
XRECORD
  5
93F
102
{ACAD_REACTORS
330
93E
102
}
330
93E
100
AcDbXrecord
280
     1
270
     1
271
     1
  0
XRECORD
  5
943
102
{ACAD_REACTORS
330
93E
102
}
330
93E
100
AcDbXrecord
280
     1
270
     1
271
     1
  0
XRECORD
  5
942
102
{ACAD_REACTORS
330
93E
102
}
330
93E
100
AcDbXrecord
280
     1
270
     1
271
     1
  0
XRECORD
  5
944
102
{ACAD_REACTORS
330
93E
102
}
330
93E
100
AcDbXrecord
280
     1
270
     1
271
     1
  0
XRECORD
  5
941
102
{ACAD_REACTORS
330
93E
102
}
330
93E
100
AcDbXrecord
280
     1
270
     1
271
     1
  0
XRECORD
  5
950
102
{ACAD_REACTORS
330
94E
102
}
330
94E
100
AcDbXrecord
280
     1
270
     1
271
     1
  0
XRECORD
  5
94F
102
{ACAD_REACTORS
330
94E
102
}
330
94E
100
AcDbXrecord
280
     1
270
     1
271
     1
  0
XRECORD
  5
953
102
{ACAD_REACTORS
330
94E
102
}
330
94E
100
AcDbXrecord
280
     1
270
     1
271
     1
  0
XRECORD
  5
952
102
{ACAD_REACTORS
330
94E
102
}
330
94E
100
AcDbXrecord
280
     1
270
     1
271
     1
  0
XRECORD
  5
954
102
{ACAD_REACTORS
330
94E
102
}
330
94E
100
AcDbXrecord
280
     1
270
     1
271
     1
  0
XRECORD
  5
951
102
{ACAD_REACTORS
330
94E
102
}
330
94E
100
AcDbXrecord
280
     1
270
     1
271
     1
  0
XRECORD
  5
D0A
102
{ACAD_REACTORS
330
D09
102
}
330
D09
100
AcDbXrecord
280
     1
102
DISPLAYNAME
  1
Imperial24
102
FLAGS
 90
        0
  0
CELLSTYLEMAP
  5
D08
102
{ACAD_REACTORS
330
B22
102
}
330
B22
100
AcDbCellStyleMap
 90
        3
300
CELLSTYLE
  1
TABLEFORMAT_BEGIN
 90
        5
170
     1
 91
        0
 92
    32768
 62
   257
 93
        1
300
CONTENTFORMAT
  1
CONTENTFORMAT_BEGIN
 90
        0
 91
        0
 92
      512
 93
        0
300

 40
0.0
140
1.0
 94
        5
 62
     0
340
11
144
0.25
309
CONTENTFORMAT_END
171
     0
 94
        0
309
TABLEFORMAT_END
  1
CELLSTYLE_BEGIN
 90
        1
 91
        1
300
_TITLE
309
CELLSTYLE_END
300
CELLSTYLE
  1
TABLEFORMAT_BEGIN
 90
        5
170
     1
 91
        0
 92
        0
 62
   257
 93
        1
300
CONTENTFORMAT
  1
CONTENTFORMAT_BEGIN
 90
        0
 91
        0
 92
      512
 93
        0
300

 40
0.0
140
1.0
 94
        5
 62
     0
340
11
144
0.18
309
CONTENTFORMAT_END
171
     0
 94
        0
309
TABLEFORMAT_END
  1
CELLSTYLE_BEGIN
 90
        2
 91
        1
300
_HEADER
309
CELLSTYLE_END
300
CELLSTYLE
  1
TABLEFORMAT_BEGIN
 90
        5
170
     1
 91
        0
 92
        0
 62
   257
 93
        1
300
CONTENTFORMAT
  1
CONTENTFORMAT_BEGIN
 90
        0
 91
        0
 92
      512
 93
        0
300

 40
0.0
140
1.0
 94
        2
 62
     0
340
11
144
0.18
309
CONTENTFORMAT_END
171
     0
 94
        0
309
TABLEFORMAT_END
  1
CELLSTYLE_BEGIN
 90
        3
 91
        2
300
_DATA
309
CELLSTYLE_END
  0
ENDSEC
  0
SECTION
  2
ACDSDATA
 70
     2
 71
     6
  0
ACDSSCHEMA
 90
        0
  1
AcDb_Thumbnail_Schema
  2
AcDbDs::ID
280
    10
 91
        8
  2
Thumbnail_Data
280
    15
 91
        0
101
ACDSRECORD
 95
        0
 90
        1
  2
AcDbDs::TreatedAsObjectData
280
     1
291
     1
101
ACDSRECORD
 95
        0
 90
        2
  2
AcDbDs::Legacy
280
     1
291
     1
101
ACDSRECORD
  1
AcDbDs::ID
 90
        3
  2
AcDs:Indexable
280
     1
291
     1
101
ACDSRECORD
  1
AcDbDs::ID
 90
        4
  2
AcDbDs::HandleAttribute
280
     7
282
     1
  0
ACDSSCHEMA
 90
        1
  1
AcDbDs::TreatedAsObjectDataSchema
  2
AcDbDs::TreatedAsObjectData
280
     1
 91
        0
  0
ACDSSCHEMA
 90
        2
  1
AcDbDs::LegacySchema
  2
AcDbDs::Legacy
280
     1
 91
        0
  0
ACDSSCHEMA
 90
        3
  1
AcDbDs::IndexedPropertySchema
  2
AcDs:Indexable
280
     1
 91
        0
  0
ACDSSCHEMA
 90
        4
  1
AcDbDs::HandleAttributeSchema
  2
AcDbDs::HandleAttribute
280
     7
 91
        1
284
     1
  0
ACDSRECORD
 90
        0
  2
AcDbDs::ID
280
    10
320
59
  2
Thumbnail_Data
280
    15
 94
     1197
310
89504E470D0A1A0A0000000D49484452000000B40000008B0803000000FF3F437800000300504C5445FFFFFF000000FFFFFF0000000000000000000000000000000000000000000000000000330000660000990000CC0000FF0033000033330033660033990033CC0033FF0066000066330066660066990066CC0066FF0099
310
000099330099660099990099CC0099FF00CC0000CC3300CC6600CC9900CCCC00CCFF00FF0000FF3300FF6600FF9900FFCC00FFFF3300003300333300663300993300CC3300FF3333003333333333663333993333CC3333FF3366003366333366663366993366CC3366FF3399003399333399663399993399CC3399FF33CC00
310
33CC3333CC6633CC9933CCCC33CCFF33FF0033FF3333FF6633FF9933FFCC33FFFF6600006600336600666600996600CC6600FF6633006633336633666633996633CC6633FF6666006666336666666666996666CC6666FF6699006699336699666699996699CC6699FF66CC0066CC3366CC6666CC9966CCCC66CCFF66FF0066
310
FF3366FF6666FF9966FFCC66FFFF9900009900339900669900999900CC9900FF9933009933339933669933999933CC9933FF9966009966339966669966999966CC9966FF9999009999339999669999999999CC9999FF99CC0099CC3399CC6699CC9999CCCC99CCFF99FF0099FF3399FF6699FF9999FFCC99FFFFCC0000CC00
310
33CC0066CC0099CC00CCCC00FFCC3300CC3333CC3366CC3399CC33CCCC33FFCC6600CC6633CC6666CC6699CC66CCCC66FFCC9900CC9933CC9966CC9999CC99CCCC99FFCCCC00CCCC33CCCC66CCCC99CCCCCCCCCCFFCCFF00CCFF33CCFF66CCFF99CCFFCCCCFFFFFF0000FF0033FF0066FF0099FF00CCFF00FFFF3300FF3333
310
FF3366FF3399FF33CCFF33FFFF6600FF6633FF6666FF6699FF66CCFF66FFFF9900FF9933FF9966FF9999FF99CCFF99FFFFCC00FFCC33FFCC66FFCC99FFCCCCFFCCFFFFFF00FFFF33FFFF66FFFF99FFFFCCFFFFFF0000000D0D0D1A1A1A2828283535354343435050505D5D5D6B6B6B787878868686939393A1A1A1AEAEAEBB
310
BBBBC9C9C9D6D6D6E4E4E4F1F1F1FFFFFF000000000000000000000000000000000000000000000000000000000000790CAC0F000001684944415478DAEDDDD18E8230108561DFFF31CF0B7835F79B5D2442A4A52608E7B87F6F34D4848FC9A4ED948037C5B5FBFDA60A6BA04F436B42CFD9B2E858B5D6711D7D7CF7C44B74
310
4C944183060DFA7FA2236744D0A04183066D5EB9308D83060D1A7400DA78A3B4833E3964E37D01E88A414B41684D5F55296805467AED5447EB841E3EA30F7AB5D3DF8FF826BAAE1F3DC6476E27746B287C4D7E37F44BC248F6917EDCBE5AFE4C71E92163B4DABDAEE9A1772FD12E3DCCD12301560FEDB19ED6E658125304A8
310
F1E98B564EE5D2BD0CBFCA25B8464CAAC6555F12695F74E20E5325461A3468D0A02F43570ABA4083060DFACBD0F3530AD38ECEEF623A012D3D6F6FB437D5E587D626DA771AFFCB0BD59C1D2ACA2DD0A04183060D1A3468D0D6686A44D0A04183067D389A691C3468D0A04183067D013AF1C9CF80061AF4203AAA81060D1AF4
310
67D0472D1940EFCD887668813642B3CA030DFA4C74E29BBE5930816EA103FF92E10744CEEDF134973A3C0000000049454E44AE426082
  0
ACDSRECORD
 90
        0
  2
AcDbDs::ID
280
    10
320
5E
  2
Thumbnail_Data
280
    15
 94
     1073
310
89504E470D0A1A0A0000000D49484452000000B40000008A0803000000346390DD00000300504C5445FFFFFF000000FFFFFF0000000000000000000000000000000000000000000000000000330000660000990000CC0000FF0033000033330033660033990033CC0033FF0066000066330066660066990066CC0066FF0099
310
000099330099660099990099CC0099FF00CC0000CC3300CC6600CC9900CCCC00CCFF00FF0000FF3300FF6600FF9900FFCC00FFFF3300003300333300663300993300CC3300FF3333003333333333663333993333CC3333FF3366003366333366663366993366CC3366FF3399003399333399663399993399CC3399FF33CC00
310
33CC3333CC6633CC9933CCCC33CCFF33FF0033FF3333FF6633FF9933FFCC33FFFF6600006600336600666600996600CC6600FF6633006633336633666633996633CC6633FF6666006666336666666666996666CC6666FF6699006699336699666699996699CC6699FF66CC0066CC3366CC6666CC9966CCCC66CCFF66FF0066
310
FF3366FF6666FF9966FFCC66FFFF9900009900339900669900999900CC9900FF9933009933339933669933999933CC9933FF9966009966339966669966999966CC9966FF9999009999339999669999999999CC9999FF99CC0099CC3399CC6699CC9999CCCC99CCFF99FF0099FF3399FF6699FF9999FFCC99FFFFCC0000CC00
310
33CC0066CC0099CC00CCCC00FFCC3300CC3333CC3366CC3399CC33CCCC33FFCC6600CC6633CC6666CC6699CC66CCCC66FFCC9900CC9933CC9966CC9999CC99CCCC99FFCCCC00CCCC33CCCC66CCCC99CCCCCCCCCCFFCCFF00CCFF33CCFF66CCFF99CCFFCCCCFFFFFF0000FF0033FF0066FF0099FF00CCFF00FFFF3300FF3333
310
FF3366FF3399FF33CCFF33FFFF6600FF6633FF6666FF6699FF66CCFF66FFFF9900FF9933FF9966FF9999FF99CCFF99FFFFCC00FFCC33FFCC66FFCC99FFCCCCFFCCFFFFFF00FFFF33FFFF66FFFF99FFFFCCFFFFFF0000000D0D0D1A1A1A2828283535354343435050505D5D5D6B6B6B787878868686939393A1A1A1AEAEAEBB
310
BBBBC9C9C9D6D6D6E4E4E4F1F1F1FFFFFF000000000000000000000000000000000000000000000000000000000000790CAC0F000000EC4944415478DAEDDC410E8320100040FFFFCCFD8027EE6D4D9AD843538552D83A7B4483135C65E1C012C962BDC712255540FF0CFD48900DFDCC97FDA57D7C6A8FB6F6C38F7D452719
310
65686868E8ABA253CE88D0D027D0B314FCE7D05FFAD4DBFA1A878EFAAE078E74FDCD23D0BD733A3AA03BBCAC8086868686868686EE593141435F0A5D72FC3D0A343434347422B4D2141A1A1A1A1A1A1A1A1ABA1E6DE5020D0D0D0D0DADF6808686868686868686866E435BB94043434343DBAC81868686868686868686866E
310
435B6E41FF3D3AE39146130734F421B49309A1A1A1A12747673C34DB340EFD0E9D2ED6F506EE583B5A534F417A0000000049454E44AE426082
  0
ACDSRECORD
 90
        0
  2
AcDbDs::ID
280
    10
320
AB1
  2
Thumbnail_Data
280
    15
 94
     2410
310
89504E470D0A1A0A0000000D49484452000000C500000100080300000034B4427100000300504C5445FFFFFF000000C8C8C80000000000000000000000000000000000000000000000000000330000660000990000CC0000FF0033000033330033660033990033CC0033FF0066000066330066660066990066CC0066FF0099
310
000099330099660099990099CC0099FF00CC0000CC3300CC6600CC9900CCCC00CCFF00FF0000FF3300FF6600FF9900FFCC00FFFF3300003300333300663300993300CC3300FF3333003333333333663333993333CC3333FF3366003366333366663366993366CC3366FF3399003399333399663399993399CC3399FF33CC00
310
33CC3333CC6633CC9933CCCC33CCFF33FF0033FF3333FF6633FF9933FFCC33FFFF6600006600336600666600996600CC6600FF6633006633336633666633996633CC6633FF6666006666336666666666996666CC6666FF6699006699336699666699996699CC6699FF66CC0066CC3366CC6666CC9966CCCC66CCFF66FF0066
310
FF3366FF6666FF9966FFCC66FFFF9900009900339900669900999900CC9900FF9933009933339933669933999933CC9933FF9966009966339966669966999966CC9966FF9999009999339999669999999999CC9999FF99CC0099CC3399CC6699CC9999CCCC99CCFF99FF0099FF3399FF6699FF9999FFCC99FFFFCC0000CC00
310
33CC0066CC0099CC00CCCC00FFCC3300CC3333CC3366CC3399CC33CCCC33FFCC6600CC6633CC6666CC6699CC66CCCC66FFCC9900CC9933CC9966CC9999CC99CCCC99FFCCCC00CCCC33CCCC66CCCC99CCCCCCCCCCFFCCFF00CCFF33CCFF66CCFF99CCFFCCCCFFFFFF0000FF0033FF0066FF0099FF00CCFF00FFFF3300FF3333
310
FF3366FF3399FF33CCFF33FFFF6600FF6633FF6666FF6699FF66CCFF66FFFF9900FF9933FF9966FF9999FF99CCFF99FFFFCC00FFCC33FFCC66FFCC99FFCCCCFFCCFFFFFF00FFFF33FFFF66FFFF99FFFFCCFFFFFF0000000D0D0D1A1A1A2828283535354343435050505D5D5D6B6B6B787878868686939393A1A1A1AEAEAEBB
310
BBBBC9C9C9D6D6D6E4E4E4F1F1F1FFFFFF000000000000000000000000000000000000000000000000000000000000B0E2D235000006254944415478DAED9D5976E3201045D9FF32EF4AFA9C74120B5450556830729EBF92587274819A1E830B9FF02A944F78894214A2E851BCACFDF546EB07BAEF1078E7B29B2A8A870F25
310
51884214A2589F42B15B14A210852844F187AA246520A210852844210A51884214A21085284EA250AD270A51884214A2885028768B4214A210852844218AA529F80C0A44B1CE88E233EC824529CA53297A2EC7D9E9F0758377CD1A152B5D73AEAC8265BC309E1FAA7E766C7B318AF6175E180C98D7A5A0EE8FED8FDFB60E6F
310
4F64FCBE28CD6E82C1E32E4B411BAD195CBEB25DEC4C81DEDD6FA6C0B1EEBD35B3B512DE468143412C425616BF1E453CA5657D0AEC8CD60EDBCFE98BB5EAC0498AE135EB531078F84529C895AA4B52102B5B5995C276443CB12F7E625AFC39D7B40BC24E9767C58B5E46B5AE5DA483C6932858355E7829DF3EC95DC4D3C62B
310
D6C2A8507A88066236FA23283C19935532F3B87AF01D37702C89278C283A352CE32A77350A1C37C71B2768080A237D8881E4B35A5F104A3616D6A3B6FE870756498378DDC96C1FA2E48CAD7EB56C309CE0B13045EE79587E4405BA80F24C0AEA6276E1BE60E88356C9691D0A70FE62E12DDA17DD60F094BE68AFDA4D52F000
310
8A58EEC701FF7C3B05C14F5C5A6D26A46BC2F3A25E03C00A76111E41A359BD6728392BCEC25C5133AC4AC1F10F7B27052535FFF21CBBE88D384AC8235F2991E429E86A0BDE6ABCC9A3A5AFA0F89F79A4BD98BFF4F3568A91A6F3668AD07CB7ABA4BBD1F23D79546DB9FE3CD9E6EABA2169FE7CDA62E2F07CF7F6C9C2628875
310
ACF29B281CEF44A788DD3DDA1EEE468AA09C43AB81DCB9703BA6D3464A8BFD81DC750B5F19D1537577E9D6DCECFFDC505C9A96244614832BC1B8F0BE2F7598D6CCB1FA6CEB69B9C926A214593D9C43D5C9B5238A73282EC93F0EAACD9D076DA2388773DAEBE345A7C0302D64361BBC92023769BDC94066288C7ABCFE18CCDC
310
701B1E8F25201CA660B49DC4A1A0DC4111487C22556C458191E99F4E11AAF58882EC292E318A398AE04A9B1BBFA52A4FD1DE873FB0AC7FE75953A6B3CF510F8C6D2FDBF4D5FCA29DDC98B1B3604EA530C2594551EA228F5876E38B2B6D3D16A220ACE4D5A5C45726DE7CB3912D28CE8927590ABFEEB4F759D1B440603D61C2
310
9BA5294AD4AD6E2BA25D89475499F04259C42E62EBA3069EACA6D84A417B7735678AB65DA432901156A72F36290B8D2291944802FBE2BDFD17415B30A253604D67B3F532F0FF73140C04A8FEA7BD4C25D6C850C6BB7DDDC73AB5BED8343E8E29E2DAE73E6472604465B48CDF66C59AFD9EDE96D5965B07AD1BC6AB57602732
310
CFE7DAFDC834D717B8495CBD9D8C624F6D267DEB85B59E939EB25900CD20701E3A326196229C1E50657FB4712EBC3E7AF8F49314FDD5E5D68E058BA2F1BE7DCF49BCE927E24522D6FE661CDBC9A37002853304386744B5CD6B3F472F66FBE771F8FEEAB0750F6666EA6D2484AA07F65320EE9911DE4696437B203753A96C61
310
22F710B565D27BE7DDF33D7A63EA3B80C7F4F5A4AF227D58925B71D11B6CB65D10F7A55DFB18CA39D15A0FB7032B1FC5281B1AFA2B98E893C89945C3B18641E12A39447D0731C62E853F0C0D15E6FBB02FAFEF776FF9473B31DC337F8EDABC6DC8A670253030F6CA4FC24D5D40518AD11721496A6FCC31D570DA47F53D33AE
310
37F187EF8F306761CDA9CD25B7EF9EC4F2A998BFA4EE88AC1E9538B8CECA5F879D317FC44E36A7255CCD1807E00587547E91483A1B0C66D458E95ABB3EEA84B9242632F3510A8113BBAD5C77C271704A5F740B8E489D43CAAAA385FE418A4D1B33725CB343876A653167EBB4D87718D37D58A54F781445F7FC9EAB70EEB403
310
4A689167B091BB2AF7296AF3B64D0C35EA5520314A2839E4A966FB82519157853C069314C6AE52EEA4E8760F5666EEE4B0A9E738182F9C683DD206D9959FB9498AB16C3741915ECA61C78B66A5CEAFBC3E11E68ECE5F44532A5CC1A4930B12D95293CC40567D65F4A8655FC9E904518842148F7F89421457507CE6F7253D24
310
FF1085286EA5F80CEBBEF0DF9EDB19A2F8F3149F6117A21085284491A750AD270A51884214A2F8BB7A942844210A51884214A210852844218A7750A8D613852844210A51FC1D0A6520A2108528447139857108687769527FD512F7DFA4D82D0A517C38C527BCFE0116471B9ACFD1B2810000000049454E44AE426082
  0
ACDSRECORD
 90
        0
  2
AcDbDs::ID
280
    10
320
22
  2
Thumbnail_Data
280
    15
 94
     2345
310
89504E470D0A1A0A0000000D494844520000010000000085080300000083A6D68B00000300504C5445212830000000C8C8C80000000000000000000000000000000000000000000000000000330000660000990000CC0000FF0033000033330033660033990033CC0033FF0066000066330066660066990066CC0066FF0099
310
000099330099660099990099CC0099FF00CC0000CC3300CC6600CC9900CCCC00CCFF00FF0000FF3300FF6600FF9900FFCC00FFFF3300003300333300663300993300CC3300FF3333003333333333663333993333CC3333FF3366003366333366663366993366CC3366FF3399003399333399663399993399CC3399FF33CC00
310
33CC3333CC6633CC9933CCCC33CCFF33FF0033FF3333FF6633FF9933FFCC33FFFF6600006600336600666600996600CC6600FF6633006633336633666633996633CC6633FF6666006666336666666666996666CC6666FF6699006699336699666699996699CC6699FF66CC0066CC3366CC6666CC9966CCCC66CCFF66FF0066
310
FF3366FF6666FF9966FFCC66FFFF9900009900339900669900999900CC9900FF9933009933339933669933999933CC9933FF9966009966339966669966999966CC9966FF9999009999339999669999999999CC9999FF99CC0099CC3399CC6699CC9999CCCC99CCFF99FF0099FF3399FF6699FF9999FFCC99FFFFCC0000CC00
310
33CC0066CC0099CC00CCCC00FFCC3300CC3333CC3366CC3399CC33CCCC33FFCC6600CC6633CC6666CC6699CC66CCCC66FFCC9900CC9933CC9966CC9999CC99CCCC99FFCCCC00CCCC33CCCC66CCCC99CCCCCCCCCCFFCCFF00CCFF33CCFF66CCFF99CCFFCCCCFFFFFF0000FF0033FF0066FF0099FF00CCFF00FFFF3300FF3333
310
FF3366FF3399FF33CCFF33FFFF6600FF6633FF6666FF6699FF66CCFF66FFFF9900FF9933FF9966FF9999FF99CCFF99FFFFCC00FFCC33FFCC66FFCC99FFCCCCFFCCFFFFFF00FFFF33FFFF66FFFF99FFFFCCFFFFFF0000000D0D0D1A1A1A2828283535354343435050505D5D5D6B6B6B787878868686939393A1A1A1AEAEAEBB
310
BBBBC9C9C9D6D6D6E4E4E4F1F1F1FFFFFF000000000000000000000000000000000000000000000000000000000000B21171F6000005E44944415478DAED9DEB76A33A0C85F5FEEFFBFD3F7356832D1BDF2F6003599D4E9BA424DADE92B62541449071B791C75AE4C6DB01A8B397D72EFD4B19F00A00F80078130004EEE1DD
310
0C5000F04600F8772B7CE2CBB3C0FF00F062007EB6F3DEF57F970BF04A25C8A0E73C8BF86FDE0CFDC5FD6702402301BE7A004F5FF42F087E007C007C007C007C007C007C003C1D003E06349A3F000028AE43DE490F663180BD3C64F876F876FB3BC9370E80BF22337F5E85BA1DCFC27ED9C77EFFCC6F66D3AEBEFFFD74FCD9
310
C9FC7B01C08D27E69B79CFC6F8DFAFF64E44DCE75A7C1462E87B8304A6CB168639805E37B37641007E9529C3007BCF71FFEF7F3918150540D578B88301F8190545F67606483103FCBBB81600FFB5B5697A1DED6F8EB96679EDA3D648C3257C6E2DA4046FCD00DC7F9847A8485E6E7F54201E09D87C65FF129DD2EDC3B892D9
310
4A04A5C309F72C6E04C006B02800A434B7513B228E163A029C153626E07129A74803401B001C81FC608FCE7BCA42443D2CE92437DDF95A0140720C080080681634030017B8801172EA8DE6D6DF8B01C6D1F5F6400B7F4FE795EFA9EF1F966E6A4532EABD9402C53400D64F80847022ABE64B4B3BBBD44028200E2D14DCC27E
310
A752109F886B00601B0508B1CA411A0023CA8EA28CEB517B2A605572C803A0248D9C06EA58C5C18B99493829250130897B5500E640C9C95BCE00B023FBDB003086AB5AD786F6E7CAC6912018DBE96C57CCC896CDABD2206BBB702CF63D1A801941F00DF6D302C0333BE9E5003C7492A01800522A73F1F980110014445BBF3B
310
2CB63B6C2B5FC9EEB0EE22D9D2922A30450AD43D04ED0640F566557758B5F6BC3660A237E874CF9C3EB13AEE68AEE9E311B7374F00AF83075ECBB3A03BACBB8AAA4F6C9FD60C00BD0014D8EF7687FB1820731840330025F67BF62A2A88333690EA0EFBDB4EEBFB0E7E9733809603EFB457341D2AA776F26800BC8E65E036CA
310
FEEB3402FD0C9020038AED474E3D618DA86D36051230B74D2C46968706FB7F914AF784BD6EB98D78E284B7CADE701DA72878DB4979537564AF25EA02A0D2DD91D35492AB59C081732DED00040BCC29009CBC2F6AE9A59A013DF0D401501300950BF800784D63A56A6C0FBA82D72327BBD200B424006D09D99D2263ACAA097A
310
94033040002CB755AE018049247C00003B4BE0F218F0D02D4031004FDC013CE336A322842AE9C4C5662A3752E0398B6C7F4241D1394925A3B61927D33B2D1B05C0C9F8A4D8EC6C1F319200141E9EB40B38D4974C4395CBC356F4756BAB63E10170D40656F48F2B00902C1394C743F4C102009C2261825B5CE69BD521854C9C
310
4F01E07901D979A3A9418EB1AF886400F0623F89CB2DEDA8805027258406C04D4D425529A823C016A71F93CB023601C401604DDB06045AC70B285A69E6C7821EAFA70A8093146689B5A46351A98C116A2614D263D5F5E3F4179085CC561EA7F16CCF6111671CD2C98931CEEF300A12BC6AA252F8883EA93F288553EBBF432E
310
8C9C656FFBCC0E00E27A81244E925BAEC65B0E08CE298B2E00BA0448E04C93869E7C8BA7309711A8D9133DCC1194C27EF8880F8C50BE55BD3147A4C69F0315110610A0F4FADE7D95AC314288901E98F15A030118C7B0A34127F118C8588BDDA19CB6ED6E6333B9BEEC3AFE2409D7A1681D6AE8B8407035BF67DA4FF359B0ED
310
D5D7FC8588683A9BB258B5D286DBA8750AF406496998DB040D93926A1400B91B00FA936A25001400F0ECCF60C903C0DD8B3F6BAF88A7032269F0890D72820C7086DCB9C04AE61F8DA803C45CE054076125C71DC6FF7200D8D8D153C5110A01D8C8CDA9455B55FDA2002C7E91B1AE6159DC2C103EE6E51F4275D9CB79F6374A
310
E0BD07C5901C038ABB80EC0E4918003A3772F781C14400621791A89D62E06A3B93C22608404C59C50EC08D2B38CE05482BC078CFF0BA6E19D7C480F8B522CBE606B81A802EBFF2004066CF0755E5A8397F906100B732B3BE0D43B72C94511278083AB5EB49FBF5E50901C0E5DEDBCFA7AE36DC3906DCB6AC933F092F92AFBD
310
34C8A4F55F402793BD7E00F3ECEF1D1B1AF45130590098B2BB8195076BF04A037364DD50B5F81FE7F90205D9979B880000000049454E44AE426082
  0
ENDSEC
  0
EOF
