  0
SECTION
  2
HEADER
  9
$ACADVER
  1
AC1027
  9
$ACADMAINTVER
 70
    55
  9
$DWGCODEPAGE
  3
ANSI_1252
  9
$LASTSAVEDBY
  1
jackson
  9
$REQUIREDVERSIONS
160
                 0
  9
$INSBASE
 10
-60.65000000000002
 20
200.0
 30
0.0
  9
$EXTMIN
 10
36.22910603899479
 20
18.52381979457311
 30
0.0
  9
$EXTMAX
 10
388.1826529791908
 20
275.6294308559547
 30
0.0
  9
$LIMMIN
 10
0.0
 20
0.0
  9
$LIMMAX
 10
400.0
 20
300.0
  9
$ORTHOMODE
 70
     0
  9
$REGENMODE
 70
     1
  9
$FILLMODE
 70
     1
  9
$QTEXTMODE
 70
     0
  9
$MIRRTEXT
 70
     0
  9
$LTSCALE
 40
1.0
  9
$ATTMODE
 70
     1
  9
$TEXTSIZE
 40
0.2
  9
$TRACEWID
 40
0.05
  9
$TEXTSTYLE
  7
Standard
  9
$CLAYER
  8
0
  9
$CELTYPE
  6
ByLayer
  9
$CECOLOR
 62
   256
  9
$CELTSCALE
 40
1.0
  9
$DISPSILH
 70
     0
  9
$DIMSCALE
 40
1.0
  9
$DIMASZ
 40
6.0
  9
$DIMEXO
 40
1.5
  9
$DIMDLI
 40
0.38
  9
$DIMRND
 40
0.0
  9
$DIMDLE
 40
0.0
  9
$DIMEXE
 40
0.18
  9
$DIMTP
 40
0.0
  9
$DIMTM
 40
0.0
  9
$DIMTXT
 40
3.0
  9
$DIMCEN
 40
0.09
  9
$DIMTSZ
 40
0.0
  9
$DIMTOL
 70
     0
  9
$DIMLIM
 70
     0
  9
$DIMTIH
 70
     1
  9
$DIMTOH
 70
     1
  9
$DIMSE1
 70
     0
  9
$DIMSE2
 70
     0
  9
$DIMTAD
 70
     0
  9
$DIMZIN
 70
     0
  9
$DIMBLK
  1

  9
$DIMASO
 70
     1
  9
$DIMSHO
 70
     1
  9
$DIMPOST
  1
 MM\X
  9
$DIMAPOST
  1
 IN.
  9
$DIMALT
 70
     1
  9
$DIMALTD
 70
     1
  9
$DIMALTF
 40
0.0393700787401575
  9
$DIMLFAC
 40
1.0
  9
$DIMTOFL
 70
     0
  9
$DIMTVP
 40
0.0
  9
$DIMTIX
 70
     0
  9
$DIMSOXD
 70
     0
  9
$DIMSAH
 70
     0
  9
$DIMBLK1
  1

  9
$DIMBLK2
  1

  9
$DIMSTYLE
  2
KRYTON
  9
$DIMCLRD
 70
     0
  9
$DIMCLRE
 70
     0
  9
$DIMCLRT
 70
     0
  9
$DIMTFAC
 40
1.0
  9
$DIMGAP
 40
0.54
  9
$DIMJUST
 70
     0
  9
$DIMSD1
 70
     0
  9
$DIMSD2
 70
     0
  9
$DIMTOLJ
 70
     1
  9
$DIMTZIN
 70
     0
  9
$DIMALTZ
 70
     0
  9
$DIMALTTZ
 70
     0
  9
$DIMUPT
 70
     0
  9
$DIMDEC
 70
     0
  9
$DIMTDEC
 70
     0
  9
$DIMALTU
 70
     2
  9
$DIMALTTD
 70
     1
  9
$DIMTXSTY
  7
Standard
  9
$DIMAUNIT
 70
     0
  9
$DIMADEC
 70
     0
  9
$DIMALTRND
 40
0.0
  9
$DIMAZIN
 70
     0
  9
$DIMDSEP
 70
    46
  9
$DIMATFIT
 70
     3
  9
$DIMFRAC
 70
     0
  9
$DIMLDRBLK
  1

  9
$DIMLUNIT
 70
     2
  9
$DIMLWD
 70
    -2
  9
$DIMLWE
 70
    -2
  9
$DIMTMOVE
 70
     0
  9
$DIMFXL
 40
1.0
  9
$DIMFXLON
 70
     0
  9
$DIMJOGANG
 40
0.7853981633974483
  9
$DIMTFILL
 70
     0
  9
$DIMTFILLCLR
 70
     0
  9
$DIMARCSYM
 70
     0
  9
$DIMLTYPE
  6

  9
$DIMLTEX1
  6

  9
$DIMLTEX2
  6

  9
$DIMTXTDIRECTION
 70
     0
  9
$LUNITS
 70
     2
  9
$LUPREC
 70
     2
  9
$SKETCHINC
 40
0.1
  9
$FILLETRAD
 40
0.0
  9
$AUNITS
 70
     0
  9
$AUPREC
 70
     0
  9
$MENU
  1
.
  9
$ELEVATION
 40
0.0
  9
$PELEVATION
 40
0.0
  9
$THICKNESS
 40
0.0
  9
$LIMCHECK
 70
     0
  9
$CHAMFERA
 40
0.0
  9
$CHAMFERB
 40
0.0
  9
$CHAMFERC
 40
0.0
  9
$CHAMFERD
 40
0.0
  9
$SKPOLY
 70
     0
  9
$TDCREATE
 40
2454179.473426886
  9
$TDUCREATE
 40
2454179.765093554
  9
$TDUPDATE
 40
2457206.408838068
  9
$TDUUPDATE
 40
2457206.700504734
  9
$TDINDWG
 40
0.8653209722
  9
$TDUSRTIMER
 40
0.8653209722
  9
$USRTIMER
 70
     1
  9
$ANGBASE
 50
0.0
  9
$ANGDIR
 70
     0
  9
$PDMODE
 70
     0
  9
$PDSIZE
 40
0.0
  9
$PLINEWID
 40
0.0
  9
$SPLFRAME
 70
     0
  9
$SPLINETYPE
 70
     6
  9
$SPLINESEGS
 70
     8
  9
$HANDSEED
  5
D65
  9
$SURFTAB1
 70
     6
  9
$SURFTAB2
 70
     6
  9
$SURFTYPE
 70
     6
  9
$SURFU
 70
     6
  9
$SURFV
 70
     6
  9
$UCSBASE
  2

  9
$UCSNAME
  2

  9
$UCSORG
 10
0.0
 20
0.0
 30
0.0
  9
$UCSXDIR
 10
1.0
 20
0.0
 30
0.0
  9
$UCSYDIR
 10
0.0
 20
1.0
 30
0.0
  9
$UCSORTHOREF
  2

  9
$UCSORTHOVIEW
 70
     0
  9
$UCSORGTOP
 10
0.0
 20
0.0
 30
0.0
  9
$UCSORGBOTTOM
 10
0.0
 20
0.0
 30
0.0
  9
$UCSORGLEFT
 10
0.0
 20
0.0
 30
0.0
  9
$UCSORGRIGHT
 10
0.0
 20
0.0
 30
0.0
  9
$UCSORGFRONT
 10
0.0
 20
0.0
 30
0.0
  9
$UCSORGBACK
 10
0.0
 20
0.0
 30
0.0
  9
$PUCSBASE
  2

  9
$PUCSNAME
  2

  9
$PUCSORG
 10
0.0
 20
0.0
 30
0.0
  9
$PUCSXDIR
 10
1.0
 20
0.0
 30
0.0
  9
$PUCSYDIR
 10
0.0
 20
1.0
 30
0.0
  9
$PUCSORTHOREF
  2

  9
$PUCSORTHOVIEW
 70
     0
  9
$PUCSORGTOP
 10
0.0
 20
0.0
 30
0.0
  9
$PUCSORGBOTTOM
 10
0.0
 20
0.0
 30
0.0
  9
$PUCSORGLEFT
 10
0.0
 20
0.0
 30
0.0
  9
$PUCSORGRIGHT
 10
0.0
 20
0.0
 30
0.0
  9
$PUCSORGFRONT
 10
0.0
 20
0.0
 30
0.0
  9
$PUCSORGBACK
 10
0.0
 20
0.0
 30
0.0
  9
$USERI1
 70
     0
  9
$USERI2
 70
     0
  9
$USERI3
 70
     0
  9
$USERI4
 70
     0
  9
$USERI5
 70
     0
  9
$USERR1
 40
0.0
  9
$USERR2
 40
0.0
  9
$USERR3
 40
0.0
  9
$USERR4
 40
0.0
  9
$USERR5
 40
0.0
  9
$WORLDVIEW
 70
     1
  9
$SHADEDGE
 70
     3
  9
$SHADEDIF
 70
    70
  9
$TILEMODE
 70
     0
  9
$MAXACTVP
 70
    64
  9
$PINSBASE
 10
0.0
 20
0.0
 30
0.0
  9
$PLIMCHECK
 70
     0
  9
$PEXTMIN
 10
-0.486601385194696
 20
-1.266536316691453
 30
-0.0015258207003583
  9
$PEXTMAX
 10
11.18448767861097
 20
10.08849653101644
 30
0.0000000349246037
  9
$PLIMMIN
 10
-0.2281003861915408
 20
-0.7005413686196636
  9
$PLIMMAX
 10
10.77189937351257
 20
7.799458391084446
  9
$UNITMODE
 70
     0
  9
$VISRETAIN
 70
     1
  9
$PLINEGEN
 70
     0
  9
$PSLTSCALE
 70
     1
  9
$TREEDEPTH
 70
  3020
  9
$CMLSTYLE
  2
Standard
  9
$CMLJUST
 70
     0
  9
$CMLSCALE
 40
1.0
  9
$PROXYGRAPHICS
 70
     1
  9
$MEASUREMENT
 70
     0
  9
$CELWEIGHT
370
     5
  9
$ENDCAPS
280
     0
  9
$JOINSTYLE
280
     0
  9
$LWDISPLAY
290
     1
  9
$INSUNITS
 70
     4
  9
$HYPERLINKBASE
  1

  9
$STYLESHEET
  1

  9
$XEDIT
290
     1
  9
$CEPSNTYPE
380
     0
  9
$PSTYLEMODE
290
     1
  9
$FINGERPRINTGUID
  2
{FDEAD576-A652-11D2-9A35-0060089B3A3F}
  9
$VERSIONGUID
  2
{ACDE9C35-6542-46FB-8C77-9082B4B29F0B}
  9
$EXTNAMES
290
     1
  9
$PSVPSCALE
 40
0.0
  9
$OLESTARTUP
290
     0
  9
$SORTENTS
280
   127
  9
$INDEXCTL
280
     0
  9
$HIDETEXT
280
     1
  9
$XCLIPFRAME
280
     0
  9
$HALOGAP
280
     0
  9
$OBSCOLOR
 70
   257
  9
$OBSLTYPE
280
     0
  9
$INTERSECTIONDISPLAY
280
     0
  9
$INTERSECTIONCOLOR
 70
   257
  9
$DIMASSOC
280
     2
  9
$PROJECTNAME
  1

  9
$CAMERADISPLAY
290
     0
  9
$LENSLENGTH
 40
50.0
  9
$CAMERAHEIGHT
 40
0.0
  9
$STEPSPERSEC
 40
2.0
  9
$STEPSIZE
 40
6.0
  9
$3DDWFPREC
 40
2.0
  9
$PSOLWIDTH
 40
0.25
  9
$PSOLHEIGHT
 40
4.0
  9
$LOFTANG1
 40
1.570796326794896
  9
$LOFTANG2
 40
1.570796326794896
  9
$LOFTMAG1
 40
0.0
  9
$LOFTMAG2
 40
0.0
  9
$LOFTPARAM
 70
     7
  9
$LOFTNORMALS
280
     1
  9
$LATITUDE
 40
37.795
  9
$LONGITUDE
 40
-122.394
  9
$NORTHDIRECTION
 40
0.0
  9
$TIMEZONE
 70
 -8000
  9
$LIGHTGLYPHDISPLAY
280
     1
  9
$TILEMODELIGHTSYNCH
280
     1
  9
$CMATERIAL
347
895
  9
$SOLIDHIST
280
     1
  9
$SHOWHIST
280
     1
  9
$DWFFRAME
280
     2
  9
$DGNFRAME
280
     0
  9
$REALWORLDSCALE
290
     1
  9
$INTERFERECOLOR
 62
     1
  9
$INTERFEREOBJVS
345
8B7
  9
$INTERFEREVPVS
346
CBF
  9
$CSHADOW
280
     0
  9
$SHADOWPLANELOCATION
 40
0.0
  0
ENDSEC
  0
SECTION
  2
CLASSES
  0
CLASS
  1
ACDBDICTIONARYWDFLT
  2
AcDbDictionaryWithDefault
  3
ObjectDBX Classes
 90
        0
 91
        1
280
     0
281
     0
  0
CLASS
  1
DICTIONARYVAR
  2
AcDbDictionaryVar
  3
ObjectDBX Classes
 90
        0
 91
       11
280
     0
281
     0
  0
CLASS
  1
DIMASSOC
  2
AcDbDimAssoc
  3
"AcDbDimAssoc|Product Desc:     AcDim ARX App For Dimension|Company:          Autodesk, Inc.|WEB Address:      www.autodesk.com"
 90
        0
 91
        3
280
     0
281
     0
  0
CLASS
  1
SORTENTSTABLE
  2
AcDbSortentsTable
  3
ObjectDBX Classes
 90
        0
 91
        3
280
     0
281
     0
  0
CLASS
  1
MATERIAL
  2
AcDbMaterial
  3
ObjectDBX Classes
 90
     1153
 91
        3
280
     0
281
     0
  0
CLASS
  1
VISUALSTYLE
  2
AcDbVisualStyle
  3
ObjectDBX Classes
 90
     4095
 91
       26
280
     0
281
     0
  0
CLASS
  1
TABLESTYLE
  2
AcDbTableStyle
  3
ObjectDBX Classes
 90
     4095
 91
        1
280
     0
281
     0
  0
CLASS
  1
SCALE
  2
AcDbScale
  3
ObjectDBX Classes
 90
     1153
 91
       33
280
     0
281
     0
  0
CLASS
  1
MLEADERSTYLE
  2
AcDbMLeaderStyle
  3
ACDB_MLEADERSTYLE_CLASS
 90
     4095
 91
        1
280
     0
281
     0
  0
CLASS
  1
CELLSTYLEMAP
  2
AcDbCellStyleMap
  3
ObjectDBX Classes
 90
     1152
 91
        2
280
     0
281
     0
  0
CLASS
  1
ACDBSECTIONVIEWSTYLE
  2
AcDbSectionViewStyle
  3
ObjectDBX Classes
 90
     1025
 91
        1
280
     0
281
     0
  0
CLASS
  1
ACDBDETAILVIEWSTYLE
  2
AcDbDetailViewStyle
  3
ObjectDBX Classes
 90
     1025
 91
        1
280
     0
281
     0
  0
ENDSEC
  0
SECTION
  2
TABLES
  0
TABLE
  2
VPORT
  5
8
330
0
100
AcDbSymbolTable
 70
     1
  0
VPORT
  5
893
330
8
100
AcDbSymbolTableRecord
100
AcDbViewportTableRecord
  2
*Active
 70
     0
 10
0.0
 20
0.0
 11
1.0
 21
1.0
 12
180.0310612124137
 22
43.10799125199162
 13
0.0
 23
0.0
 14
0.5
 24
0.5
 15
6.0
 25
6.0
 16
0.0
 26
0.0
 36
1.0
 17
0.0
 27
0.0
 37
0.0
 40
263.7792608213153
 41
1.777618364418938
 42
50.0
 43
0.0
 44
0.0
 50
0.0
 51
0.0
 71
     0
 72
  1000
 73
     1
 74
     3
 75
     0
 76
     0
 77
     0
 78
     0
281
     0
 65
     1
110
0.0
120
0.0
130
0.0
111
1.0
121
0.0
131
0.0
112
0.0
122
1.0
132
0.0
 79
     0
146
0.0
348
8B3
 60
     3
 61
     5
292
     1
282
     1
141
0.0
142
0.0
 63
   250
421
  3355443
1001
ACAD_NAV_VCDISPLAY
1070
     3
  0
ENDTAB
  0
TABLE
  2
LTYPE
  5
5
330
0
100
AcDbSymbolTable
 70
     2
  0
LTYPE
  5
14
330
5
100
AcDbSymbolTableRecord
100
AcDbLinetypeTableRecord
  2
ByBlock
 70
     0
  3

 72
    65
 73
     0
 40
0.0
  0
LTYPE
  5
15
330
5
100
AcDbSymbolTableRecord
100
AcDbLinetypeTableRecord
  2
ByLayer
 70
     0
  3

 72
    65
 73
     0
 40
0.0
  0
LTYPE
  5
16
330
5
100
AcDbSymbolTableRecord
100
AcDbLinetypeTableRecord
  2
Continuous
 70
     0
  3
Solid line
 72
    65
 73
     0
 40
0.0
  0
ENDTAB
  0
TABLE
  2
LAYER
  5
2
102
{ACAD_XDICTIONARY
360
8F0
102
}
330
0
100
AcDbSymbolTable
 70
     2
  0
LAYER
  5
10
102
{ACAD_XDICTIONARY
360
91A
102
}
330
2
100
AcDbSymbolTableRecord
100
AcDbLayerTableRecord
  2
0
 70
     0
 62
     7
  6
Continuous
370
    -3
390
F
347
8A5
348
0
  0
LAYER
  5
200
330
2
100
AcDbSymbolTableRecord
100
AcDbLayerTableRecord
  2
Defpoints
 70
     0
 62
     7
  6
Continuous
290
     0
370
    -3
390
F
347
8A5
348
0
  0
ENDTAB
  0
TABLE
  2
STYLE
  5
3
330
0
100
AcDbSymbolTable
 70
     6
  0
STYLE
  5
11
330
3
100
AcDbSymbolTableRecord
100
AcDbTextStyleTableRecord
  2
Standard
 70
     0
 40
0.0
 41
1.0
 50
0.0
 71
     0
 42
0.2
  3
ARIAL.TTF
  4

1001
ACAD
1000
Arial
1071
       34
  0
ENDTAB
  0
TABLE
  2
VIEW
  5
6
330
0
100
AcDbSymbolTable
 70
     4
  0
ENDTAB
  0
TABLE
  2
UCS
  5
7
330
0
100
AcDbSymbolTable
 70
     0
  0
ENDTAB
  0
TABLE
  2
APPID
  5
9
330
0
100
AcDbSymbolTable
 70
     8
  0
APPID
  5
12
330
9
100
AcDbSymbolTableRecord
100
AcDbRegAppTableRecord
  2
ACAD
 70
     0
  0
APPID
  5
8E4
330
9
100
AcDbSymbolTableRecord
100
AcDbRegAppTableRecord
  2
ACAD_MLEADERVER
 70
     0
  0
APPID
  5
95E
330
9
100
AcDbSymbolTableRecord
100
AcDbRegAppTableRecord
  2
ACAD_PSEXT
 70
     0
  0
APPID
  5
9F8
330
9
100
AcDbSymbolTableRecord
100
AcDbRegAppTableRecord
  2
AcadAnnoPO
 70
     0
  0
APPID
  5
9F9
330
9
100
AcDbSymbolTableRecord
100
AcDbRegAppTableRecord
  2
ACAD_DSTYLE_DIMJAG
 70
     0
  0
APPID
  5
9FA
330
9
100
AcDbSymbolTableRecord
100
AcDbRegAppTableRecord
  2
ACAD_DSTYLE_DIMTALN
 70
     0
  0
APPID
  5
CDD
330
9
100
AcDbSymbolTableRecord
100
AcDbRegAppTableRecord
  2
ACAD_EXEMPT_FROM_CAD_STANDARDS
 70
     0
  0
APPID
  5
CE6
330
9
100
AcDbSymbolTableRecord
100
AcDbRegAppTableRecord
  2
ACAD_NAV_VCDISPLAY
 70
     0
  0
ENDTAB
  0
TABLE
  2
DIMSTYLE
  5
A
330
0
100
AcDbSymbolTable
 70
     8
100
AcDbDimStyleTable
 71
     2
340
21A
340
27
  0
DIMSTYLE
105
27
330
A
100
AcDbSymbolTableRecord
100
AcDbDimStyleTableRecord
  2
Standard
 70
     0
340
11
  0
DIMSTYLE
105
21A
102
{ACAD_REACTORS
330
4B4
330
5B1
330
B8A
330
7AB
330
7AF
330
7B9
330
7BE
102
}
330
A
100
AcDbSymbolTableRecord
100
AcDbDimStyleTableRecord
  2
KRYTON
 70
     0
  3
 MM\X
  4
 IN.
 41
6.0
 42
1.5
140
3.0
143
0.0393700787401575
147
0.54
170
     1
171
     1
271
     0
272
     0
274
     1
340
11
1001
ACAD_DSTYLE_DIMJAG
1070
   388
1040
1.5
1001
ACAD_DSTYLE_DIMTALN
1070
   392
1070
     0
  0
DIMSTYLE
105
7F5
330
A
100
AcDbSymbolTableRecord
100
AcDbDimStyleTableRecord
  2
ISO-25
 70
     0
 41
2.5
 42
0.625
 43
3.75
 44
1.25
 73
     0
 74
     0
 77
     1
 78
     8
140
2.5
141
2.5
143
0.03937007874016
147
0.625
171
     3
172
     1
271
     2
272
     2
274
     3
278
    44
283
     0
284
     8
340
11
  0
ENDTAB
  0
TABLE
  2
BLOCK_RECORD
  5
1
330
0
100
AcDbSymbolTable
 70
    10
  0
BLOCK_RECORD
  5
1F
102
{ACAD_XDICTIONARY
360
41E
102
}
330
1
100
AcDbSymbolTableRecord
100
AcDbBlockTableRecord
  2
*Model_Space
340
22
 70
     0
280
     1
281
     0
  0
BLOCK_RECORD
  5
97B
330
1
100
AcDbSymbolTableRecord
100
AcDbBlockTableRecord
  2
*Paper_Space
340
97C
 70
     0
280
     1
281
     0
  0
BLOCK_RECORD
  5
407
102
{ACAD_XDICTIONARY
360
422
102
}
330
1
100
AcDbSymbolTableRecord
100
AcDbBlockTableRecord
  2
joint line
340
0
310
2800000020000000200000000100080000000000000400000000000000000000000000000000000000000000000080000080000000808000800000008000800080800000C0C0C000C0DCC000F0CAA6000020400000206000002080000020A0000020C0000020E00000400000004020000040400000406000004080000040A0
310
000040C0000040E00000600000006020000060400000606000006080000060A0000060C0000060E00000800000008020000080400000806000008080000080A0000080C0000080E00000A0000000A0200000A0400000A0600000A0800000A0A00000A0C00000A0E00000C0000000C0200000C0400000C0600000C0800000C0
310
A00000C0C00000C0E00000E0000000E0200000E0400000E0600000E0800000E0A00000E0C00000E0E00040000000400020004000400040006000400080004000A0004000C0004000E00040200000402020004020400040206000402080004020A0004020C0004020E000404000004040200040404000404060004040800040
310
40A0004040C0004040E00040600000406020004060400040606000406080004060A0004060C0004060E00040800000408020004080400040806000408080004080A0004080C0004080E00040A0000040A0200040A0400040A0600040A0800040A0A00040A0C00040A0E00040C0000040C0200040C0400040C0600040C08000
310
40C0A00040C0C00040C0E00040E0000040E0200040E0400040E0600040E0800040E0A00040E0C00040E0E00080000000800020008000400080006000800080008000A0008000C0008000E00080200000802020008020400080206000802080008020A0008020C0008020E00080400000804020008040400080406000804080
310
008040A0008040C0008040E00080600000806020008060400080606000806080008060A0008060C0008060E00080800000808020008080400080806000808080008080A0008080C0008080E00080A0000080A0200080A0400080A0600080A0800080A0A00080A0C00080A0E00080C0000080C0200080C0400080C0600080C0
310
800080C0A00080C0C00080C0E00080E0000080E0200080E0400080E0600080E0800080E0A00080E0C00080E0E000C0000000C0002000C0004000C0006000C0008000C000A000C000C000C000E000C0200000C0202000C0204000C0206000C0208000C020A000C020C000C020E000C0400000C0402000C0404000C0406000C0
310
408000C040A000C040C000C040E000C0600000C0602000C0604000C0606000C0608000C060A000C060C000C060E000C0800000C0802000C0804000C0806000C0808000C080A000C080C000C080E000C0A00000C0A02000C0A04000C0A06000C0A08000C0A0A000C0A0C000C0A0E000C0C00000C0C02000C0C04000C0C06000
310
C0C08000C0C0A000F0FBFF00A4A0A000808080000000FF0000FF000000FFFF00FF000000FF00FF00FFFF0000FFFFFF0000000000000000000000000000000000000000000000000000000000000000000000000000000000000000000000000000000000000000000000000000000000000000000000000000000000000000
310
00000000000000000000000000000000000000000000000000000000000000000000000000000000000000000000000000000000000000000000000000000000000000000000000000000000000000000000000000000000000000000000000000000000000000000000000000000000000000000000000000000000000000
310
00000000000000000000000000000000000000000000000000000000000000000000FF000000000000000000000000000000000000000000000000000000000000FFFF000000000000000000000000000000000000000000000000000000000000FFFF00000000000000000000000000000000000000000000000000000000
310
00FF00FF00000000000000000000000000000000000000000000000000000000FF0000FF00000000000000000000000000000000000000000000000000000000FF0000FF000000000000000000000000000000000000000000000000000000FF000000FF0000000000000000000000000000000000000000000000000000FF
310
00000000FF0000000000000000000000000000000000000000000000000000FF00000000FF00000000000000000000000000000000FFFFFFFFFFFFFFFFFFFF0000000000FF00000000FFFFFFFFFFFFFFFFFFFF0000000000000000000000000000000000FF000000FF00000000000000000000000000000000000000000000
310
0000000000FF000000FF000000000000000000000000000000000000000000000000000000FF0000FF00000000000000000000000000000000000000000000000000000000FF0000FF00000000000000000000000000000000000000000000000000000000FF00FF0000000000000000000000000000000000000000000000
310
000000000000FFFF000000000000000000000000000000000000000000000000000000000000FFFF000000000000000000000000000000000000000000000000000000000000FF0000000000000000000000000000000000000000000000000000000000000000000000000000000000000000000000000000000000000000
310
00000000000000000000000000000000000000000000000000000000000000000000000000000000000000000000000000000000000000000000000000000000000000000000000000000000000000000000000000000000000000000000000000000000000000000000000000000000000000000000000000000000000000
310
0000000000000000000000000000000000000000000000000000000000000000000000000000000000000000000000000000000000000000
102
{BLKREFS
331
427
331
428
102
}
 70
     4
280
     1
281
     0
  0
BLOCK_RECORD
  5
4B5
330
1
100
AcDbSymbolTableRecord
100
AcDbBlockTableRecord
  2
*D1
340
0
 70
     0
280
     1
281
     0
  0
BLOCK_RECORD
  5
5B2
330
1
100
AcDbSymbolTableRecord
100
AcDbBlockTableRecord
  2
*D2
340
0
 70
     0
280
     1
281
     0
  0
BLOCK_RECORD
  5
7F6
102
{ACAD_XDICTIONARY
360
808
102
}
330
1
100
AcDbSymbolTableRecord
100
AcDbBlockTableRecord
  2
Water Symbol
340
0
102
{BLKREFS
331
854
102
}
 70
     0
280
     1
281
     0
  0
BLOCK_RECORD
  5
B8B
330
1
100
AcDbSymbolTableRecord
100
AcDbBlockTableRecord
  2
*D4
340
0
 70
     0
280
     1
281
     0
  0
ENDTAB
  0
ENDSEC
  0
SECTION
  2
BLOCKS
  0
BLOCK
  5
20
330
1F
100
AcDbEntity
  8
0
100
AcDbBlockBegin
  2
*Model_Space
 70
     0
 10
0.0
 20
0.0
 30
0.0
  3
*Model_Space
  1

  0
ENDBLK
  5
21
330
1F
100
AcDbEntity
  8
0
100
AcDbBlockEnd
  0
BLOCK
  5
97D
330
97B
100
AcDbEntity
 67
     1
  8
0
100
AcDbBlockBegin
  2
*Paper_Space
 70
     0
 10
0.0
 20
0.0
 30
0.0
  3
*Paper_Space
  1

  0
ENDBLK
  5
97E
330
97B
100
AcDbEntity
 67
     1
  8
0
100
AcDbBlockEnd
  0
BLOCK
  5
408
330
407
100
AcDbEntity
  8
0
100
AcDbBlockBegin
  2
joint line
 70
     0
 10
0.0
 20
0.0
 30
0.0
  3
joint line
  1

  0
LWPOLYLINE
  5
426
330
407
100
AcDbEntity
  8
0
100
AcDbPolyline
 90
        7
 70
     0
 43
0.0
 10
40.06469683741646
 20
0.0
 10
14.66469683741647
 20
0.0
 10
0.0
 20
25.40000000000001
 10
0.0
 20
0.0
 10
0.0
 20
-25.40000000000001
 10
-14.66469683741645
 20
0.0
 10
-40.06469683741646
 20
0.0
  0
ENDBLK
  5
409
330
407
100
AcDbEntity
  8
0
100
AcDbBlockEnd
  0
BLOCK
  5
4C1
330
4B5
100
AcDbEntity
  8
0
100
AcDbBlockBegin
  2
*D1
 70
     1
 10
0.0
 20
0.0
 30
0.0
  3
*D1
  1

  0
LINE
  5
C80
330
4B5
100
AcDbEntity
  8
0
 62
     0
440
 16777216
370
    -2
100
AcDbLine
 10
267.9540985931277
 20
187.5911446070195
 30
0.0
 11
267.9540985931277
 21
207.5291174792099
 31
0.0
  0
LINE
  5
C81
330
4B5
100
AcDbEntity
  8
0
 62
     0
440
 16777216
370
    -2
100
AcDbLine
 10
307.9255133645243
 20
187.2811549593547
 30
0.0
 11
307.9255133645243
 21
207.5291174792099
 31
0.0
  0
LINE
  5
C82
330
4B5
100
AcDbEntity
  8
0
 62
     0
440
 16777216
370
    -2
100
AcDbLine
 10
273.9540985931277
 20
207.3491174792098
 30
0.0
 11
279.6163816950606
 21
207.3491174792098
 31
0.0
  0
LINE
  5
C83
330
4B5
100
AcDbEntity
  8
0
 62
     0
440
 16777216
370
    -2
100
AcDbLine
 10
301.9255133645243
 20
207.3491174792098
 30
0.0
 11
296.2632302625913
 21
207.3491174792098
 31
0.0
  0
SOLID
  5
C84
330
4B5
100
AcDbEntity
  8
0
 62
     0
440
 16777216
370
     5
100
AcDbTrace
 10
273.9540985931277
 20
208.3491174792098
 30
0.0
 11
273.9540985931277
 21
206.3491174792098
 31
0.0
 12
267.9540985931277
 22
207.3491174792098
 32
0.0
 13
267.9540985931277
 23
207.3491174792098
 33
0.0
  0
SOLID
  5
C85
330
4B5
100
AcDbEntity
  8
0
 62
     0
440
 16777216
370
     5
100
AcDbTrace
 10
301.9255133645243
 20
208.3491174792098
 30
0.0
 11
301.9255133645243
 21
206.3491174792098
 31
0.0
 12
307.9255133645243
 22
207.3491174792098
 32
0.0
 13
307.9255133645243
 23
207.3491174792098
 33
0.0
  0
MTEXT
  5
C86
330
4B5
100
AcDbEntity
  8
0
 62
     0
440
 16777216
370
    -3
100
AcDbMText
 10
287.939805978826
 20
207.3491174792098
 30
0.0
 40
3.0
 41
0.0
 46
0.0
 71
     5
 72
     1
  1
\A1;40 MM\P [1.5 IN.]
 73
     1
 44
1.0
  0
POINT
  5
C87
330
4B5
100
AcDbEntity
  8
Defpoints
 62
     0
440
 16777216
370
     5
100
AcDbPoint
 10
267.9540985931277
 20
186.0911446070195
 30
0.0
  0
POINT
  5
C88
330
4B5
100
AcDbEntity
  8
Defpoints
 62
     0
440
 16777216
370
     5
100
AcDbPoint
 10
307.9255133645243
 20
185.7811549593547
 30
0.0
  0
POINT
  5
C89
330
4B5
100
AcDbEntity
  8
Defpoints
 62
     0
440
 16777216
370
     5
100
AcDbPoint
 10
307.9255133645243
 20
207.3491174792098
 30
0.0
  0
ENDBLK
  5
4C2
330
4B5
100
AcDbEntity
  8
0
100
AcDbBlockEnd
  0
BLOCK
  5
5BE
330
5B2
100
AcDbEntity
  8
0
100
AcDbBlockBegin
  2
*D2
 70
     1
 10
0.0
 20
0.0
 30
0.0
  3
*D2
  1

  0
LINE
  5
C8A
330
5B2
100
AcDbEntity
  8
0
 62
     0
440
 16777216
370
    -2
100
AcDbLine
 10
309.4255133645242
 20
185.7811549593547
 30
0.0
 11
325.0818698309211
 21
185.7811549593547
 31
0.0
  0
LINE
  5
C8B
330
5B2
100
AcDbEntity
  8
0
 62
     0
440
 16777216
370
    -2
100
AcDbLine
 10
309.4255133645243
 20
160.3811549593547
 30
0.0
 11
325.0818698309211
 21
160.3811549593546
 31
0.0
  0
LINE
  5
C8C
330
5B2
100
AcDbEntity
  8
0
 62
     0
440
 16777216
370
    -2
100
AcDbLine
 10
324.9018698309212
 20
179.7811549593546
 30
0.0
 11
324.9018698309212
 21
178.4736643962336
 31
0.0
  0
LINE
  5
C8D
330
5B2
100
AcDbEntity
  8
0
 62
     0
440
 16777216
370
    -2
100
AcDbLine
 10
324.9018698309212
 20
166.3811549593546
 30
0.0
 11
324.9018698309212
 21
168.5362291984164
 31
0.0
  0
SOLID
  5
C8E
330
5B2
100
AcDbEntity
  8
0
 62
     0
440
 16777216
370
     5
100
AcDbTrace
 10
323.9018698309211
 20
179.7811549593546
 30
0.0
 11
325.9018698309211
 21
179.7811549593546
 31
0.0
 12
324.9018698309212
 22
185.7811549593547
 32
0.0
 13
324.9018698309212
 23
185.7811549593547
 33
0.0
  0
SOLID
  5
C8F
330
5B2
100
AcDbEntity
  8
0
 62
     0
440
 16777216
370
     5
100
AcDbTrace
 10
323.9018698309211
 20
166.3811549593546
 30
0.0
 11
325.9018698309211
 21
166.3811549593546
 31
0.0
 12
324.9018698309212
 22
160.3811549593546
 32
0.0
 13
324.9018698309212
 23
160.3811549593546
 33
0.0
  0
MTEXT
  5
C90
330
5B2
100
AcDbEntity
  8
0
 62
     0
440
 16777216
370
    -3
100
AcDbMText
 10
324.9018698309211
 20
173.5049467973251
 30
0.0
 40
3.0
 41
0.0
 46
0.0
 71
     5
 72
     1
  1
\A1;25 MM\P [1.0 IN.]
 73
     1
 44
1.0
  0
POINT
  5
C91
330
5B2
100
AcDbEntity
  8
Defpoints
 62
     0
440
 16777216
370
     5
100
AcDbPoint
 10
307.9255133645243
 20
185.7811549593547
 30
0.0
  0
POINT
  5
C92
330
5B2
100
AcDbEntity
  8
Defpoints
 62
     0
440
 16777216
370
     5
100
AcDbPoint
 10
307.9255133645243
 20
160.3811549593547
 30
0.0
  0
POINT
  5
C93
330
5B2
100
AcDbEntity
  8
Defpoints
 62
     0
440
 16777216
370
     5
100
AcDbPoint
 10
324.9018698309212
 20
160.3811549593546
 30
0.0
  0
ENDBLK
  5
5BF
330
5B2
100
AcDbEntity
  8
0
100
AcDbBlockEnd
  0
BLOCK
  5
7FB
330
7F6
100
AcDbEntity
  8
0
100
AcDbBlockBegin
  2
Water Symbol
 70
     0
 10
0.0
 20
0.0
 30
0.0
  3
Water Symbol
  1

  0
MTEXT
  5
855
330
7F6
100
AcDbEntity
  8
0
100
AcDbMText
 10
-10.95678288450153
 20
34.0529100358682
 30
0.0
 40
8.0
 41
35.08405797101449
 46
0.0
 71
     1
 72
     5
  1
\A1;\pt16.0706;{\Fromans.shx|c0;H\S^ 2;O}
 73
     1
 44
1.0
  0
SPLINE
  5
856
330
7F6
100
AcDbEntity
  8
0
100
AcDbSpline
210
0.0
220
0.0
230
1.0
 70
  1064
 71
     3
 72
    12
 73
     8
 74
     6
 42
0.000000001
 43
0.0000000001
 44
0.0000000001
 40
0.0
 40
0.0
 40
0.0
 40
0.0
 40
14.99999999999998
 40
29.99999999999996
 40
44.99999999999992
 40
60.0
 40
75.00000000000004
 40
75.00000000000004
 40
75.00000000000004
 40
75.00000000000004
 10
-26.51653257185541
 20
4.955685024329113
 30
0.0
 10
-22.98099866592267
 20
11.06251631639473
 30
0.0
 10
-15.90993085405719
 20
23.27617890052598
 30
0.0
 10
-5.303329136258982
 20
-4.686680173669229
 30
0.0
 10
5.303272581539235
 20
25.2046519401257
 30
0.0
 10
15.90987429933744
 20
-2.758207134069758
 30
0.0
 10
22.9809421112029
 20
9.455455450061617
 30
0.0
 10
26.51647601713563
 20
15.5622867421273
 30
0.0
 11
-26.51653257185541
 21
4.955685024329113
 31
0.0
 11
-15.90993085405719
 21
15.5622867421273
 31
0.0
 11
-5.30332913625898
 21
4.955685024329113
 31
0.0
 11
5.303272581539204
 21
15.5622867421273
 31
0.0
 11
15.90987429933744
 21
4.955685024329
 31
0.0
 11
26.51647601713563
 21
15.5622867421273
 31
0.0
  0
SPLINE
  5
857
330
7F6
100
AcDbEntity
  8
0
100
AcDbSpline
210
0.0
220
0.0
230
1.0
 70
  1064
 71
     3
 72
    12
 73
     8
 74
     6
 42
0.000000001
 43
0.0000000001
 44
0.0000000001
 40
0.0
 40
0.0
 40
0.0
 40
0.0
 40
14.99999999999998
 40
29.99999999999995
 40
44.99999999999994
 40
59.99999999999994
 40
74.9999999999999
 40
74.9999999999999
 40
74.9999999999999
 40
74.9999999999999
 10
-26.51653257185538
 20
-5.303341989604518
 30
0.0
 10
-22.98099866592264
 20
0.803489302461104
 30
0.0
 10
-15.90993085405716
 20
13.01715188659234
 30
0.0
 10
-5.30332913625898
 20
-14.94570718760286
 30
0.0
 10
5.303272581539262
 20
14.94562492619202
 30
0.0
 10
15.9098742993375
 20
-13.01723414800319
 30
0.0
 10
22.98094211120296
 20
-0.8035715638719478
 30
0.0
 10
26.51647601713569
 20
5.303259728193665
 30
0.0
 11
-26.51653257185538
 21
-5.303341989604518
 31
0.0
 11
-15.90993085405716
 21
5.303259728193665
 31
0.0
 11
-5.30332913625898
 21
-5.303341989604518
 31
0.0
 11
5.30327258153926
 21
5.303259728193665
 31
0.0
 11
15.9098742993375
 21
-5.303341989604518
 31
0.0
 11
26.51647601713569
 21
5.303259728193665
 31
0.0
  0
SPLINE
  5
858
330
7F6
100
AcDbEntity
  8
0
100
AcDbSpline
210
0.0
220
0.0
230
1.0
 70
  1064
 71
     3
 72
    12
 73
     8
 74
     6
 42
0.000000001
 43
0.0000000001
 44
0.0000000001
 40
0.0
 40
0.0
 40
0.0
 40
0.0
 40
14.99999999999998
 40
29.99999999999996
 40
44.99999999999995
 40
59.99999999999992
 40
74.99999999999987
 40
74.99999999999987
 40
74.99999999999987
 40
74.99999999999987
 10
-26.51653257185535
 20
-15.56236900353804
 30
0.0
 10
-22.98099866592261
 20
-9.455537711472416
 30
0.0
 10
-15.90993085405713
 20
2.758124872658825
 30
0.0
 10
-5.303329136258927
 20
-25.20473420153639
 30
0.0
 10
5.303272581539317
 20
4.686597912258496
 30
0.0
 10
15.9098742993375
 20
-23.27626116193671
 30
0.0
 10
22.98094211120296
 20
-11.06259857780547
 30
0.0
 10
26.51647601713569
 20
-4.955767285739852
 30
0.0
 11
-26.51653257185535
 21
-15.56236900353804
 31
0.0
 11
-15.90993085405713
 21
-4.955767285739852
 31
0.0
 11
-5.303329136258923
 21
-15.56236900353804
 31
0.0
 11
5.303272581539317
 21
-4.955767285739852
 31
0.0
 11
15.9098742993375
 21
-15.56236900353804
 31
0.0
 11
26.51647601713569
 21
-4.955767285739852
 31
0.0
  0
ENDBLK
  5
7FC
330
7F6
100
AcDbEntity
  8
0
100
AcDbBlockEnd
  0
BLOCK
  5
B8C
330
B8B
100
AcDbEntity
  8
0
370
     5
100
AcDbBlockBegin
  2
*D4
 70
     1
 10
0.0
 20
0.0
 30
0.0
  3
*D4
  1

  0
LINE
  5
C94
330
B8B
100
AcDbEntity
  8
0
 62
     0
440
 16777216
370
    -2
100
AcDbLine
 10
282.5255133645243
 20
187.2811549593547
 30
0.0
 11
282.5255133645243
 21
197.2118253326356
 31
0.0
  0
LINE
  5
C95
330
B8B
100
AcDbEntity
  8
0
 62
     0
440
 16777216
370
    -2
100
AcDbLine
 10
307.9255133645243
 20
187.3436549593547
 30
0.0
 11
307.9255133645243
 21
197.2118253326356
 31
0.0
  0
LINE
  5
C96
330
B8B
100
AcDbEntity
  8
0
 62
     0
440
 16777216
370
    -2
100
AcDbLine
 10
276.5255133645243
 20
197.0318253326356
 30
0.0
 11
270.5255133645243
 21
197.0318253326356
 31
0.0
  0
LINE
  5
C97
330
B8B
100
AcDbEntity
  8
0
 62
     0
440
 16777216
370
    -2
100
AcDbLine
 10
313.9255133645243
 20
197.0318253326356
 30
0.0
 11
319.9255133645242
 21
197.0318253326356
 31
0.0
  0
SOLID
  5
C98
330
B8B
100
AcDbEntity
  8
0
 62
     0
440
 16777216
370
     5
100
AcDbTrace
 10
276.5255133645243
 20
198.0318253326356
 30
0.0
 11
276.5255133645243
 21
196.0318253326356
 31
0.0
 12
282.5255133645243
 22
197.0318253326356
 32
0.0
 13
282.5255133645243
 23
197.0318253326356
 33
0.0
  0
SOLID
  5
C99
330
B8B
100
AcDbEntity
  8
0
 62
     0
440
 16777216
370
     5
100
AcDbTrace
 10
313.9255133645243
 20
198.0318253326356
 30
0.0
 11
313.9255133645243
 21
196.0318253326356
 31
0.0
 12
307.9255133645243
 22
197.0318253326356
 32
0.0
 13
307.9255133645243
 23
197.0318253326356
 33
0.0
  0
MTEXT
  5
C9A
330
B8B
100
AcDbEntity
  8
0
 62
     0
440
 16777216
370
     5
100
AcDbMText
 10
295.2255133645243
 20
199.1035442958007
 30
0.0
 40
3.0
 41
0.0
 46
0.0
 71
     5
 72
     1
  1
\A1;25 MM
 73
     1
 44
1.0
  0
MTEXT
  5
C9B
330
B8B
100
AcDbEntity
  8
0
 62
     0
440
 16777216
370
     5
100
AcDbMText
 10
295.2255133645243
 20
194.569246887888
 30
0.0
 40
3.0
 41
0.0
 46
0.0
 71
     5
 72
     1
  1
\A1;[1.0 IN.]
 73
     1
 44
1.0
  0
POINT
  5
C9C
330
B8B
100
AcDbEntity
  8
Defpoints
 62
     0
440
 16777216
370
     5
100
AcDbPoint
 10
282.5255133645243
 20
185.7811549593547
 30
0.0
  0
POINT
  5
C9D
330
B8B
100
AcDbEntity
  8
Defpoints
 62
     0
440
 16777216
370
     5
100
AcDbPoint
 10
307.9255133645243
 20
185.8436549593547
 30
0.0
  0
POINT
  5
C9E
330
B8B
100
AcDbEntity
  8
Defpoints
 62
     0
440
 16777216
370
     5
100
AcDbPoint
 10
307.9255133645243
 20
197.0318253326356
 30
0.0
  0
ENDBLK
  5
B8D
330
B8B
100
AcDbEntity
  8
0
370
     5
100
AcDbBlockEnd
  0
ENDSEC
  0
SECTION
  2
ENTITIES
  0
LINE
  5
8C
330
1F
100
AcDbEntity
  8
0
370
    -3
100
AcDbLine
 10
307.9255133645243
 20
75.48115495935467
 30
0.0
 11
307.9255133645243
 21
160.4811549593547
 31
0.0
  0
LINE
  5
9A
330
1F
100
AcDbEntity
  8
0
370
    -3
100
AcDbLine
 10
307.9255133645243
 20
190.4811549593547
 30
0.0
 11
307.9255133645243
 21
255.4811549593547
 31
0.0
  0
LINE
  5
A4
330
1F
100
AcDbEntity
  8
0
370
    -3
100
AcDbLine
 10
307.9255133645243
 20
160.4811549593547
 30
0.0
 11
307.9255133645243
 21
190.4811549593547
 31
0.0
  0
LINE
  5
AC
330
1F
100
AcDbEntity
  8
0
370
    -3
100
AcDbLine
 10
307.9255133645243
 20
255.4811549593547
 30
0.0
 11
308.9255133645242
 21
255.4811549593547
 31
0.0
  0
LINE
  5
AD
330
1F
100
AcDbEntity
  8
0
370
    -3
100
AcDbLine
 10
308.9255133645242
 20
255.4811549593547
 30
0.0
 11
309.9255133645243
 21
255.4811549593547
 31
0.0
  0
LINE
  5
AF
330
1F
100
AcDbEntity
  8
0
370
    -3
100
AcDbLine
 10
309.9255133645243
 20
75.48115495935467
 30
0.0
 11
308.9255133645242
 21
75.48115495935467
 31
0.0
  0
LINE
  5
B0
330
1F
100
AcDbEntity
  8
0
370
    -3
100
AcDbLine
 10
308.9255133645242
 20
75.48115495935467
 30
0.0
 11
307.9255133645243
 21
75.48115495935467
 31
0.0
  0
LINE
  5
295
102
{ACAD_REACTORS
330
4CF
102
}
330
1F
100
AcDbEntity
  8
0
370
    -3
100
AcDbLine
 10
267.9540985931277
 20
185.7811549593547
 30
0.0
 11
307.9255133645243
 21
185.7811549593547
 31
0.0
  0
POINT
  5
2E3
330
1F
100
AcDbEntity
  8
0
370
    -3
100
AcDbPoint
 10
294.4255133645242
 20
158.9811549593546
 30
0.0
  0
POINT
  5
2E7
330
1F
100
AcDbEntity
  8
0
370
    -3
100
AcDbPoint
 10
295.2255133645243
 20
160.4811549593547
 30
0.0
  0
POINT
  5
2E8
330
1F
100
AcDbEntity
  8
0
370
    -3
100
AcDbPoint
 10
282.5255133645243
 20
160.4811549593547
 30
0.0
  0
LINE
  5
2E9
102
{ACAD_REACTORS
330
BA5
102
}
330
1F
100
AcDbEntity
  8
0
370
    -3
100
AcDbLine
 10
282.5255133645243
 20
160.3811549593546
 30
0.0
 11
282.5255133645243
 21
185.7811549593547
 31
0.0
  0
LINE
  5
39F
102
{ACAD_REACTORS
330
7B2
102
}
330
1F
100
AcDbEntity
  8
0
370
    -3
100
AcDbLine
 10
267.9540985931277
 20
160.3811549593545
 30
0.0
 11
307.9255133645243
 21
160.3811549593546
 31
0.0
  0
LINE
  5
3FE
330
1F
100
AcDbEntity
  8
0
370
    -3
100
AcDbLine
 10
66.62551336452423
 20
75.48115495935467
 30
0.0
 11
66.62551336452421
 21
255.4811549593547
 31
0.0
  0
LINE
  5
41A
330
1F
100
AcDbEntity
  8
0
370
    -3
100
AcDbLine
 10
167.243164945816
 20
255.4811549593547
 30
0.0
 11
36.62551336452418
 21
255.4811549593547
 31
0.0
  0
LINE
  5
41B
330
1F
100
AcDbEntity
  8
0
370
    -3
100
AcDbLine
 10
207.3078617832325
 20
255.4811549593547
 30
0.0
 11
337.9255133645242
 21
255.4811549593547
 31
0.0
  0
INSERT
  5
427
330
1F
100
AcDbEntity
  8
0
370
    -3
100
AcDbBlockReference
  2
joint line
 10
187.2755133645242
 20
255.4811549593547
 30
0.0
 41
0.5
 42
0.5
  0
INSERT
  5
428
330
1F
100
AcDbEntity
  8
0
370
    -3
100
AcDbBlockReference
  2
joint line
 10
187.2755133645242
 20
75.48115495935467
 30
0.0
 41
0.5
 42
0.5
  0
LINE
  5
429
330
1F
100
AcDbEntity
  8
0
370
    -3
100
AcDbLine
 10
167.243164945816
 20
75.48115495935467
 30
0.0
 11
36.62551336452424
 21
75.48115495935466
 31
0.0
  0
LINE
  5
42A
330
1F
100
AcDbEntity
  8
0
370
    -3
100
AcDbLine
 10
207.3078617832325
 20
75.48115495935467
 30
0.0
 11
337.9255133645242
 21
75.48115495935467
 31
0.0
  0
DIMENSION
  5
4B4
102
{ACAD_XDICTIONARY
360
4C3
102
}
102
{ACAD_REACTORS
330
4CF
102
}
330
1F
100
AcDbEntity
  8
0
370
    -3
100
AcDbDimension
280
     0
  2
*D1
 10
307.9255133645243
 20
207.3491174792098
 30
0.0
 11
287.939805978826
 21
207.3491174792098
 31
0.0
 70
   160
 71
     5
 42
39.97141477139655
 73
     0
 74
     0
 75
     0
  3
KRYTON
100
AcDbAlignedDimension
 13
267.9540985931277
 23
186.0911446070195
 33
0.0
 14
307.9255133645243
 24
185.7811549593547
 34
0.0
100
AcDbRotatedDimension
1001
ACAD
1000
DSTYLE
1002
{
1070
   148
1040
0.5
1070
   271
1070
     0
1002
}
  0
DIMENSION
  5
5B1
330
1F
100
AcDbEntity
  8
0
370
    -3
100
AcDbDimension
280
     0
  2
*D2
 10
324.9018698309212
 20
160.3811549593546
 30
0.0
 11
324.9018698309211
 21
173.5049467973251
 31
0.0
 70
   160
 71
     5
 42
25.40000000000001
 73
     0
 74
     0
 75
     0
  3
KRYTON
100
AcDbAlignedDimension
 13
307.9255133645243
 23
185.7811549593547
 33
0.0
 14
307.9255133645243
 24
160.3811549593547
 34
0.0
 50
90.0
100
AcDbRotatedDimension
1001
ACAD
1000
DSTYLE
1002
{
1070
   271
1070
     0
1070
   171
1070
     1
1002
}
  0
SPLINE
  5
612
330
1F
100
AcDbEntity
  8
0
370
    -3
100
AcDbSpline
210
0.0
220
0.0
230
1.0
 70
  1064
 71
     3
 72
    13
 73
     9
 74
     7
 42
0.000000001
 43
0.0000000001
 44
0.0000000001
 40
0.0
 40
0.0
 40
0.0
 40
0.0
 40
14.52815858083756
 40
39.94745129035762
 40
76.80502632076119
 40
134.8462402941561
 40
186.8499210328891
 40
202.607808133666
 40
202.607808133666
 40
202.607808133666
 40
202.607808133666
 10
267.9540985931277
 20
173.0811549593546
 30
0.0
 10
263.3029328726422
 20
174.5130272082347
 30
0.0
 10
250.5138230189304
 20
178.450184597995
 30
0.0
 10
224.489968330447
 20
177.1905300481828
 30
0.0
 10
185.0793666991741
 20
168.1577452725435
 30
0.0
 10
136.0598706245703
 20
180.5995242635182
 30
0.0
 10
94.26255237106373
 20
173.7547868957946
 30
0.0
 10
71.8398833670127
 20
171.1782412191402
 30
0.0
 10
66.62551336452427
 20
170.5790680125981
 30
0.0
 11
267.9540985931277
 21
173.0811549593546
 31
0.0
 11
253.9018939550392
 21
176.7693708639958
 31
0.0
 11
228.4826012455192
 21
176.7693708639958
 31
0.0
 11
191.9303332810402
 21
172.0351820449101
 31
0.0
 11
134.0893831407162
 21
176.8525471307184
 31
0.0
 11
82.2735315092356
 21
172.4366293234612
 31
0.0
 11
66.62551336452427
 21
170.5790680125981
 31
0.0
  0
MTEXT
  5
64C
102
{ACAD_XDICTIONARY
360
CBB
102
}
330
1F
100
AcDbEntity
  8
0
370
    -3
100
AcDbMText
 10
189.5510677388088
 20
28.00297396692418
 30
0.0
 40
7.0
 41
242.3579046886735
 46
0.0
 71
     5
 72
     5
  1
NEGATIVE SIDE LEAK REPAIR (WET CONDITION)\P{\H0.64286x;REFER TO APPLICATION INSTRUCTION 5.12}
 73
     1
 44
1.0
  0
LEADER
  5
7AB
330
1F
100
AcDbEntity
  8
0
370
    -3
100
AcDbLeader
  3
KRYTON
 73
     0
 74
     0
 75
     1
 40
3.104365620736698
 41
52.23806275579809
 76
     3
 10
301.1755133645242
 20
160.3811549593546
 30
0.0
 10
329.3206884498593
 20
140.6674289323095
 30
0.0
 10
335.3206884498593
 20
140.6674289323095
 30
0.0
340
7AC
213
0.0
223
-1.5
233
0.0
1001
ACAD
1000
DSTYLE
1002
{
1070
    41
1040
6.0
1070
   147
1040
0.54
1070
    77
1070
     0
1002
}
  0
MTEXT
  5
7AC
102
{ACAD_REACTORS
330
7AB
102
}
330
1F
100
AcDbEntity
  8
0
370
    -3
100
AcDbMText
 10
335.8606884498593
 20
142.1674289323096
 30
0.0
 40
3.0
 41
0.0
 46
0.0
 71
     1
 72
     1
  1
KRYSTOL REPAIR GROUT
 73
     1
 44
1.0
  0
LEADER
  5
7AF
102
{ACAD_XDICTIONARY
360
7B1
102
}
102
{ACAD_REACTORS
330
7B2
102
}
330
1F
100
AcDbEntity
  8
0
370
    -3
100
AcDbLeader
  3
KRYTON
 73
     0
 74
     0
 75
     1
 40
3.104365620736698
 41
31.57162346521146
 76
     3
 10
274.40767605126
 20
160.3811549593545
 30
0.0
 10
329.3206884498594
 20
126.1190269101254
 30
0.0
 10
335.3206884498594
 20
126.1190269101254
 30
0.0
340
7B0
213
0.0
223
-1.5
233
0.0
1001
ACAD
1000
DSTYLE
1002
{
1070
    41
1040
6.0
1070
   147
1040
0.54
1070
    77
1070
     0
1002
}
  0
MTEXT
  5
7B0
102
{ACAD_REACTORS
330
7AF
102
}
330
1F
100
AcDbEntity
  8
0
370
    -3
100
AcDbMText
 10
335.8606884498594
 20
127.6190269101254
 30
0.0
 40
3.0
 41
0.0
 46
0.0
 71
     1
 72
     1
  1
{\fArial|b0|i0|c0|p34;KRYSTOL PLUG}
 73
     1
 44
1.0
  0
MTEXT
  5
7B5
330
1F
100
AcDbEntity
  8
0
370
    -3
100
AcDbMText
 10
335.8606884498593
 20
105.3113964486876
 30
0.0
 40
3.0
 41
0.0
 46
0.0
 71
     4
 72
     1
  1
\A1;
 73
     1
 44
1.0
  0
LEADER
  5
7B9
330
1F
100
AcDbEntity
  8
0
370
    -3
100
AcDbLeader
  3
KRYTON
 73
     0
 74
     0
 75
     1
 40
9.947476125511595
 41
45.30695770804911
 76
     3
 10
308.6020697485949
 20
114.9925791565814
 30
0.0
 10
329.3206884498594
 20
99.56516263108179
 30
0.0
 10
335.3206884498594
 20
99.56516263108179
 30
0.0
340
7BA
1001
ACAD
1000
DSTYLE
1002
{
1070
    41
1040
6.0
1002
}
  0
MTEXT
  5
7BA
102
{ACAD_REACTORS
330
7B9
102
}
330
1F
100
AcDbEntity
  8
0
370
    -3
100
AcDbMText
 10
335.8606884498594
 20
99.56516263108179
 30
0.0
 40
3.0
 41
0.0
 46
0.0
 71
     4
 72
     1
  1
\A1;KRYSTOL T1 COATING \P0.8 kg/m\S2^ ; (1.5 lbs./yd\S2^ ;) 
 73
     1
 44
1.0
  0
LEADER
  5
7BE
330
1F
100
AcDbEntity
  8
0
370
    -3
100
AcDbLeader
  3
KRYTON
 73
     0
 74
     0
 75
     1
 40
8.15757162346521
 41
35.31446111869031
 76
     3
 10
225.2512508188583
 20
176.3547255066043
 30
0.0
 10
273.5720034360541
 20
270.8098537754636
 30
0.0
 10
279.5720034360541
 20
270.8098537754636
 30
0.0
340
7BF
213
-40.45999999999998
223
0.0
233
0.0
  0
MTEXT
  5
7BF
102
{ACAD_REACTORS
330
7BE
102
}
330
1F
100
AcDbEntity
  8
0
370
    -3
100
AcDbMText
 10
320.5720034360541
 20
270.8098537754636
 30
0.0
 40
3.0
 41
0.0
 46
0.0
 71
     6
 72
     1
  1
PROJECTED LINE \POF CRACKING
 73
     1
 44
1.0
  0
HATCH
  5
829
330
1F
100
AcDbEntity
  8
0
370
    -3
100
AcDbHatch
 10
0.0
 20
0.0
 30
0.0
210
0.0
220
0.0
230
1.0
  2
AR-CONC
 70
     0
 71
     0
 91
        3
 92
        5
 93
       14
 72
     4
 94
        3
 73
     0
 74
     0
 95
       13
 96
        9
 40
0.0
 40
0.0
 40
0.0
 40
0.0
 40
15.75788710077688
 40
67.76156783950987
 40
125.8027818129048
 40
162.6603568433083
 40
188.0796495528284
 40
204.5649934333839
 40
204.5649934333839
 40
204.5649934333839
 40
204.5649934333839
 10
66.62551336452427
 20
170.5790680125981
 10
71.83988054196877
 20
171.1782067405772
 10
94.26253739785515
 20
173.7546041536056
 10
136.0601240515795
 20
180.602617241632
 10
185.0784956420386
 20
168.1471143588745
 10
224.4916782109271
 20
177.2113984746351
 10
251.1733159232066
 20
178.4376101891408
 10
264.5594062949595
 20
174.1782774752469
 10
269.8255133645242
 20
172.5026499026438
 97
        0
 72
     1
 10
269.8255133645242
 20
172.5026499026437
 11
269.8255133645242
 21
185.7811549593547
 72
     1
 10
269.8255133645242
 20
185.7811549593547
 11
307.9255133645243
 21
185.7811549593547
 72
     1
 10
307.9255133645243
 20
185.7811549593547
 11
307.9255133645243
 21
190.4811549593547
 72
     1
 10
307.9255133645243
 20
190.4811549593547
 11
307.9255133645243
 21
255.4811549593547
 72
     1
 10
307.9255133645243
 20
255.4811549593547
 11
207.3078617832325
 21
255.4811549593547
 72
     1
 10
207.3078617832325
 20
255.4811549593547
 11
194.6078617832324
 21
255.4811549593547
 72
     1
 10
194.6078617832324
 20
255.4811549593547
 11
187.2755133645242
 21
268.1811549593547
 72
     1
 10
187.2755133645242
 20
268.1811549593547
 11
187.2755133645242
 21
255.4811549593547
 72
     1
 10
187.2755133645242
 20
255.4811549593547
 11
187.2755133645242
 21
242.7811549593547
 72
     1
 10
187.2755133645242
 20
242.7811549593547
 11
179.9431649458159
 21
255.4811549593547
 72
     1
 10
179.9431649458159
 20
255.4811549593547
 11
167.2431649458159
 21
255.4811549593547
 72
     1
 10
167.2431649458159
 20
255.4811549593547
 11
66.62551336452421
 21
255.4811549593547
 72
     1
 10
66.62551336452421
 20
255.4811549593547
 11
66.62551336452421
 21
170.5790680125981
 97
        0
 92
       24
 93
        4
 72
     1
 10
280.9708428137509
 20
201.5442200099712
 11
294.908769143901
 21
201.5442200099712
 72
     1
 10
294.908769143901
 20
201.5442200099712
 11
294.908769143901
 21
196.980782083641
 72
     1
 10
294.908769143901
 20
196.980782083641
 11
280.9708428137509
 21
196.980782083641
 72
     1
 10
280.9708428137509
 20
196.980782083641
 11
280.9708428137509
 21
201.5442200099712
 97
        0
 92
       24
 93
        4
 72
     1
 10
280.1308018860565
 20
197.400782083641
 11
295.7488100715954
 21
197.400782083641
 72
     1
 10
295.7488100715954
 20
197.400782083641
 11
295.7488100715954
 21
192.0556251941458
 72
     1
 10
295.7488100715954
 20
192.0556251941458
 11
280.1308018860565
 21
192.0556251941458
 72
     1
 10
280.1308018860565
 20
192.0556251941458
 11
280.1308018860565
 21
197.400782083641
 97
        0
 75
     0
 76
     1
 52
0.0
 41
0.25
 77
     0
 78
    13
 53
50.0
 43
0.0
 44
0.0
 45
45.546167249001
 46
-3.984771384725771
 79
     2
 49
4.7625
 49
-52.3875
 53
355.0
 43
0.0
 44
0.0
 45
-8.810706493916747
 46
47.76416072054499
 79
     2
 49
3.81
 49
-41.90999999999999
 53
100.451
 43
3.7955
 44
-0.3320625
 45
36.73562541648981
 46
43.77917195507296
 79
     2
 49
4.0475
 49
-44.5225
 53
46.1842
 43
0.0
 44
12.7
 45
67.76976022303248
 46
-10.51058198318179
 79
     2
 49
7.143749999999999
 49
-78.58125
 53
96.6356
 43
5.647475
 44
11.824125
 45
59.35105861655928
 46
61.8563889725123
 79
     2
 49
6.07125
 49
-66.78374999999999
 53
351.184
 43
0.0
 44
12.7
 45
59.35115145348348
 46
61.85627946514942
 79
     2
 49
5.714999999999999
 49
-62.865
 53
21.0
 43
6.349999999999999
 44
9.525
 45
37.90371995884582
 46
-25.56637962919062
 79
     2
 49
4.7625
 49
-52.3875
 53
326.0
 43
6.349999999999999
 44
9.525
 45
15.45050708691177
 46
46.04699153057981
 79
     2
 49
3.81
 49
-41.90999999999999
 53
71.45140000000001
 43
9.508625
 44
7.394474999999999
 45
53.35412269253112
 46
20.48071442901436
 79
     2
 49
4.0475
 49
-44.5225
 53
37.5
 43
0.0
 44
0.0
 45
0.7721508126479542
 46
21.13875971828828
 79
     6
 49
0.0
 49
-41.402
 49
0.0
 49
-42.545
 49
0.0
 49
-42.06875
 53
7.499999999999999
 43
0.0
 44
0.0
 45
16.70491562757644
 46
25.04514370452988
 79
     6
 49
0.0
 49
-24.257
 49
0.0
 49
-40.4495
 49
0.0
 49
-16.03375
 53
327.5
 43
-14.1605
 44
0.0
 45
33.89764879171785
 46
-1.432185998168364
 79
     6
 49
0.0
 49
-15.875
 49
0.0
 49
-49.53
 49
0.0
 49
-65.7225
 53
317.5
 43
-20.5105
 44
0.0
 45
37.03229534650451
 46
6.356622758333253
 79
     6
 49
0.0
 49
-20.6375
 49
0.0
 49
-32.893
 49
0.0
 49
-46.6725
 47
0.4171563228043544
 98
        1
 10
171.3273384134759
 20
203.2894935189057
  0
HATCH
  5
848
330
1F
100
AcDbEntity
  8
0
370
    -3
100
AcDbHatch
 10
0.0
 20
0.0
 30
0.0
210
0.0
220
0.0
230
1.0
  2
AR-CONC
 70
     0
 71
     0
 91
        1
 92
        5
 93
       13
 72
     1
 10
187.2755133645242
 20
88.18115495935463
 11
194.6078617832324
 21
75.48115495935467
 72
     1
 10
194.6078617832324
 20
75.48115495935467
 11
207.3078617832325
 21
75.48115495935467
 72
     1
 10
207.3078617832325
 20
75.48115495935467
 11
307.9255133645243
 21
75.48115495935466
 72
     1
 10
307.9255133645243
 20
75.48115495935466
 11
307.9255133645243
 21
160.3811549593546
 72
     1
 10
307.9255133645243
 20
160.3811549593546
 11
269.8255133645242
 21
160.3811549593546
 72
     1
 10
269.8255133645242
 20
160.3811549593546
 11
269.8255133645243
 21
172.5026499026438
 72
     4
 94
        3
 73
     0
 74
     0
 95
       13
 96
        9
 40
0.0
 40
0.0
 40
0.0
 40
0.0
 40
16.48534388055551
 40
41.90463659007555
 40
78.76221162047912
 40
136.803425593874
 40
188.807106332607
 40
204.5649934333839
 40
204.5649934333839
 40
204.5649934333839
 40
204.5649934333839
 10
269.8255133645242
 20
172.5026499026438
 10
264.5594062949595
 20
174.1782774752469
 10
251.1733159232066
 20
178.4376101891408
 10
224.4916782109271
 20
177.2113984746351
 10
185.0784956420386
 20
168.1471143588745
 10
136.0601240515795
 20
180.602617241632
 10
94.26253739785515
 20
173.7546041536056
 10
71.83988054196877
 20
171.1782067405772
 10
66.62551336452427
 20
170.5790680125981
 97
        0
 72
     1
 10
66.62551336452422
 20
170.5790680125982
 11
66.62551336452423
 21
75.48115495935466
 72
     1
 10
66.62551336452423
 20
75.48115495935466
 11
167.243164945816
 21
75.48115495935467
 72
     1
 10
167.243164945816
 20
75.48115495935467
 11
179.943164945816
 21
75.48115495935467
 72
     1
 10
179.943164945816
 20
75.48115495935467
 11
187.2755133645242
 21
62.78115495935468
 72
     1
 10
187.2755133645242
 20
62.78115495935468
 11
187.2755133645242
 21
75.48115495935467
 72
     1
 10
187.2755133645242
 20
75.48115495935467
 11
187.2755133645242
 21
88.18115495935463
 97
        0
 75
     0
 76
     1
 52
0.0
 41
0.25
 77
     0
 78
    13
 53
50.0
 43
0.0
 44
0.0
 45
45.546167249001
 46
-3.984771384725771
 79
     2
 49
4.7625
 49
-52.3875
 53
355.0
 43
0.0
 44
0.0
 45
-8.810706493916747
 46
47.76416072054499
 79
     2
 49
3.81
 49
-41.90999999999999
 53
100.451
 43
3.7955
 44
-0.3320625
 45
36.73562541648981
 46
43.77917195507296
 79
     2
 49
4.0475
 49
-44.5225
 53
46.1842
 43
0.0
 44
12.7
 45
67.76976022303248
 46
-10.51058198318179
 79
     2
 49
7.143749999999999
 49
-78.58125
 53
96.6356
 43
5.647475
 44
11.824125
 45
59.35105861655928
 46
61.8563889725123
 79
     2
 49
6.07125
 49
-66.78374999999999
 53
351.184
 43
0.0
 44
12.7
 45
59.35115145348348
 46
61.85627946514942
 79
     2
 49
5.714999999999999
 49
-62.865
 53
21.0
 43
6.349999999999999
 44
9.525
 45
37.90371995884582
 46
-25.56637962919062
 79
     2
 49
4.7625
 49
-52.3875
 53
326.0
 43
6.349999999999999
 44
9.525
 45
15.45050708691177
 46
46.04699153057981
 79
     2
 49
3.81
 49
-41.90999999999999
 53
71.45140000000001
 43
9.508625
 44
7.394474999999999
 45
53.35412269253112
 46
20.48071442901436
 79
     2
 49
4.0475
 49
-44.5225
 53
37.5
 43
0.0
 44
0.0
 45
0.7721508126479542
 46
21.13875971828828
 79
     6
 49
0.0
 49
-41.402
 49
0.0
 49
-42.545
 49
0.0
 49
-42.06875
 53
7.499999999999999
 43
0.0
 44
0.0
 45
16.70491562757644
 46
25.04514370452988
 79
     6
 49
0.0
 49
-24.257
 49
0.0
 49
-40.4495
 49
0.0
 49
-16.03375
 53
327.5
 43
-14.1605
 44
0.0
 45
33.89764879171785
 46
-1.432185998168364
 79
     6
 49
0.0
 49
-15.875
 49
0.0
 49
-49.53
 49
0.0
 49
-65.7225
 53
317.5
 43
-20.5105
 44
0.0
 45
37.03229534650451
 46
6.356622758333253
 79
     6
 49
0.0
 49
-20.6375
 49
0.0
 49
-32.893
 49
0.0
 49
-46.6725
 47
0.4171563228043544
 98
        1
 10
198.0494462162126
 20
110.2636332246284
  0
INSERT
  5
854
330
1F
100
AcDbEntity
  8
0
370
    -3
100
AcDbBlockReference
  2
Water Symbol
 10
49.48737232492248
 20
186.3340408892475
 30
0.0
 41
0.5
 42
0.5
  0
LINE
  5
B64
330
1F
100
AcDbEntity
  8
0
370
     5
100
AcDbLine
 10
267.9540985931277
 20
185.7811549593547
 30
0.0
 11
267.9540985931277
 21
160.3811549593545
 31
0.0
  0
HATCH
  5
B74
330
1F
100
AcDbEntity
  8
0
370
     5
100
AcDbHatch
 10
0.0
 20
0.0
 30
0.0
210
0.0
220
0.0
230
1.0
  2
SACNCR
 70
     0
 71
     0
 91
        1
 92
        7
 72
     0
 73
     1
 93
        4
 10
282.5255133645243
 20
185.7811549593547
 10
267.9540985931277
 20
185.7811549593547
 10
267.9540985931277
 20
160.3811549593545
 10
282.5255133645243
 20
160.3811549593546
 97
        0
 75
     0
 76
     1
 52
0.0
 41
1.0
 77
     0
 78
     2
 53
45.0
 43
0.0
 44
0.0
 45
-0.0662912607362388
 46
0.0662912607362388
 79
     0
 53
45.0
 43
0.066291261
 44
0.0
 45
-0.0662912607362388
 46
0.0662912607362388
 79
     2
 49
0.0
 49
-0.09375
 47
0.0549553368698693
 98
        1
 10
275.0721007001094
 20
174.1520454515551
1001
ACAD
1010
0.0
1020
0.0
1030
0.0
  0
DIMENSION
  5
B8A
102
{ACAD_XDICTIONARY
360
B99
102
}
102
{ACAD_REACTORS
330
BA5
102
}
330
1F
100
AcDbEntity
  8
0
370
     5
100
AcDbDimension
280
     0
  2
*D4
 10
307.9255133645243
 20
197.0318253326356
 30
0.0
 11
295.2255133645243
 21
197.0318253326356
 31
0.0
 70
    32
 71
     5
 42
25.39999999999998
 73
     0
 74
     0
 75
     0
  3
KRYTON
100
AcDbAlignedDimension
 13
282.5255133645243
 23
185.7811549593547
 33
0.0
 14
307.9255133645243
 24
185.8436549593547
 34
0.0
100
AcDbRotatedDimension
  0
HATCH
  5
BB1
330
1F
100
AcDbEntity
  8
0
370
     5
100
AcDbHatch
 10
0.0
 20
0.0
 30
0.0
210
0.0
220
0.0
230
1.0
  2
ANSI38
 70
     0
 71
     0
 91
        1
 92
        7
 72
     0
 73
     1
 93
        5
 10
307.9255133645242
 20
185.7811549593547
 10
282.5255133645243
 20
185.7811549593547
 10
282.5255133645242
 20
160.3811549593546
 10
307.9255133645243
 20
160.3811549593546
 10
307.9255133645243
 20
160.4811549593547
 97
        0
 75
     0
 76
     1
 52
0.0
 41
30.0
 77
     0
 78
     2
 53
45.0
 43
0.0
 44
0.0
 45
-2.651650429449552
 46
2.651650429449553
 79
     0
 53
135.0
 43
0.0
 44
0.0
 45
-7.954951288348659
 46
2.651650429449553
 79
     2
 49
9.375
 49
-5.625
 47
0.0763945051789197
 98
        1
 10
293.6295698378759
 20
177.1712862732909
1001
ACAD
1010
0.0
1020
0.0
1030
0.0
  0
LINE
  5
BB2
330
1F
100
AcDbEntity
  8
0
370
     5
100
AcDbLine
 10
309.9255133645243
 20
75.48115495935467
 30
0.0
 11
309.9255133645243
 21
255.4811549593547
 31
0.0
  0
HATCH
  5
BD7
330
1F
100
AcDbEntity
  8
0
370
     5
100
AcDbHatch
 10
0.0
 20
0.0
 30
0.0
210
0.0
220
0.0
230
1.0
  2
ZIGZAG
 70
     0
 71
     0
 91
        1
 92
        7
 72
     0
 73
     1
 93
        6
 10
309.9255133645242
 20
255.4811549593547
 10
307.9255133645243
 20
255.4811549593547
 10
307.9255133645243
 20
190.4811549593547
 10
307.9255133645243
 20
160.4811549593547
 10
307.9255133645243
 20
75.48115495935466
 10
309.9255133645243
 20
75.48115495935466
 97
        0
 75
     0
 76
     1
 52
45.0
 41
30.0
 77
     0
 78
     2
 53
45.0
 43
0.0
 44
0.0
 45
0.0000000000000004
 46
5.303300858899106
 79
     2
 49
3.75
 49
-3.75
 53
135.0
 43
2.651650429449553
 44
2.651650429449552
 45
-5.303300858899105
 46
0.0000000000000004
 79
     2
 49
3.75
 49
-3.75
 47
0.3413076190596557
 98
        1
 10
309.3637396921239
 20
232.5903450783865
1001
ACAD
1010
0.0
1020
0.0
1030
0.0
  0
VIEWPORT
  5
982
102
{ACAD_XDICTIONARY
360
983
102
}
330
97B
100
AcDbEntity
 67
     1
  8
0
100
AcDbViewport
 10
7.110127885181173
 20
4.697352405466299
 30
0.0
 40
21.54050580132711
 41
12.11762110050443
 68
     1
 69
     1
 12
7.110127885181173
 22
4.697352405466299
 13
0.0
 23
0.0
 14
0.5
 24
0.5
 15
0.5
 25
0.5
 16
0.0
 26
0.0
 36
1.0
 17
0.0
 27
0.0
 37
0.0
 42
50.0
 43
0.0
 44
0.0
 45
12.11762110050443
 50
0.0
 51
0.0
 72
  1000
 90
   819232
  1

281
     0
 71
     1
 74
     0
110
0.0
120
0.0
130
0.0
111
1.0
121
0.0
131
0.0
112
0.0
122
1.0
132
0.0
 79
     0
146
0.0
170
     0
 61
     5
348
8B3
292
     1
282
     1
141
0.0
142
0.0
 63
   250
421
  3355443
  0
VIEWPORT
  5
986
102
{ACAD_XDICTIONARY
360
987
102
}
330
97B
100
AcDbEntity
 67
     1
  8
0
100
AcDbViewport
 10
5.34873377814238
 20
4.410904343353672
 30
0.0
 40
11.66996336325487
 41
11.35375962973777
 68
     2
 69
     2
 12
203.2929730422858
 22
186.9198290075002
 13
0.0
 23
0.0
 14
0.5
 24
0.5
 15
6.0
 25
6.0
 16
0.0
 26
0.0
 36
1.0
 17
0.0
 27
0.0
 37
0.0
 42
50.0
 43
0.0
 44
0.0
 45
486.5992556141372
 50
0.0
 51
0.0
 72
  1000
 90
   819296
  1

281
     0
 71
     1
 74
     0
110
0.0
120
0.0
130
0.0
111
1.0
121
0.0
131
0.0
112
0.0
122
1.0
132
0.0
 79
     0
146
0.0
170
     0
 61
     5
348
8B3
292
     1
282
     1
141
0.0
142
0.0
 63
   250
421
  3355443
  0
ENDSEC
  0
SECTION
  2
OBJECTS
  0
DICTIONARY
  5
C
330
0
100
AcDbDictionary
281
     1
  3
ACAD_CIP_PREVIOUS_PRODUCT_INFO
350
CD3
  3
ACAD_COLOR
350
73
  3
ACAD_DETAILVIEWSTYLE
350
CCB
  3
ACAD_GROUP
350
D
  3
ACAD_LAYOUT
350
1A
  3
ACAD_MATERIAL
350
72
  3
ACAD_MLEADERSTYLE
350
8E2
  3
ACAD_MLINESTYLE
350
17
  3
ACAD_PLOTSETTINGS
350
19
  3
ACAD_PLOTSTYLENAME
350
E
  3
ACAD_SCALELIST
350
8C0
  3
ACAD_SECTIONVIEWSTYLE
350
CC9
  3
ACAD_TABLESTYLE
350
8BE
  3
ACAD_VISUALSTYLE
350
8AD
  3
AcadDim
350
7B8
  3
ACDB_RECOMPOSE_DATA
350
D64
  3
AcDbVariableDictionary
350
66
  0
DICTIONARY
  5
8F0
330
2
100
AcDbDictionary
280
     1
281
     1
  3
ACAD_LAYERSTATES
360
8F1
  0
DICTIONARY
  5
91A
330
10
100
AcDbDictionary
280
     1
281
     1
  3
ADSK_XREC_LAYER_RECONCILED
360
91B
  0
DICTIONARY
  5
41E
330
1F
100
AcDbDictionary
280
     1
281
     1
  3
ACAD_SORTENTS
360
60E
  0
DICTIONARY
  5
422
330
407
100
AcDbDictionary
280
     1
281
     1
  3
ACAD_SORTENTS
360
423
  0
DICTIONARY
  5
808
330
7F6
100
AcDbDictionary
280
     1
281
     1
  3
ACAD_SORTENTS
360
809
  0
DICTIONARY
  5
4C3
330
4B4
100
AcDbDictionary
280
     1
281
     1
  3
ACAD_DIMASSOC
360
4CF
  0
DICTIONARY
  5
CBB
330
64C
100
AcDbDictionary
280
     1
281
     1
  3
ACAD_MTEXT_2008_RT
360
D60
  0
DICTIONARY
  5
7B1
330
7AF
100
AcDbDictionary
280
     1
281
     1
  3
ACAD_DIMASSOC
360
7B2
  0
DICTIONARY
  5
B99
330
B8A
100
AcDbDictionary
280
     1
281
     1
  3
ACAD_DIMASSOC
360
BA5
  0
DICTIONARY
  5
983
330
982
100
AcDbDictionary
280
     1
281
     1
  3
ASDK_XREC_ANNOTATION_SCALE_INFO
360
984
  0
DICTIONARY
  5
987
330
986
100
AcDbDictionary
280
     1
281
     1
  3
ASDK_XREC_ANNOTATION_SCALE_INFO
360
988
  0
XRECORD
  5
CD3
102
{ACAD_REACTORS
330
C
102
}
330
C
100
AcDbXrecord
280
     1
300
ACD
300
2014
300
ACD_F_S
  0
DICTIONARY
  5
73
102
{ACAD_REACTORS
330
C
102
}
330
C
100
AcDbDictionary
281
     1
  0
DICTIONARY
  5
CCB
102
{ACAD_REACTORS
330
C
102
}
330
C
100
AcDbDictionary
281
     1
  3
Imperial24
350
CCC
  0
DICTIONARY
  5
D
102
{ACAD_REACTORS
330
C
102
}
330
C
100
AcDbDictionary
281
     1
  0
DICTIONARY
  5
1A
102
{ACAD_REACTORS
330
C
102
}
330
C
100
AcDbDictionary
281
     1
  3
Layout1
350
97C
  3
Model
350
22
  0
DICTIONARY
  5
72
102
{ACAD_REACTORS
330
C
102
}
330
C
100
AcDbDictionary
281
     1
  3
ByBlock
350
89D
  3
ByLayer
350
895
  3
Global
350
8A5
  0
DICTIONARY
  5
8E2
102
{ACAD_REACTORS
330
C
102
}
330
C
100
AcDbDictionary
281
     1
  3
Standard
350
8E3
  0
DICTIONARY
  5
17
102
{ACAD_REACTORS
330
C
102
}
330
C
100
AcDbDictionary
281
     1
  3
Standard
350
18
  0
DICTIONARY
  5
19
102
{ACAD_REACTORS
330
C
102
}
330
C
100
AcDbDictionary
281
     1
  0
ACDBDICTIONARYWDFLT
  5
E
102
{ACAD_REACTORS
330
C
102
}
330
C
100
AcDbDictionary
281
     1
  3
Normal
350
F
100
AcDbDictionaryWithDefault
340
F
  0
DICTIONARY
  5
8C0
102
{ACAD_REACTORS
330
C
102
}
330
C
100
AcDbDictionary
281
     1
  3
A0
350
8C1
  3
A1
350
8C2
  3
A2
350
8C3
  3
A3
350
8C4
  3
A4
350
8C5
  3
A5
350
8C6
  3
A6
350
8C7
  3
A7
350
8C8
  3
A8
350
8C9
  3
A9
350
8CA
  3
B0
350
8CB
  3
B1
350
8CC
  3
B2
350
8CD
  3
B3
350
8CE
  3
B4
350
8CF
  3
B5
350
8D0
  3
B6
350
8D1
  3
B7
350
8D2
  3
B8
350
8D3
  3
B9
350
8D4
  3
C0
350
8D5
  3
C1
350
8D6
  3
C2
350
8D7
  3
C3
350
8D8
  3
C4
350
8D9
  3
C5
350
8DA
  3
C6
350
8DB
  3
C7
350
8DC
  3
C8
350
8DD
  3
C9
350
8DE
  3
D0
350
8DF
  3
D1
350
8E0
  3
D2
350
8E1
  0
DICTIONARY
  5
CC9
102
{ACAD_REACTORS
330
C
102
}
330
C
100
AcDbDictionary
281
     1
  3
Imperial24
350
CCA
  0
DICTIONARY
  5
8BE
102
{ACAD_REACTORS
330
C
102
}
330
C
100
AcDbDictionary
281
     1
  3
Standard
350
8BF
  0
DICTIONARY
  5
8AD
102
{ACAD_REACTORS
330
C
102
}
330
C
100
AcDbDictionary
281
     1
  3
2dWireframe
350
8B3
  3
3D Hidden
350
8B5
  3
3dWireframe
350
8B4
  3
Basic
350
8B2
  3
Brighten
350
8B9
  3
ColorChange
350
8BD
  3
Conceptual
350
8B6
  3
Dim
350
8B8
  3
EdgeColorOff
350
CC8
  3
Facepattern
350
8BC
  3
Flat
350
8AE
  3
FlatWithEdges
350
8AF
  3
Gouraud
350
8B0
  3
GouraudWithEdges
350
8B1
  3
Hidden
350
CC0
  3
JitterOff
350
CC6
  3
Linepattern
350
8BB
  3
OverhangOff
350
CC7
  3
Realistic
350
8B7
  3
Shaded
350
CC5
  3
Shaded with edges
350
CC4
  3
Shades of Gray
350
CC1
  3
Sketchy
350
CC2
  3
Thicken
350
8BA
  3
Wireframe
350
CBF
  3
X-Ray
350
CC3
  0
XRECORD
  5
7B8
102
{ACAD_REACTORS
330
C
102
}
330
C
100
AcDbXrecord
280
     1
 90
   990106
  3

 60
     0
 61
     0
 62
     1
 63
     3
 64
     0
 65
     0
 66
     0
 67
     3
 68
     1
 69
     0
 70
     0
 71
     0
 72
     0
 40
0.0
170
     2
340
7B0
  0
XRECORD
  5
D64
102
{ACAD_REACTORS
330
C
102
}
330
C
100
AcDbXrecord
280
     1
 90
        1
330
64C
330
8BF
330
CCA
330
CCC
  0
DICTIONARY
  5
66
102
{ACAD_REACTORS
330
C
102
}
330
C
100
AcDbDictionary
281
     1
  3
CANNOSCALE
350
92A
  3
CMLEADERSTYLE
350
928
  3
CTABLESTYLE
350
927
  3
CVIEWDETAILSTYLE
350
D00
  3
CVIEWSECTIONSTYLE
350
D01
  3
DIMASSOC
350
67
  3
HIDETEXT
350
6B
  3
LAYEREVAL
350
D02
  3
LAYERNOTIFY
350
D03
  3
LIGHTINGUNITS
350
92B
  3
MSLTSCALE
350
929
  0
DICTIONARY
  5
8F1
102
{ACAD_REACTORS
330
8F0
102
}
330
8F0
100
AcDbDictionary
281
     1
  0
XRECORD
  5
91B
102
{ACAD_REACTORS
330
91A
102
}
330
91A
100
AcDbXrecord
280
     1
290
     1
  0
SORTENTSTABLE
  5
60E
102
{ACAD_REACTORS
330
41E
102
}
330
41E
100
AcDbSortentsTable
330
2
  0
SORTENTSTABLE
  5
423
102
{ACAD_REACTORS
330
422
102
}
330
422
100
AcDbSortentsTable
330
407
  0
SORTENTSTABLE
  5
809
102
{ACAD_REACTORS
330
808
102
}
330
808
100
AcDbSortentsTable
330
7F6
  0
DIMASSOC
  5
4CF
102
{ACAD_REACTORS
330
4C3
102
}
330
4C3
100
AcDbDimAssoc
330
4B4
 90
        2
 70
     0
 71
     0
  1
AcDbOsnapPointRef
 72
     1
331
295
 73
     2
 91
        0
 40
1.0
 10
0.0
 20
0.0
 30
2.000000000000000E+50
 75
     0
  0
XRECORD
  5
D60
102
{ACAD_REACTORS
330
CBB
102
}
330
CBB
100
AcDbXrecord
280
     1
 40
305193.0
  1
NEGATIVE SIDE LEAK REPAIR (WET CONDITION)\P\pxqr;{\H0.64286x;REFER TO APPLICATION INSTRUCTION 5.12}
  0
DIMASSOC
  5
7B2
102
{ACAD_REACTORS
330
7B1
102
}
330
7B1
100
AcDbDimAssoc
330
7AF
 90
        1
 70
     0
 71
     0
  1
AcDbOsnapPointRef
 72
    10
331
39F
 73
     2
 91
        0
 40
0.1614548170246523
 10
0.0
 20
0.0
 30
0.0
 75
     0
  0
DIMASSOC
  5
BA5
102
{ACAD_REACTORS
330
B99
102
}
330
B99
100
AcDbDimAssoc
330
B8A
 90
        1
 70
     0
 71
     0
  1
AcDbOsnapPointRef
 72
     1
331
2E9
 73
     2
 91
        0
 40
1.0
 10
0.0
 20
0.0
 30
2.000000000000000E+50
 75
     0
  0
XRECORD
  5
984
102
{ACAD_REACTORS
330
983
102
}
330
983
100
AcDbXrecord
280
     1
 90
        1
340
8C1
  0
XRECORD
  5
988
102
{ACAD_REACTORS
330
987
102
}
330
987
100
AcDbXrecord
280
     1
 90
        1
340
8C1
  0
ACDBDETAILVIEWSTYLE
  5
CCC
102
{ACAD_XDICTIONARY
360
CFD
102
}
102
{ACAD_REACTORS
330
CCB
102
}
330
CCB
100
AcDbModelDocViewStyle
 70
     0
  3
Imperial24
290
     0
100
AcDbDetailViewStyle
 70
     0
 71
     0
 90
        3
 71
     1
340
11
 62
   256
 40
0.24
340
0
 62
   256
 40
0.24
300

 40
0.36
280
     3
 71
     2
340
16
 90
       25
 62
   256
 71
     3
340
11
 62
   256
 40
0.24
 90
        1
 40
0.75
 90
        1
300
%<\AcVar ViewType \f "%tc1">% %<\AcVar ViewDetailId>%\PSCALE %<\AcVar ViewScale \f "%sn">%
 71
     4
340
16
 90
       25
 62
   256
340
16
 90
       25
 62
   256
280
     0
  0
LAYOUT
  5
97C
102
{ACAD_XDICTIONARY
360
99A
102
}
102
{ACAD_REACTORS
330
1A
102
}
330
1A
100
AcDbPlotSettings
  1

  2
DWG To PDF.pc3
  4
ANSI_A_(11.00_x_8.50_Inches)
  6

 40
5.793749809265136
 41
17.79375076293945
 42
5.79376220703125
 43
17.79374694824219
 44
279.3999938964844
 45
215.8999938964844
 46
0.0
 47
0.0
 48
0.0
 49
0.0
140
0.0
141
0.0
142
1.0
143
1.0
 70
   688
 72
     0
 73
     0
 74
     5
  7

 75
    16
147
1.0
 76
     0
 77
     2
 78
   300
148
0.0
149
0.0
100
AcDbLayout
  1
Layout1
 70
     1
 71
     1
 10
-0.2281003861915408
 20
-0.7005413686196636
 11
10.77189937351257
 21
7.799458391084446
 12
0.0
 22
0.0
 32
0.0
 14
-0.486601385194696
 24
-1.266536316691453
 34
-0.0015258207003583
 15
11.18448767861097
 25
10.08849653101644
 35
0.0000000349246037
146
0.0
 13
0.0
 23
0.0
 33
0.0
 16
1.0
 26
0.0
 36
0.0
 17
0.0
 27
1.0
 37
0.0
 76
     0
330
97B
331
982
1001
ACAD_PSEXT
1000
DWG To PDF.pc3
1000
PDF
1000
File
1000

1070
     0
  0
LAYOUT
  5
22
102
{ACAD_REACTORS
330
1A
102
}
330
1A
100
AcDbPlotSettings
  1

  2
none_device
  4
ANSI_A_(8.50_x_11.00_Inches)
  6

 40
6.349999904632568
 41
19.04999923706055
 42
6.350006103515625
 43
19.04998779296875
 44
215.8999938964844
 45
279.3999938964844
 46
0.0
 47
0.0
 48
0.0
 49
0.0
140
0.0
141
0.0
142
1.0
143
2.584895464708373
 70
 11952
 72
     0
 73
     1
 74
     0
  7

 75
     0
147
0.3868628397755418
 76
     0
 77
     2
 78
   300
148
0.0
149
0.0
100
AcDbLayout
  1
Model
 70
     1
 71
     0
 10
0.0
 20
0.0
 11
12.0
 21
9.0
 12
0.0
 22
0.0
 32
0.0
 14
0.0
 24
0.0
 34
0.0
 15
0.0
 25
0.0
 35
0.0
146
0.0
 13
0.0
 23
0.0
 33
0.0
 16
1.0
 26
0.0
 36
0.0
 17
0.0
 27
1.0
 37
0.0
 76
     0
330
1F
331
893
  0
MATERIAL
  5
89D
102
{ACAD_XDICTIONARY
360
89E
102
}
102
{ACAD_REACTORS
330
72
102
}
330
72
100
AcDbMaterial
  1
ByBlock
 72
     0
 43
0.0008202099737533
 43
0.0
 43
0.0
 43
0.0
 43
0.0
 43
0.0008202099737533
 43
0.0
 43
0.0
 43
0.0
 43
0.0
 43
1.0
 43
0.0
 43
0.0
 43
0.0
 43
0.0
 43
1.0
 77
     0
 47
0.0008202099737533
 47
0.0
 47
0.0
 47
0.0
 47
0.0
 47
0.0008202099737533
 47
0.0
 47
0.0
 47
0.0
 47
0.0
 47
1.0
 47
0.0
 47
0.0
 47
0.0
 47
0.0
 47
1.0
171
     0
 49
0.0008202099737533
 49
0.0
 49
0.0
 49
0.0
 49
0.0
 49
0.0008202099737533
 49
0.0
 49
0.0
 49
0.0
 49
0.0
 49
1.0
 49
0.0
 49
0.0
 49
0.0
 49
0.0
 49
1.0
175
     0
142
0.0008202099737533
142
0.0
142
0.0
142
0.0
142
0.0
142
0.0008202099737533
142
0.0
142
0.0
142
0.0
142
0.0
142
1.0
142
0.0
142
0.0
142
0.0
142
0.0
142
1.0
179
     0
144
0.0008202099737533
144
0.0
144
0.0
144
0.0
144
0.0
144
0.0008202099737533
144
0.0
144
0.0
144
0.0
144
0.0
144
1.0
144
0.0
144
0.0
144
0.0
144
0.0
144
1.0
147
0.0008202099737533
147
0.0
147
0.0
147
0.0
147
0.0
147
0.0008202099737533
147
0.0
147
0.0
147
0.0
147
0.0
147
1.0
147
0.0
147
0.0
147
0.0
147
0.0
147
1.0
  0
MATERIAL
  5
895
102
{ACAD_XDICTIONARY
360
896
102
}
102
{ACAD_REACTORS
330
72
102
}
330
72
100
AcDbMaterial
  1
ByLayer
 72
     0
 43
0.0008202099737533
 43
0.0
 43
0.0
 43
0.0
 43
0.0
 43
0.0008202099737533
 43
0.0
 43
0.0
 43
0.0
 43
0.0
 43
1.0
 43
0.0
 43
0.0
 43
0.0
 43
0.0
 43
1.0
 77
     0
 47
0.0008202099737533
 47
0.0
 47
0.0
 47
0.0
 47
0.0
 47
0.0008202099737533
 47
0.0
 47
0.0
 47
0.0
 47
0.0
 47
1.0
 47
0.0
 47
0.0
 47
0.0
 47
0.0
 47
1.0
171
     0
 49
0.0008202099737533
 49
0.0
 49
0.0
 49
0.0
 49
0.0
 49
0.0008202099737533
 49
0.0
 49
0.0
 49
0.0
 49
0.0
 49
1.0
 49
0.0
 49
0.0
 49
0.0
 49
0.0
 49
1.0
175
     0
142
0.0008202099737533
142
0.0
142
0.0
142
0.0
142
0.0
142
0.0008202099737533
142
0.0
142
0.0
142
0.0
142
0.0
142
1.0
142
0.0
142
0.0
142
0.0
142
0.0
142
1.0
179
     0
144
0.0008202099737533
144
0.0
144
0.0
144
0.0
144
0.0
144
0.0008202099737533
144
0.0
144
0.0
144
0.0
144
0.0
144
1.0
144
0.0
144
0.0
144
0.0
144
0.0
144
1.0
147
0.0008202099737533
147
0.0
147
0.0
147
0.0
147
0.0
147
0.0008202099737533
147
0.0
147
0.0
147
0.0
147
0.0
147
1.0
147
0.0
147
0.0
147
0.0
147
0.0
147
1.0
  0
MATERIAL
  5
8A5
102
{ACAD_XDICTIONARY
360
8A6
102
}
102
{ACAD_REACTORS
330
72
102
}
330
72
100
AcDbMaterial
  1
Global
 72
     0
 43
0.0008202099737533
 43
0.0
 43
0.0
 43
0.0
 43
0.0
 43
0.0008202099737533
 43
0.0
 43
0.0
 43
0.0
 43
0.0
 43
1.0
 43
0.0
 43
0.0
 43
0.0
 43
0.0
 43
1.0
 77
     0
 47
0.0008202099737533
 47
0.0
 47
0.0
 47
0.0
 47
0.0
 47
0.0008202099737533
 47
0.0
 47
0.0
 47
0.0
 47
0.0
 47
1.0
 47
0.0
 47
0.0
 47
0.0
 47
0.0
 47
1.0
171
     0
 49
0.0008202099737533
 49
0.0
 49
0.0
 49
0.0
 49
0.0
 49
0.0008202099737533
 49
0.0
 49
0.0
 49
0.0
 49
0.0
 49
1.0
 49
0.0
 49
0.0
 49
0.0
 49
0.0
 49
1.0
175
     0
142
0.0008202099737533
142
0.0
142
0.0
142
0.0
142
0.0
142
0.0008202099737533
142
0.0
142
0.0
142
0.0
142
0.0
142
1.0
142
0.0
142
0.0
142
0.0
142
0.0
142
1.0
179
     0
144
0.0008202099737533
144
0.0
144
0.0
144
0.0
144
0.0
144
0.0008202099737533
144
0.0
144
0.0
144
0.0
144
0.0
144
1.0
144
0.0
144
0.0
144
0.0
144
0.0
144
1.0
147
0.0008202099737533
147
0.0
147
0.0
147
0.0
147
0.0
147
0.0008202099737533
147
0.0
147
0.0
147
0.0
147
0.0
147
1.0
147
0.0
147
0.0
147
0.0
147
0.0
147
1.0
  0
MLEADERSTYLE
  5
8E3
102
{ACAD_REACTORS
330
8E2
102
}
330
8E2
100
AcDbMLeaderStyle
179
     2
170
     2
171
     1
172
     0
 90
        2
 40
0.0
 41
0.0
173
     1
 91
-1056964608
340
14
 92
       -2
290
     1
 42
0.09
291
     1
 43
0.36
  3
Standard
 44
0.18
300

342
11
174
     1
178
     6
175
     1
176
     0
 93
-1056964608
 45
0.18
292
     0
297
     0
 46
0.18
 94
-1056964608
 47
1.0
 49
1.0
140
1.0
293
     1
141
0.0
294
     1
177
     0
142
1.0
295
     1
296
     0
143
0.125
271
     0
272
     9
273
     9
298
     0
  0
MLINESTYLE
  5
18
102
{ACAD_REACTORS
330
17
102
}
330
17
100
AcDbMlineStyle
  2
STANDARD
 70
     0
  3

 62
   256
 51
90.0
 52
90.0
 71
     2
 49
0.5
 62
   256
  6
BYLAYER
 49
-0.5
 62
   256
  6
BYLAYER
  0
ACDBPLACEHOLDER
  5
F
102
{ACAD_REACTORS
330
E
102
}
330
E
  0
SCALE
  5
8C1
102
{ACAD_REACTORS
330
8C0
102
}
330
8C0
100
AcDbScale
 70
     0
300
1:1
140
1.0
141
1.0
290
     1
  0
SCALE
  5
8C2
102
{ACAD_REACTORS
330
8C0
102
}
330
8C0
100
AcDbScale
 70
     0
300
1:2
140
1.0
141
2.0
290
     0
  0
SCALE
  5
8C3
102
{ACAD_REACTORS
330
8C0
102
}
330
8C0
100
AcDbScale
 70
     0
300
1:4
140
1.0
141
4.0
290
     0
  0
SCALE
  5
8C4
102
{ACAD_REACTORS
330
8C0
102
}
330
8C0
100
AcDbScale
 70
     0
300
1:5
140
1.0
141
5.0
290
     0
  0
SCALE
  5
8C5
102
{ACAD_REACTORS
330
8C0
102
}
330
8C0
100
AcDbScale
 70
     0
300
1:8
140
1.0
141
8.0
290
     0
  0
SCALE
  5
8C6
102
{ACAD_REACTORS
330
8C0
102
}
330
8C0
100
AcDbScale
 70
     0
300
1:10
140
1.0
141
10.0
290
     0
  0
SCALE
  5
8C7
102
{ACAD_REACTORS
330
8C0
102
}
330
8C0
100
AcDbScale
 70
     0
300
1:16
140
1.0
141
16.0
290
     0
  0
SCALE
  5
8C8
102
{ACAD_REACTORS
330
8C0
102
}
330
8C0
100
AcDbScale
 70
     0
300
1:20
140
1.0
141
20.0
290
     0
  0
SCALE
  5
8C9
102
{ACAD_REACTORS
330
8C0
102
}
330
8C0
100
AcDbScale
 70
     0
300
1:30
140
1.0
141
30.0
290
     0
  0
SCALE
  5
8CA
102
{ACAD_REACTORS
330
8C0
102
}
330
8C0
100
AcDbScale
 70
     0
300
1:40
140
1.0
141
40.0
290
     0
  0
SCALE
  5
8CB
102
{ACAD_REACTORS
330
8C0
102
}
330
8C0
100
AcDbScale
 70
     0
300
1:50
140
1.0
141
50.0
290
     0
  0
SCALE
  5
8CC
102
{ACAD_REACTORS
330
8C0
102
}
330
8C0
100
AcDbScale
 70
     0
300
1:100
140
1.0
141
100.0
290
     0
  0
SCALE
  5
8CD
102
{ACAD_REACTORS
330
8C0
102
}
330
8C0
100
AcDbScale
 70
     0
300
2:1
140
2.0
141
1.0
290
     0
  0
SCALE
  5
8CE
102
{ACAD_REACTORS
330
8C0
102
}
330
8C0
100
AcDbScale
 70
     0
300
4:1
140
4.0
141
1.0
290
     0
  0
SCALE
  5
8CF
102
{ACAD_REACTORS
330
8C0
102
}
330
8C0
100
AcDbScale
 70
     0
300
8:1
140
8.0
141
1.0
290
     0
  0
SCALE
  5
8D0
102
{ACAD_REACTORS
330
8C0
102
}
330
8C0
100
AcDbScale
 70
     0
300
10:1
140
10.0
141
1.0
290
     0
  0
SCALE
  5
8D1
102
{ACAD_REACTORS
330
8C0
102
}
330
8C0
100
AcDbScale
 70
     0
300
100:1
140
100.0
141
1.0
290
     0
  0
SCALE
  5
8D2
102
{ACAD_REACTORS
330
8C0
102
}
330
8C0
100
AcDbScale
 70
     0
300
1/128" = 1'-0"
140
0.0078125
141
12.0
290
     0
  0
SCALE
  5
8D3
102
{ACAD_REACTORS
330
8C0
102
}
330
8C0
100
AcDbScale
 70
     0
300
1/64" = 1'-0"
140
0.015625
141
12.0
290
     0
  0
SCALE
  5
8D4
102
{ACAD_REACTORS
330
8C0
102
}
330
8C0
100
AcDbScale
 70
     0
300
1/32" = 1'-0"
140
0.03125
141
12.0
290
     0
  0
SCALE
  5
8D5
102
{ACAD_REACTORS
330
8C0
102
}
330
8C0
100
AcDbScale
 70
     0
300
1/16" = 1'-0"
140
0.0625
141
12.0
290
     0
  0
SCALE
  5
8D6
102
{ACAD_REACTORS
330
8C0
102
}
330
8C0
100
AcDbScale
 70
     0
300
3/32" = 1'-0"
140
0.09375
141
12.0
290
     0
  0
SCALE
  5
8D7
102
{ACAD_REACTORS
330
8C0
102
}
330
8C0
100
AcDbScale
 70
     0
300
1/8" = 1'-0"
140
0.125
141
12.0
290
     0
  0
SCALE
  5
8D8
102
{ACAD_REACTORS
330
8C0
102
}
330
8C0
100
AcDbScale
 70
     0
300
3/16" = 1'-0"
140
0.1875
141
12.0
290
     0
  0
SCALE
  5
8D9
102
{ACAD_REACTORS
330
8C0
102
}
330
8C0
100
AcDbScale
 70
     0
300
1/4" = 1'-0"
140
0.25
141
12.0
290
     0
  0
SCALE
  5
8DA
102
{ACAD_REACTORS
330
8C0
102
}
330
8C0
100
AcDbScale
 70
     0
300
3/8" = 1'-0"
140
0.375
141
12.0
290
     0
  0
SCALE
  5
8DB
102
{ACAD_REACTORS
330
8C0
102
}
330
8C0
100
AcDbScale
 70
     0
300
1/2" = 1'-0"
140
0.5
141
12.0
290
     0
  0
SCALE
  5
8DC
102
{ACAD_REACTORS
330
8C0
102
}
330
8C0
100
AcDbScale
 70
     0
300
3/4" = 1'-0"
140
0.75
141
12.0
290
     0
  0
SCALE
  5
8DD
102
{ACAD_REACTORS
330
8C0
102
}
330
8C0
100
AcDbScale
 70
     0
300
1" = 1'-0"
140
1.0
141
12.0
290
     0
  0
SCALE
  5
8DE
102
{ACAD_REACTORS
330
8C0
102
}
330
8C0
100
AcDbScale
 70
     0
300
1-1/2" = 1'-0"
140
1.5
141
12.0
290
     0
  0
SCALE
  5
8DF
102
{ACAD_REACTORS
330
8C0
102
}
330
8C0
100
AcDbScale
 70
     0
300
3" = 1'-0"
140
3.0
141
12.0
290
     0
  0
SCALE
  5
8E0
102
{ACAD_REACTORS
330
8C0
102
}
330
8C0
100
AcDbScale
 70
     0
300
6" = 1'-0"
140
6.0
141
12.0
290
     0
  0
SCALE
  5
8E1
102
{ACAD_REACTORS
330
8C0
102
}
330
8C0
100
AcDbScale
 70
     0
300
1'-0" = 1'-0"
140
12.0
141
12.0
290
     0
  0
ACDBSECTIONVIEWSTYLE
  5
CCA
102
{ACAD_XDICTIONARY
360
CFB
102
}
102
{ACAD_REACTORS
330
CC9
102
}
330
CC9
100
AcDbModelDocViewStyle
 70
     0
  3
Imperial24
290
     0
100
AcDbSectionViewStyle
 70
     0
 71
     0
 90
       78
 71
     1
340
11
 62
   256
 40
0.24
340
0
340
0
 62
   256
 40
0.24
300
I, O, Q, S, X, Z
 40
0.48
 90
        3
 40
0.18
 90
        1
 71
     2
340
16
 90
       25
 62
   256
340
16
 90
       50
 62
   256
 40
0.24
 40
0.0
 40
0.24
 71
     3
340
11
 62
   256
 40
0.24
 90
        1
 40
0.75
 90
        1
300
%<\AcVar ViewType \f "%tc1">% %<\AcVar ViewSectionStartId>%-%<\AcVar ViewSectionEndId>%\PSCALE %<\AcVar ViewScale \f "%sn">%
 71
     4
 62
   256
 62
   257
300
ANSI31
 40
1.0
 90
        0
290
     0
290
     0
 90
        6
 40
0.0
 40
1.570796326794896
 40
0.2617993877991494
 40
1.308996938995747
 40
-0.2617993877991494
 40
1.832595714594046
  0
TABLESTYLE
  5
8BF
102
{ACAD_XDICTIONARY
360
924
102
}
102
{ACAD_REACTORS
330
8BE
102
}
330
8BE
100
AcDbTableStyle
280
     0
  3
Standard
 70
     0
 71
     0
 40
0.06
 41
0.06
280
     0
281
     0
  7
Standard
140
0.18
170
     2
 62
     0
 63
     7
283
     0
 90
      512
 91
        0
  1

274
    -2
284
     1
 64
     0
275
    -2
285
     1
 65
     0
276
    -2
286
     1
 66
     0
277
    -2
287
     1
 67
     0
278
    -2
288
     1
 68
     0
279
    -2
289
     1
 69
     0
  7
Standard
140
0.25
170
     5
 62
     0
 63
     7
283
     0
 90
      512
 91
        0
  1

274
    -2
284
     1
 64
     0
275
    -2
285
     1
 65
     0
276
    -2
286
     1
 66
     0
277
    -2
287
     1
 67
     0
278
    -2
288
     1
 68
     0
279
    -2
289
     1
 69
     0
  7
Standard
140
0.18
170
     5
 62
     0
 63
     7
283
     0
 90
      512
 91
        0
  1

274
    -2
284
     1
 64
     0
275
    -2
285
     1
 65
     0
276
    -2
286
     1
 66
     0
277
    -2
287
     1
 67
     0
278
    -2
288
     1
 68
     0
279
    -2
289
     1
 69
     0
  0
VISUALSTYLE
  5
8B3
102
{ACAD_REACTORS
330
8AD
102
}
330
8AD
100
AcDbVisualStyle
  2
2dWireframe
 70
     4
177
     3
291
     0
 70
    58
 90
        0
176
     1
 90
        2
176
     1
 90
        0
176
     1
 90
        0
176
     1
 40
0.6
176
     1
 40
30.0
176
     1
 62
     7
420
 16777215
176
     1
 90
        1
176
     1
 90
        4
176
     1
 62
     7
176
     1
 62
   257
176
     1
 90
        1
176
     1
 90
        1
176
     1
 40
1.0
176
     1
 90
        0
176
     1
 62
   257
176
     1
 40
1.0
176
     1
 90
        1
176
     1
 90
        6
176
     1
 90
        2
176
     1
 62
     7
176
     1
 90
        5
176
     1
 90
        0
176
     1
 90
        0
176
     1
290
     0
176
     1
 90
        1
176
     1
 40
0.0
176
     1
 90
        0
176
     1
290
     1
176
     1
290
     1
176
     1
290
     0
176
     1
290
     0
176
     1
290
     0
176
     1
290
     0
176
     1
290
     0
176
     1
290
     0
176
     1
290
     0
176
     1
 90
       50
176
     1
 40
0.0
176
     1
 40
1.0
176
     1
 90
        0
176
     1
 62
    18
420
        0
176
     1
 90
       50
176
     1
 90
        3
176
     1
 62
     5
420
      255
176
     1
290
     0
176
     1
 90
       50
176
     1
 90
       50
176
     1
 90
       50
176
     1
290
     0
176
     1
 90
       50
176
     1
 62
   256
176
     0
 40
1.0
176
     0
 90
        2
176
     1
  1
strokes_ogs.tif
176
     1
290
     0
176
     1
 40
1.0
176
     1
 40
1.0
176
     1
  0
VISUALSTYLE
  5
8B5
102
{ACAD_REACTORS
330
8AD
102
}
330
8AD
100
AcDbVisualStyle
  2
3D Hidden
 70
     6
177
     3
291
     0
 70
    58
 90
        1
176
     1
 90
        2
176
     1
 90
        2
176
     1
 90
        0
176
     1
 40
0.6
176
     1
 40
30.0
176
     1
 62
     7
420
 16777215
176
     1
 90
        2
176
     1
 90
        2
176
     1
 62
     7
176
     1
 62
   257
176
     1
 90
        2
176
     1
 90
        1
176
     1
 40
40.0
176
     1
 90
        0
176
     1
 62
   257
176
     1
 40
1.0
176
     1
 90
        1
176
     1
 90
        6
176
     1
 90
        2
176
     1
 62
     7
176
     1
 90
        3
176
     1
 90
        0
176
     1
 90
        0
176
     1
290
     0
176
     1
 90
        1
176
     1
 40
0.0
176
     1
 90
        0
176
     1
290
     0
176
     1
290
     1
176
     1
290
     1
176
     1
290
     0
176
     1
290
     0
176
     1
290
     0
176
     1
290
     0
176
     1
290
     0
176
     1
290
     0
176
     1
 90
       50
176
     1
 40
0.0
176
     1
 40
1.0
176
     1
 90
        0
176
     1
 62
    18
420
        0
176
     1
 90
       50
176
     1
 90
        3
176
     1
 62
     5
420
      255
176
     1
290
     0
176
     1
 90
       50
176
     1
 90
       50
176
     1
 90
       50
176
     1
290
     0
176
     1
 90
       50
176
     1
 62
   256
176
     0
 40
1.0
176
     0
 90
        2
176
     1
  1
strokes_ogs.tif
176
     1
290
     0
176
     1
 40
1.0
176
     1
 40
1.0
176
     1
  0
VISUALSTYLE
  5
8B4
102
{ACAD_REACTORS
330
8AD
102
}
330
8AD
100
AcDbVisualStyle
  2
3dWireframe
 70
     5
177
     3
291
     0
 70
    58
 90
        0
176
     1
 90
        2
176
     1
 90
        0
176
     1
 90
        0
176
     1
 40
0.6
176
     1
 40
30.0
176
     1
 62
     7
420
 16777215
176
     1
 90
        1
176
     1
 90
        4
176
     1
 62
     7
176
     1
 62
   257
176
     1
 90
        1
176
     1
 90
        1
176
     1
 40
1.0
176
     1
 90
        0
176
     1
 62
   257
176
     1
 40
1.0
176
     1
 90
        1
176
     1
 90
        6
176
     1
 90
        2
176
     1
 62
     7
176
     1
 90
        5
176
     1
 90
        0
176
     1
 90
        0
176
     1
290
     0
176
     1
 90
        1
176
     1
 40
0.0
176
     1
 90
        0
176
     1
290
     0
176
     1
290
     1
176
     1
290
     1
176
     1
290
     0
176
     1
290
     0
176
     1
290
     0
176
     1
290
     0
176
     1
290
     0
176
     1
290
     0
176
     1
 90
       50
176
     1
 40
0.0
176
     1
 40
1.0
176
     1
 90
        0
176
     1
 62
    18
420
        0
176
     1
 90
       50
176
     1
 90
        3
176
     1
 62
     5
420
      255
176
     1
290
     0
176
     1
 90
       50
176
     1
 90
       50
176
     1
 90
       50
176
     1
290
     0
176
     1
 90
       50
176
     1
 62
   256
176
     0
 40
1.0
176
     0
 90
        2
176
     1
  1
strokes_ogs.tif
176
     1
290
     0
176
     1
 40
1.0
176
     1
 40
1.0
176
     1
  0
VISUALSTYLE
  5
8B2
102
{ACAD_REACTORS
330
8AD
102
}
330
8AD
100
AcDbVisualStyle
  2
Basic
 70
     7
177
     3
291
     1
 70
    58
 90
        1
176
     1
 90
        0
176
     1
 90
        1
176
     1
 90
        0
176
     1
 40
0.6
176
     1
 40
30.0
176
     1
 62
     7
420
 16777215
176
     1
 90
        0
176
     1
 90
        4
176
     1
 62
     7
176
     1
 62
   257
176
     1
 90
        1
176
     1
 90
        1
176
     1
 40
1.0
176
     1
 90
        8
176
     1
 62
     7
176
     1
 40
1.0
176
     1
 90
        1
176
     1
 90
        6
176
     1
 90
        2
176
     1
 62
     7
176
     1
 90
        5
176
     1
 90
        0
176
     1
 90
        0
176
     1
290
     0
176
     1
 90
        1
176
     1
 40
0.0
176
     1
 90
        0
176
     1
290
     0
176
     1
290
     1
176
     1
290
     1
176
     1
290
     0
176
     1
290
     0
176
     1
290
     0
176
     1
290
     0
176
     1
290
     0
176
     1
290
     0
176
     1
 90
       50
176
     1
 40
0.0
176
     1
 40
1.0
176
     1
 90
        0
176
     1
 62
    18
420
        0
176
     1
 90
       50
176
     1
 90
        3
176
     1
 62
     5
420
      255
176
     1
290
     0
176
     1
 90
       50
176
     1
 90
       50
176
     1
 90
       50
176
     1
290
     0
176
     1
 90
       50
176
     1
 62
   256
176
     0
 40
1.0
176
     0
 90
        2
176
     1
  1
strokes_ogs.tif
176
     1
290
     0
176
     1
 40
1.0
176
     1
 40
1.0
176
     1
  0
VISUALSTYLE
  5
8B9
102
{ACAD_REACTORS
330
8AD
102
}
330
8AD
100
AcDbVisualStyle
  2
Brighten
 70
    12
177
     3
291
     1
 70
    58
 90
        2
176
     1
 90
        2
176
     1
 90
        0
176
     1
 90
        0
176
     1
 40
0.6
176
     1
 40
30.0
176
     1
 62
     7
420
 16777215
176
     1
 90
        1
176
     1
 90
        4
176
     1
 62
     7
176
     1
 62
   257
176
     1
 90
        1
176
     1
 90
        1
176
     1
 40
1.0
176
     1
 90
        8
176
     1
 62
     7
176
     1
 40
1.0
176
     1
 90
        1
176
     1
 90
        6
176
     1
 90
        2
176
     1
 62
     7
176
     1
 90
        5
176
     1
 90
        0
176
     1
 90
        0
176
     1
290
     0
176
     1
 90
        1
176
     1
 40
50.0
176
     1
 90
        0
176
     1
290
     0
176
     1
290
     1
176
     1
290
     1
176
     1
290
     0
176
     1
290
     0
176
     1
290
     0
176
     1
290
     0
176
     1
290
     0
176
     1
290
     0
176
     1
 90
       50
176
     1
 40
0.0
176
     1
 40
1.0
176
     1
 90
        0
176
     1
 62
    18
420
        0
176
     1
 90
       50
176
     1
 90
        3
176
     1
 62
     5
420
      255
176
     1
290
     0
176
     1
 90
       50
176
     1
 90
       50
176
     1
 90
       50
176
     1
290
     0
176
     1
 90
       50
176
     1
 62
   256
176
     0
 40
1.0
176
     0
 90
        2
176
     1
  1
strokes_ogs.tif
176
     1
290
     0
176
     1
 40
1.0
176
     1
 40
1.0
176
     1
  0
VISUALSTYLE
  5
8BD
102
{ACAD_REACTORS
330
8AD
102
}
330
8AD
100
AcDbVisualStyle
  2
ColorChange
 70
    16
177
     3
291
     1
 70
    58
 90
        2
176
     1
 90
        2
176
     1
 90
        3
176
     1
 90
        0
176
     1
 40
0.6
176
     1
 40
30.0
176
     1
 62
     8
420
  8421504
176
     1
 90
        1
176
     1
 90
        4
176
     1
 62
     7
176
     1
 62
   257
176
     1
 90
        1
176
     1
 90
        1
176
     1
 40
1.0
176
     1
 90
        8
176
     1
 62
     8
420
  8421504
176
     1
 40
1.0
176
     1
 90
        1
176
     1
 90
        6
176
     1
 90
        2
176
     1
 62
     7
176
     1
 90
        5
176
     1
 90
        0
176
     1
 90
        0
176
     1
290
     0
176
     1
 90
        1
176
     1
 40
0.0
176
     1
 90
        0
176
     1
290
     0
176
     1
290
     1
176
     1
290
     1
176
     1
290
     0
176
     1
290
     0
176
     1
290
     0
176
     1
290
     0
176
     1
290
     0
176
     1
290
     0
176
     1
 90
       50
176
     1
 40
0.0
176
     1
 40
1.0
176
     1
 90
        0
176
     1
 62
    18
420
        0
176
     1
 90
       50
176
     1
 90
        3
176
     1
 62
     5
420
      255
176
     1
290
     0
176
     1
 90
       50
176
     1
 90
       50
176
     1
 90
       50
176
     1
290
     0
176
     1
 90
       50
176
     1
 62
   256
176
     0
 40
1.0
176
     0
 90
        2
176
     1
  1
strokes_ogs.tif
176
     1
290
     0
176
     1
 40
1.0
176
     1
 40
1.0
176
     1
  0
VISUALSTYLE
  5
8B6
102
{ACAD_REACTORS
330
8AD
102
}
330
8AD
100
AcDbVisualStyle
  2
Conceptual
 70
     9
177
     3
291
     0
 70
    58
 90
        3
176
     1
 90
        2
176
     1
 90
        0
176
     1
 90
        0
176
     1
 40
0.6
176
     1
 40
30.0
176
     1
 62
     7
420
 16777215
176
     1
 90
        2
176
     1
 90
        2
176
     1
 62
     7
176
     1
 62
   257
176
     1
 90
        1
176
     1
 90
        1
176
     1
 40
40.0
176
     1
 90
        8
176
     1
 62
     7
176
     1
 40
1.0
176
     1
 90
        1
176
     1
 90
        6
176
     1
 90
        2
176
     1
 62
     7
176
     1
 90
        3
176
     1
 90
        0
176
     1
 90
        0
176
     1
290
     0
176
     1
 90
        1
176
     1
 40
0.0
176
     1
 90
        0
176
     1
290
     0
176
     1
290
     1
176
     1
290
     1
176
     1
290
     0
176
     1
290
     0
176
     1
290
     0
176
     1
290
     0
176
     1
290
     0
176
     1
290
     0
176
     1
 90
       50
176
     1
 40
0.0
176
     1
 40
1.0
176
     1
 90
        0
176
     1
 62
    18
420
        0
176
     1
 90
       50
176
     1
 90
        3
176
     1
 62
     5
420
      255
176
     1
290
     0
176
     1
 90
       50
176
     1
 90
       50
176
     1
 90
       50
176
     1
290
     0
176
     1
 90
       50
176
     1
 62
   256
176
     0
 40
1.0
176
     0
 90
        2
176
     1
  1
strokes_ogs.tif
176
     1
290
     0
176
     1
 40
1.0
176
     1
 40
1.0
176
     1
  0
VISUALSTYLE
  5
8B8
102
{ACAD_REACTORS
330
8AD
102
}
330
8AD
100
AcDbVisualStyle
  2
Dim
 70
    11
177
     3
291
     1
 70
    58
 90
        2
176
     1
 90
        2
176
     1
 90
        0
176
     1
 90
        0
176
     1
 40
0.6
176
     1
 40
30.0
176
     1
 62
     7
420
 16777215
176
     1
 90
        1
176
     1
 90
        4
176
     1
 62
     7
176
     1
 62
   257
176
     1
 90
        1
176
     1
 90
        1
176
     1
 40
1.0
176
     1
 90
        8
176
     1
 62
     7
176
     1
 40
1.0
176
     1
 90
        1
176
     1
 90
        6
176
     1
 90
        2
176
     1
 62
     7
176
     1
 90
        5
176
     1
 90
        0
176
     1
 90
        0
176
     1
290
     0
176
     1
 90
        1
176
     1
 40
-50.0
176
     1
 90
        0
176
     1
290
     0
176
     1
290
     1
176
     1
290
     1
176
     1
290
     0
176
     1
290
     0
176
     1
290
     0
176
     1
290
     0
176
     1
290
     0
176
     1
290
     0
176
     1
 90
       50
176
     1
 40
0.0
176
     1
 40
1.0
176
     1
 90
        0
176
     1
 62
    18
420
        0
176
     1
 90
       50
176
     1
 90
        3
176
     1
 62
     5
420
      255
176
     1
290
     0
176
     1
 90
       50
176
     1
 90
       50
176
     1
 90
       50
176
     1
290
     0
176
     1
 90
       50
176
     1
 62
   256
176
     0
 40
1.0
176
     0
 90
        2
176
     1
  1
strokes_ogs.tif
176
     1
290
     0
176
     1
 40
1.0
176
     1
 40
1.0
176
     1
  0
VISUALSTYLE
  5
CC8
102
{ACAD_REACTORS
330
8AD
102
}
330
8AD
100
AcDbVisualStyle
  2
EdgeColorOff
 70
    22
177
     3
291
     1
 70
    58
 90
        2
176
     0
 90
        2
176
     0
 90
        0
176
     0
 90
        0
176
     0
 40
0.6
176
     0
 40
30.0
176
     0
 62
     7
420
 16777215
176
     0
 90
        1
176
     0
 90
        4
176
     0
 62
     7
176
     0
 62
   257
176
     0
 90
        1
176
     0
 90
        1
176
     0
 40
1.0
176
     0
 90
        8
176
     2
 62
     7
176
     0
 40
1.0
176
     0
 90
        1
176
     0
 90
        6
176
     0
 90
        2
176
     0
 62
     7
176
     0
 90
        5
176
     0
 90
        0
176
     0
 90
        0
176
     0
290
     0
176
     0
 90
        1
176
     0
 40
0.0
176
     0
 90
        0
176
     0
290
     0
176
     0
290
     1
176
     0
290
     1
176
     0
290
     0
176
     0
290
     0
176
     0
290
     0
176
     0
290
     0
176
     0
290
     0
176
     0
290
     0
176
     0
 90
       50
176
     0
 40
0.0
176
     0
 40
1.0
176
     0
 90
        0
176
     0
 62
    18
420
        0
176
     0
 90
       50
176
     0
 90
        3
176
     0
 62
     5
420
      255
176
     0
290
     0
176
     0
 90
       50
176
     0
 90
       50
176
     0
 90
       50
176
     0
290
     0
176
     0
 90
       50
176
     0
 62
   256
176
     0
 40
1.0
176
     0
 90
        2
176
     0
  1
strokes_ogs.tif
176
     0
290
     0
176
     0
 40
1.0
176
     0
 40
1.0
176
     0
  0
VISUALSTYLE
  5
8BC
102
{ACAD_REACTORS
330
8AD
102
}
330
8AD
100
AcDbVisualStyle
  2
Facepattern
 70
    15
177
     3
291
     1
 70
    58
 90
        2
176
     1
 90
        2
176
     1
 90
        0
176
     1
 90
        0
176
     1
 40
0.6
176
     1
 40
30.0
176
     1
 62
     7
420
 16777215
176
     1
 90
        1
176
     1
 90
        4
176
     1
 62
     7
176
     1
 62
   257
176
     1
 90
        1
176
     1
 90
        1
176
     1
 40
1.0
176
     1
 90
        8
176
     1
 62
     7
176
     1
 40
1.0
176
     1
 90
        1
176
     1
 90
        6
176
     1
 90
        2
176
     1
 62
     7
176
     1
 90
        5
176
     1
 90
        0
176
     1
 90
        0
176
     1
290
     0
176
     1
 90
        1
176
     1
 40
0.0
176
     1
 90
        0
176
     1
290
     0
176
     1
290
     1
176
     1
290
     1
176
     1
290
     0
176
     1
290
     0
176
     1
290
     0
176
     1
290
     0
176
     1
290
     0
176
     1
290
     0
176
     1
 90
       50
176
     1
 40
0.0
176
     1
 40
1.0
176
     1
 90
        0
176
     1
 62
    18
420
        0
176
     1
 90
       50
176
     1
 90
        3
176
     1
 62
     5
420
      255
176
     1
290
     0
176
     1
 90
       50
176
     1
 90
       50
176
     1
 90
       50
176
     1
290
     0
176
     1
 90
       50
176
     1
 62
   256
176
     0
 40
1.0
176
     0
 90
        2
176
     1
  1
strokes_ogs.tif
176
     1
290
     0
176
     1
 40
1.0
176
     1
 40
1.0
176
     1
  0
VISUALSTYLE
  5
8AE
102
{ACAD_REACTORS
330
8AD
102
}
330
8AD
100
AcDbVisualStyle
  2
Flat
 70
     0
177
     3
291
     1
 70
    58
 90
        2
176
     1
 90
        1
176
     1
 90
        1
176
     1
 90
        2
176
     1
 40
0.6
176
     1
 40
30.0
176
     1
 62
     7
420
 16777215
176
     1
 90
        0
176
     1
 90
        4
176
     1
 62
     7
176
     1
 62
   257
176
     1
 90
        1
176
     1
 90
        1
176
     1
 40
1.0
176
     1
 90
        8
176
     1
 62
     7
176
     1
 40
1.0
176
     1
 90
        1
176
     1
 90
        6
176
     1
 90
        2
176
     1
 62
     7
176
     1
 90
        5
176
     1
 90
        0
176
     1
 90
        0
176
     1
290
     0
176
     1
 90
       13
176
     1
 40
0.0
176
     1
 90
        0
176
     1
290
     0
176
     1
290
     1
176
     1
290
     1
176
     1
290
     0
176
     1
290
     0
176
     1
290
     0
176
     1
290
     0
176
     1
290
     0
176
     1
290
     0
176
     1
 90
       50
176
     1
 40
0.0
176
     1
 40
1.0
176
     1
 90
        0
176
     1
 62
    18
420
        0
176
     1
 90
       50
176
     1
 90
        3
176
     1
 62
     5
420
      255
176
     1
290
     0
176
     1
 90
       50
176
     1
 90
       50
176
     1
 90
       50
176
     1
290
     0
176
     1
 90
       50
176
     1
 62
   256
176
     0
 40
1.0
176
     0
 90
        2
176
     1
  1
strokes_ogs.tif
176
     1
290
     0
176
     1
 40
1.0
176
     1
 40
1.0
176
     1
  0
VISUALSTYLE
  5
8AF
102
{ACAD_REACTORS
330
8AD
102
}
330
8AD
100
AcDbVisualStyle
  2
FlatWithEdges
 70
     1
177
     3
291
     1
 70
    58
 90
        2
176
     1
 90
        1
176
     1
 90
        1
176
     1
 90
        2
176
     1
 40
0.6
176
     1
 40
30.0
176
     1
 62
     7
420
 16777215
176
     1
 90
        1
176
     1
 90
        4
176
     1
 62
     7
176
     1
 62
   257
176
     1
 90
        1
176
     1
 90
        1
176
     1
 40
1.0
176
     1
 90
        0
176
     1
 62
   257
176
     1
 40
1.0
176
     1
 90
        1
176
     1
 90
        6
176
     1
 90
        2
176
     1
 62
     7
176
     1
 90
        5
176
     1
 90
        0
176
     1
 90
        0
176
     1
290
     0
176
     1
 90
       13
176
     1
 40
0.0
176
     1
 90
        0
176
     1
290
     0
176
     1
290
     1
176
     1
290
     1
176
     1
290
     0
176
     1
290
     0
176
     1
290
     0
176
     1
290
     0
176
     1
290
     0
176
     1
290
     0
176
     1
 90
       50
176
     1
 40
0.0
176
     1
 40
1.0
176
     1
 90
        0
176
     1
 62
    18
420
        0
176
     1
 90
       50
176
     1
 90
        3
176
     1
 62
     5
420
      255
176
     1
290
     0
176
     1
 90
       50
176
     1
 90
       50
176
     1
 90
       50
176
     1
290
     0
176
     1
 90
       50
176
     1
 62
   256
176
     0
 40
1.0
176
     0
 90
        2
176
     1
  1
strokes_ogs.tif
176
     1
290
     0
176
     1
 40
1.0
176
     1
 40
1.0
176
     1
  0
VISUALSTYLE
  5
8B0
102
{ACAD_REACTORS
330
8AD
102
}
330
8AD
100
AcDbVisualStyle
  2
Gouraud
 70
     2
177
     3
291
     1
 70
    58
 90
        2
176
     1
 90
        2
176
     1
 90
        1
176
     1
 90
        2
176
     1
 40
0.6
176
     1
 40
30.0
176
     1
 62
     7
420
 16777215
176
     1
 90
        0
176
     1
 90
        4
176
     1
 62
     7
176
     1
 62
   257
176
     1
 90
        1
176
     1
 90
        1
176
     1
 40
1.0
176
     1
 90
        0
176
     1
 62
     7
176
     1
 40
1.0
176
     1
 90
        1
176
     1
 90
        6
176
     1
 90
        2
176
     1
 62
     7
176
     1
 90
        5
176
     1
 90
        0
176
     1
 90
        0
176
     1
290
     0
176
     1
 90
       13
176
     1
 40
0.0
176
     1
 90
        0
176
     1
290
     0
176
     1
290
     1
176
     1
290
     1
176
     1
290
     0
176
     1
290
     0
176
     1
290
     0
176
     1
290
     0
176
     1
290
     0
176
     1
290
     0
176
     1
 90
       50
176
     1
 40
0.0
176
     1
 40
1.0
176
     1
 90
        0
176
     1
 62
    18
420
        0
176
     1
 90
       50
176
     1
 90
        3
176
     1
 62
     5
420
      255
176
     1
290
     0
176
     1
 90
       50
176
     1
 90
       50
176
     1
 90
       50
176
     1
290
     0
176
     1
 90
       50
176
     1
 62
   256
176
     0
 40
1.0
176
     0
 90
        2
176
     1
  1
strokes_ogs.tif
176
     1
290
     0
176
     1
 40
1.0
176
     1
 40
1.0
176
     1
  0
VISUALSTYLE
  5
8B1
102
{ACAD_REACTORS
330
8AD
102
}
330
8AD
100
AcDbVisualStyle
  2
GouraudWithEdges
 70
     3
177
     3
291
     1
 70
    58
 90
        2
176
     1
 90
        2
176
     1
 90
        1
176
     1
 90
        2
176
     1
 40
0.6
176
     1
 40
30.0
176
     1
 62
     7
420
 16777215
176
     1
 90
        1
176
     1
 90
        4
176
     1
 62
     7
176
     1
 62
   257
176
     1
 90
        1
176
     1
 90
        1
176
     1
 40
1.0
176
     1
 90
        0
176
     1
 62
   257
176
     1
 40
1.0
176
     1
 90
        1
176
     1
 90
        6
176
     1
 90
        2
176
     1
 62
     7
176
     1
 90
        5
176
     1
 90
        0
176
     1
 90
        0
176
     1
290
     0
176
     1
 90
       13
176
     1
 40
0.0
176
     1
 90
        0
176
     1
290
     0
176
     1
290
     1
176
     1
290
     1
176
     1
290
     0
176
     1
290
     0
176
     1
290
     0
176
     1
290
     0
176
     1
290
     0
176
     1
290
     0
176
     1
 90
       50
176
     1
 40
0.0
176
     1
 40
1.0
176
     1
 90
        0
176
     1
 62
    18
420
        0
176
     1
 90
       50
176
     1
 90
        3
176
     1
 62
     5
420
      255
176
     1
290
     0
176
     1
 90
       50
176
     1
 90
       50
176
     1
 90
       50
176
     1
290
     0
176
     1
 90
       50
176
     1
 62
   256
176
     0
 40
1.0
176
     0
 90
        2
176
     1
  1
strokes_ogs.tif
176
     1
290
     0
176
     1
 40
1.0
176
     1
 40
1.0
176
     1
  0
VISUALSTYLE
  5
CC0
102
{ACAD_REACTORS
330
8AD
102
}
330
8AD
100
AcDbVisualStyle
  2
Hidden
 70
     6
177
     3
291
     0
 70
    58
 90
        1
176
     1
 90
        2
176
     1
 90
        2
176
     1
 90
        0
176
     1
 40
0.6
176
     1
 40
30.0
176
     1
 62
     7
420
 16777215
176
     1
 90
        2
176
     1
 90
        2
176
     1
 62
     7
176
     1
 62
   257
176
     1
 90
        2
176
     1
 90
        1
176
     1
 40
40.0
176
     1
 90
        0
176
     1
 62
   257
176
     1
 40
1.0
176
     1
 90
        1
176
     1
 90
        6
176
     1
 90
        2
176
     1
 62
     7
176
     1
 90
        3
176
     1
 90
        0
176
     1
 90
        0
176
     1
290
     0
176
     1
 90
        1
176
     1
 40
0.0
176
     1
 90
        0
176
     1
290
     0
176
     1
290
     1
176
     1
290
     1
176
     1
290
     0
176
     1
290
     0
176
     1
290
     0
176
     1
290
     0
176
     1
290
     0
176
     1
290
     0
176
     1
 90
       50
176
     1
 40
0.0
176
     1
 40
1.0
176
     1
 90
        0
176
     1
 62
    18
420
        0
176
     1
 90
       50
176
     1
 90
        3
176
     1
 62
     5
420
      255
176
     1
290
     0
176
     1
 90
       50
176
     1
 90
       50
176
     1
 90
       50
176
     1
290
     0
176
     1
 90
       50
176
     1
 62
   256
176
     0
 40
1.0
176
     0
 90
        2
176
     1
  1
strokes_ogs.tif
176
     1
290
     0
176
     1
 40
1.0
176
     1
 40
1.0
176
     1
  0
VISUALSTYLE
  5
CC6
102
{ACAD_REACTORS
330
8AD
102
}
330
8AD
100
AcDbVisualStyle
  2
JitterOff
 70
    20
177
     3
291
     1
 70
    58
 90
        2
176
     0
 90
        2
176
     0
 90
        0
176
     0
 90
        0
176
     0
 40
0.6
176
     0
 40
30.0
176
     0
 62
     7
420
 16777215
176
     0
 90
        1
176
     0
 90
        4
176
     0
 62
     7
176
     0
 62
   257
176
     0
 90
        1
176
     0
 90
        1
176
     0
 40
1.0
176
     0
 90
       10
176
     2
 62
     7
176
     0
 40
1.0
176
     0
 90
        1
176
     0
 90
        6
176
     0
 90
        2
176
     0
 62
     7
176
     0
 90
        5
176
     0
 90
        0
176
     0
 90
        0
176
     0
290
     0
176
     0
 90
        1
176
     0
 40
0.0
176
     0
 90
        0
176
     0
290
     0
176
     0
290
     1
176
     0
290
     1
176
     0
290
     0
176
     0
290
     0
176
     0
290
     0
176
     0
290
     0
176
     0
290
     0
176
     0
290
     0
176
     0
 90
       50
176
     0
 40
0.0
176
     0
 40
1.0
176
     0
 90
        0
176
     0
 62
    18
420
        0
176
     0
 90
       50
176
     0
 90
        3
176
     0
 62
     5
420
      255
176
     0
290
     0
176
     0
 90
       50
176
     0
 90
       50
176
     0
 90
       50
176
     0
290
     0
176
     0
 90
       50
176
     0
 62
   256
176
     0
 40
1.0
176
     0
 90
        2
176
     0
  1
strokes_ogs.tif
176
     0
290
     0
176
     0
 40
1.0
176
     0
 40
1.0
176
     0
  0
VISUALSTYLE
  5
8BB
102
{ACAD_REACTORS
330
8AD
102
}
330
8AD
100
AcDbVisualStyle
  2
Linepattern
 70
    14
177
     3
291
     1
 70
    58
 90
        2
176
     1
 90
        2
176
     1
 90
        0
176
     1
 90
        0
176
     1
 40
0.6
176
     1
 40
30.0
176
     1
 62
     7
420
 16777215
176
     1
 90
        1
176
     1
 90
        4
176
     1
 62
     7
176
     1
 62
   257
176
     1
 90
        7
176
     1
 90
        7
176
     1
 40
1.0
176
     1
 90
        8
176
     1
 62
     7
176
     1
 40
1.0
176
     1
 90
        1
176
     1
 90
        6
176
     1
 90
        2
176
     1
 62
     7
176
     1
 90
        5
176
     1
 90
        0
176
     1
 90
        0
176
     1
290
     0
176
     1
 90
        1
176
     1
 40
0.0
176
     1
 90
        0
176
     1
290
     0
176
     1
290
     1
176
     1
290
     1
176
     1
290
     0
176
     1
290
     0
176
     1
290
     0
176
     1
290
     0
176
     1
290
     0
176
     1
290
     0
176
     1
 90
       50
176
     1
 40
0.0
176
     1
 40
1.0
176
     1
 90
        0
176
     1
 62
    18
420
        0
176
     1
 90
       50
176
     1
 90
        3
176
     1
 62
     5
420
      255
176
     1
290
     0
176
     1
 90
       50
176
     1
 90
       50
176
     1
 90
       50
176
     1
290
     0
176
     1
 90
       50
176
     1
 62
   256
176
     0
 40
1.0
176
     0
 90
        2
176
     1
  1
strokes_ogs.tif
176
     1
290
     0
176
     1
 40
1.0
176
     1
 40
1.0
176
     1
  0
VISUALSTYLE
  5
CC7
102
{ACAD_REACTORS
330
8AD
102
}
330
8AD
100
AcDbVisualStyle
  2
OverhangOff
 70
    21
177
     3
291
     1
 70
    58
 90
        2
176
     0
 90
        2
176
     0
 90
        0
176
     0
 90
        0
176
     0
 40
0.6
176
     0
 40
30.0
176
     0
 62
     7
420
 16777215
176
     0
 90
        1
176
     0
 90
        4
176
     0
 62
     7
176
     0
 62
   257
176
     0
 90
        1
176
     0
 90
        1
176
     0
 40
1.0
176
     0
 90
        9
176
     2
 62
     7
176
     0
 40
1.0
176
     0
 90
        1
176
     0
 90
        6
176
     0
 90
        2
176
     0
 62
     7
176
     0
 90
        5
176
     0
 90
        0
176
     0
 90
        0
176
     0
290
     0
176
     0
 90
        1
176
     0
 40
0.0
176
     0
 90
        0
176
     0
290
     0
176
     0
290
     1
176
     0
290
     1
176
     0
290
     0
176
     0
290
     0
176
     0
290
     0
176
     0
290
     0
176
     0
290
     0
176
     0
290
     0
176
     0
 90
       50
176
     0
 40
0.0
176
     0
 40
1.0
176
     0
 90
        0
176
     0
 62
    18
420
        0
176
     0
 90
       50
176
     0
 90
        3
176
     0
 62
     5
420
      255
176
     0
290
     0
176
     0
 90
       50
176
     0
 90
       50
176
     0
 90
       50
176
     0
290
     0
176
     0
 90
       50
176
     0
 62
   256
176
     0
 40
1.0
176
     0
 90
        2
176
     0
  1
strokes_ogs.tif
176
     0
290
     0
176
     0
 40
1.0
176
     0
 40
1.0
176
     0
  0
VISUALSTYLE
  5
8B7
102
{ACAD_REACTORS
330
8AD
102
}
330
8AD
100
AcDbVisualStyle
  2
Realistic
 70
     8
177
     3
291
     0
 70
    58
 90
        2
176
     1
 90
        2
176
     1
 90
        0
176
     1
 90
        0
176
     1
 40
0.6
176
     1
 40
30.0
176
     1
 62
     7
420
 16777215
176
     1
 90
        1
176
     1
 90
        0
176
     1
 62
     7
176
     1
 62
   257
176
     1
 90
        1
176
     1
 90
        1
176
     1
 40
1.0
176
     1
 90
        8
176
     1
 62
     8
420
  7895160
176
     1
 40
1.0
176
     1
 90
        1
176
     1
 90
        6
176
     1
 90
        2
176
     1
 62
     7
176
     1
 90
        5
176
     1
 90
        0
176
     1
 90
        0
176
     1
290
     0
176
     1
 90
       13
176
     1
 40
0.0
176
     1
 90
        0
176
     1
290
     0
176
     1
290
     1
176
     1
290
     1
176
     1
290
     0
176
     1
290
     0
176
     1
290
     0
176
     1
290
     0
176
     1
290
     0
176
     1
290
     0
176
     1
 90
       50
176
     1
 40
0.0
176
     1
 40
1.0
176
     1
 90
        0
176
     1
 62
    18
420
        0
176
     1
 90
       50
176
     1
 90
        3
176
     1
 62
     5
420
      255
176
     1
290
     0
176
     1
 90
       50
176
     1
 90
       50
176
     1
 90
       50
176
     1
290
     0
176
     1
 90
       50
176
     1
 62
   256
176
     0
 40
1.0
176
     0
 90
        2
176
     1
  1
strokes_ogs.tif
176
     1
290
     0
176
     1
 40
1.0
176
     1
 40
1.0
176
     1
  0
VISUALSTYLE
  5
CC5
102
{ACAD_REACTORS
330
8AD
102
}
330
8AD
100
AcDbVisualStyle
  2
Shaded
 70
    27
177
     3
291
     0
 70
    58
 90
        2
176
     1
 90
        2
176
     1
 90
        1
176
     1
 90
        2
176
     1
 40
0.6
176
     1
 40
30.0
176
     1
 62
     7
420
 16777215
176
     1
 90
        0
176
     1
 90
        4
176
     1
 62
     7
176
     1
 62
   257
176
     1
 90
        1
176
     1
 90
        1
176
     1
 40
1.0
176
     1
 90
        8
176
     1
 62
   257
176
     1
 40
1.0
176
     1
 90
        1
176
     1
 90
        6
176
     1
 90
        2
176
     1
 62
     8
420
  7895160
176
     1
 90
        3
176
     1
 90
        0
176
     1
 90
        0
176
     1
290
     0
176
     1
 90
        5
176
     1
 40
0.0
176
     1
 90
        0
176
     1
290
     0
176
     1
290
     1
176
     1
290
     1
176
     1
290
     0
176
     1
290
     0
176
     1
290
     0
176
     1
290
     0
176
     1
290
     0
176
     1
290
     0
176
     1
 90
       50
176
     1
 40
0.0
176
     1
 40
1.0
176
     1
 90
        0
176
     1
 62
    18
420
        0
176
     1
 90
       50
176
     1
 90
        3
176
     1
 62
     5
420
      255
176
     1
290
     0
176
     1
 90
       50
176
     1
 90
       50
176
     1
 90
       50
176
     1
290
     0
176
     1
 90
       50
176
     1
 62
   256
176
     0
 40
1.0
176
     0
 90
        2
176
     1
  1
strokes_ogs.tif
176
     1
290
     0
176
     1
 40
1.0
176
     1
 40
1.0
176
     1
  0
VISUALSTYLE
  5
CC4
102
{ACAD_REACTORS
330
8AD
102
}
330
8AD
100
AcDbVisualStyle
  2
Shaded with edges
 70
    26
177
     3
291
     0
 70
    58
 90
        2
176
     1
 90
        2
176
     1
 90
        1
176
     1
 90
        2
176
     1
 40
0.6
176
     1
 40
30.0
176
     1
 62
     7
420
 16777215
176
     1
 90
        1
176
     1
 90
       10
176
     1
 62
     7
176
     1
 62
   257
176
     1
 90
        2
176
     1
 90
        1
176
     1
 40
1.0
176
     1
 90
        8
176
     1
 62
   257
176
     1
 40
1.0
176
     1
 90
        1
176
     1
 90
        6
176
     1
 90
        2
176
     1
 62
     7
176
     1
 90
        3
176
     1
 90
        0
176
     1
 90
        0
176
     1
290
     0
176
     1
 90
        5
176
     1
 40
0.0
176
     1
 90
        0
176
     1
290
     0
176
     1
290
     1
176
     1
290
     1
176
     1
290
     0
176
     1
290
     0
176
     1
290
     0
176
     1
290
     0
176
     1
290
     0
176
     1
290
     0
176
     1
 90
       50
176
     1
 40
0.0
176
     1
 40
1.0
176
     1
 90
        0
176
     1
 62
    18
420
        0
176
     1
 90
       50
176
     1
 90
        3
176
     1
 62
     5
420
      255
176
     1
290
     0
176
     1
 90
       50
176
     1
 90
       50
176
     1
 90
       50
176
     1
290
     0
176
     1
 90
       50
176
     1
 62
   256
176
     0
 40
1.0
176
     0
 90
        2
176
     1
  1
strokes_ogs.tif
176
     1
290
     0
176
     1
 40
1.0
176
     1
 40
1.0
176
     1
  0
VISUALSTYLE
  5
CC1
102
{ACAD_REACTORS
330
8AD
102
}
330
8AD
100
AcDbVisualStyle
  2
Shades of Gray
 70
    23
177
     3
291
     0
 70
    58
 90
        2
176
     1
 90
        2
176
     1
 90
        3
176
     1
 90
        0
176
     1
 40
0.6
176
     1
 40
30.0
176
     1
 62
     7
420
 16777215
176
     1
 90
        2
176
     1
 90
        2
176
     1
 62
     7
176
     1
 62
     7
176
     1
 90
        1
176
     1
 90
        1
176
     1
 40
40.0
176
     1
 90
        8
176
     1
 62
     7
176
     1
 40
1.0
176
     1
 90
        1
176
     1
 90
        6
176
     1
 90
        2
176
     1
 62
     7
176
     1
 90
        3
176
     1
 90
        0
176
     1
 90
        0
176
     1
290
     0
176
     1
 90
        1
176
     1
 40
0.0
176
     1
 90
        0
176
     1
290
     0
176
     1
290
     1
176
     1
290
     1
176
     1
290
     0
176
     1
290
     0
176
     1
290
     0
176
     1
290
     0
176
     1
290
     0
176
     1
290
     0
176
     1
 90
       50
176
     1
 40
0.0
176
     1
 40
1.0
176
     1
 90
        0
176
     1
 62
    18
420
        0
176
     1
 90
       50
176
     1
 90
        3
176
     1
 62
     5
420
      255
176
     1
290
     0
176
     1
 90
       50
176
     1
 90
       50
176
     1
 90
       50
176
     1
290
     0
176
     1
 90
       50
176
     1
 62
   256
176
     0
 40
1.0
176
     0
 90
        2
176
     1
  1
strokes_ogs.tif
176
     1
290
     0
176
     1
 40
1.0
176
     1
 40
1.0
176
     1
  0
VISUALSTYLE
  5
CC2
102
{ACAD_REACTORS
330
8AD
102
}
330
8AD
100
AcDbVisualStyle
  2
Sketchy
 70
    24
177
     3
291
     0
 70
    58
 90
        1
176
     1
 90
        2
176
     1
 90
        2
176
     1
 90
        0
176
     1
 40
0.6
176
     1
 40
30.0
176
     1
 62
     7
420
 16777215
176
     1
 90
        2
176
     1
 90
        2
176
     1
 62
     7
176
     1
 62
     7
176
     1
 90
        1
176
     1
 90
        1
176
     1
 40
40.0
176
     1
 90
       11
176
     1
 62
     7
176
     1
 40
1.0
176
     1
 90
        1
176
     1
 90
        6
176
     1
 90
        2
176
     1
 62
     7
176
     1
 90
        6
176
     1
 90
        0
176
     1
 90
        0
176
     1
290
     0
176
     1
 90
        1
176
     1
 40
0.0
176
     1
 90
        0
176
     1
290
     0
176
     1
290
     1
176
     1
290
     1
176
     1
290
     0
176
     1
290
     0
176
     1
290
     0
176
     1
290
     0
176
     1
290
     0
176
     1
290
     0
176
     1
 90
       50
176
     1
 40
0.0
176
     1
 40
1.0
176
     1
 90
        0
176
     1
 62
    18
420
        0
176
     1
 90
       50
176
     1
 90
        3
176
     1
 62
     5
420
      255
176
     1
290
     0
176
     1
 90
       50
176
     1
 90
       50
176
     1
 90
       50
176
     1
290
     0
176
     1
 90
       50
176
     1
 62
   256
176
     0
 40
1.0
176
     0
 90
        2
176
     1
  1
strokes_ogs.tif
176
     1
290
     0
176
     1
 40
1.0
176
     1
 40
1.0
176
     1
  0
VISUALSTYLE
  5
8BA
102
{ACAD_REACTORS
330
8AD
102
}
330
8AD
100
AcDbVisualStyle
  2
Thicken
 70
    13
177
     3
291
     1
 70
    58
 90
        2
176
     1
 90
        2
176
     1
 90
        0
176
     1
 90
        0
176
     1
 40
0.6
176
     1
 40
30.0
176
     1
 62
     7
420
 16777215
176
     1
 90
        1
176
     1
 90
        4
176
     1
 62
     7
176
     1
 62
   257
176
     1
 90
        1
176
     1
 90
        1
176
     1
 40
1.0
176
     1
 90
       12
176
     1
 62
     7
176
     1
 40
1.0
176
     1
 90
        1
176
     1
 90
        6
176
     1
 90
        2
176
     1
 62
     7
176
     1
 90
        5
176
     1
 90
        0
176
     1
 90
        0
176
     1
290
     0
176
     1
 90
        1
176
     1
 40
0.0
176
     1
 90
        0
176
     1
290
     0
176
     1
290
     1
176
     1
290
     1
176
     1
290
     0
176
     1
290
     0
176
     1
290
     0
176
     1
290
     0
176
     1
290
     0
176
     1
290
     0
176
     1
 90
       50
176
     1
 40
0.0
176
     1
 40
1.0
176
     1
 90
        0
176
     1
 62
    18
420
        0
176
     1
 90
       50
176
     1
 90
        3
176
     1
 62
     5
420
      255
176
     1
290
     0
176
     1
 90
       50
176
     1
 90
       50
176
     1
 90
       50
176
     1
290
     0
176
     1
 90
       50
176
     1
 62
   256
176
     0
 40
1.0
176
     0
 90
        2
176
     1
  1
strokes_ogs.tif
176
     1
290
     0
176
     1
 40
1.0
176
     1
 40
1.0
176
     1
  0
VISUALSTYLE
  5
CBF
102
{ACAD_REACTORS
330
8AD
102
}
330
8AD
100
AcDbVisualStyle
  2
Wireframe
 70
     5
177
     3
291
     0
 70
    58
 90
        0
176
     1
 90
        2
176
     1
 90
        0
176
     1
 90
        0
176
     1
 40
0.6
176
     1
 40
30.0
176
     1
 62
     7
420
 16777215
176
     1
 90
        1
176
     1
 90
        4
176
     1
 62
     7
176
     1
 62
   257
176
     1
 90
        1
176
     1
 90
        1
176
     1
 40
1.0
176
     1
 90
        0
176
     1
 62
   257
176
     1
 40
1.0
176
     1
 90
        1
176
     1
 90
        6
176
     1
 90
        2
176
     1
 62
     7
176
     1
 90
        3
176
     1
 90
        0
176
     1
 90
        0
176
     1
290
     0
176
     1
 90
        1
176
     1
 40
0.0
176
     1
 90
        0
176
     1
290
     0
176
     1
290
     1
176
     1
290
     1
176
     1
290
     0
176
     1
290
     0
176
     1
290
     0
176
     1
290
     0
176
     1
290
     0
176
     1
290
     0
176
     1
 90
       50
176
     1
 40
0.0
176
     1
 40
1.0
176
     1
 90
        0
176
     1
 62
    18
420
        0
176
     1
 90
       50
176
     1
 90
        3
176
     1
 62
     5
420
      255
176
     1
290
     0
176
     1
 90
       50
176
     1
 90
       50
176
     1
 90
       50
176
     1
290
     0
176
     1
 90
       50
176
     1
 62
   256
176
     0
 40
1.0
176
     0
 90
        2
176
     1
  1
strokes_ogs.tif
176
     1
290
     0
176
     1
 40
1.0
176
     1
 40
1.0
176
     1
  0
VISUALSTYLE
  5
CC3
102
{ACAD_REACTORS
330
8AD
102
}
330
8AD
100
AcDbVisualStyle
  2
X-Ray
 70
    25
177
     3
291
     0
 70
    58
 90
        2
176
     1
 90
        2
176
     1
 90
        1
176
     1
 90
        1
176
     1
 40
0.5
176
     1
 40
30.0
176
     1
 62
     7
420
 16777215
176
     1
 90
        1
176
     1
 90
        0
176
     1
 62
     7
176
     1
 62
   257
176
     1
 90
        1
176
     1
 90
        1
176
     1
 40
1.0
176
     1
 90
        8
176
     1
 62
     7
176
     1
 40
1.0
176
     1
 90
        1
176
     1
 90
        6
176
     1
 90
        2
176
     1
 62
     7
176
     1
 90
        3
176
     1
 90
        0
176
     1
 90
        0
176
     1
290
     0
176
     1
 90
       13
176
     1
 40
0.0
176
     1
 90
        0
176
     1
290
     0
176
     1
290
     1
176
     1
290
     1
176
     1
290
     0
176
     1
290
     0
176
     1
290
     0
176
     1
290
     0
176
     1
290
     0
176
     1
290
     0
176
     1
 90
       50
176
     1
 40
0.0
176
     1
 40
1.0
176
     1
 90
        0
176
     1
 62
    18
420
        0
176
     1
 90
       50
176
     1
 90
        3
176
     1
 62
     5
420
      255
176
     1
290
     0
176
     1
 90
       50
176
     1
 90
       50
176
     1
 90
       50
176
     1
290
     0
176
     1
 90
       50
176
     1
 62
   256
176
     0
 40
1.0
176
     0
 90
        2
176
     1
  1
strokes_ogs.tif
176
     1
290
     0
176
     1
 40
1.0
176
     1
 40
1.0
176
     1
  0
DICTIONARYVAR
  5
92A
102
{ACAD_REACTORS
330
66
102
}
330
66
100
DictionaryVariables
280
     0
  1
1:1
  0
DICTIONARYVAR
  5
928
102
{ACAD_REACTORS
330
66
102
}
330
66
100
DictionaryVariables
280
     0
  1
STANDARD
  0
DICTIONARYVAR
  5
927
102
{ACAD_REACTORS
330
66
102
}
330
66
100
DictionaryVariables
280
     0
  1
STANDARD
  0
DICTIONARYVAR
  5
D00
102
{ACAD_REACTORS
330
66
102
}
330
66
100
DictionaryVariables
280
     0
  1
Imperial24
  0
DICTIONARYVAR
  5
D01
102
{ACAD_REACTORS
330
66
102
}
330
66
100
DictionaryVariables
280
     0
  1
Imperial24
  0
DICTIONARYVAR
  5
67
102
{ACAD_REACTORS
330
66
102
}
330
66
100
DictionaryVariables
280
     0
  1
2
  0
DICTIONARYVAR
  5
6B
102
{ACAD_REACTORS
330
66
102
}
330
66
100
DictionaryVariables
280
     0
  1
1
  0
DICTIONARYVAR
  5
D02
102
{ACAD_REACTORS
330
66
102
}
330
66
100
DictionaryVariables
280
     0
  1
1
  0
DICTIONARYVAR
  5
D03
102
{ACAD_REACTORS
330
66
102
}
330
66
100
DictionaryVariables
280
     0
  1
15
  0
DICTIONARYVAR
  5
92B
102
{ACAD_REACTORS
330
66
102
}
330
66
100
DictionaryVariables
280
     0
  1
0
  0
DICTIONARYVAR
  5
929
102
{ACAD_REACTORS
330
66
102
}
330
66
100
DictionaryVariables
280
     0
  1
0
  0
DICTIONARY
  5
CFD
330
CCC
100
AcDbDictionary
280
     1
281
     1
  3
ACAD_XREC_ROUNDTRIP
360
D63
  0
DICTIONARY
  5
99A
330
97C
100
AcDbDictionary
280
     1
281
     1
  0
DICTIONARY
  5
89E
330
89D
100
AcDbDictionary
280
     1
281
     1
  3
BUMPTILE
360
8A0
  3
DIFFUSETILE
360
89F
  3
OPACITYTILE
360
8A3
  3
REFLECTIONTILE
360
8A2
  3
REFRACTIONTILE
360
8A4
  3
SPECULARTILE
360
8A1
  0
DICTIONARY
  5
896
330
895
100
AcDbDictionary
280
     1
281
     1
  3
BUMPTILE
360
898
  3
DIFFUSETILE
360
897
  3
OPACITYTILE
360
89B
  3
REFLECTIONTILE
360
89A
  3
REFRACTIONTILE
360
89C
  3
SPECULARTILE
360
899
  0
DICTIONARY
  5
8A6
330
8A5
100
AcDbDictionary
280
     1
281
     1
  3
BUMPTILE
360
8A8
  3
DIFFUSETILE
360
8A7
  3
OPACITYTILE
360
8AB
  3
REFLECTIONTILE
360
8AA
  3
REFRACTIONTILE
360
8AC
  3
SPECULARTILE
360
8A9
  0
DICTIONARY
  5
CFB
330
CCA
100
AcDbDictionary
280
     1
281
     1
  3
ACAD_XREC_ROUNDTRIP
360
D62
  0
DICTIONARY
  5
924
330
8BF
100
AcDbDictionary
280
     1
281
     1
  3
ACAD_ROUNDTRIP_2008_TABLESTYLE_CELLSTYLEMAP
360
D61
  0
XRECORD
  5
D63
102
{ACAD_REACTORS
330
CFD
102
}
330
CFD
100
AcDbXrecord
280
     1
102
DISPLAYNAME
  1
Imperial24
102
FLAGS
 90
        0
  0
XRECORD
  5
8A0
102
{ACAD_REACTORS
330
89E
102
}
330
89E
100
AcDbXrecord
280
     1
270
     1
271
     1
  0
XRECORD
  5
89F
102
{ACAD_REACTORS
330
89E
102
}
330
89E
100
AcDbXrecord
280
     1
270
     1
271
     1
  0
XRECORD
  5
8A3
102
{ACAD_REACTORS
330
89E
102
}
330
89E
100
AcDbXrecord
280
     1
270
     1
271
     1
  0
XRECORD
  5
8A2
102
{ACAD_REACTORS
330
89E
102
}
330
89E
100
AcDbXrecord
280
     1
270
     1
271
     1
  0
XRECORD
  5
8A4
102
{ACAD_REACTORS
330
89E
102
}
330
89E
100
AcDbXrecord
280
     1
270
     1
271
     1
  0
XRECORD
  5
8A1
102
{ACAD_REACTORS
330
89E
102
}
330
89E
100
AcDbXrecord
280
     1
270
     1
271
     1
  0
XRECORD
  5
898
102
{ACAD_REACTORS
330
896
102
}
330
896
100
AcDbXrecord
280
     1
270
     1
271
     1
  0
XRECORD
  5
897
102
{ACAD_REACTORS
330
896
102
}
330
896
100
AcDbXrecord
280
     1
270
     1
271
     1
  0
XRECORD
  5
89B
102
{ACAD_REACTORS
330
896
102
}
330
896
100
AcDbXrecord
280
     1
270
     1
271
     1
  0
XRECORD
  5
89A
102
{ACAD_REACTORS
330
896
102
}
330
896
100
AcDbXrecord
280
     1
270
     1
271
     1
  0
XRECORD
  5
89C
102
{ACAD_REACTORS
330
896
102
}
330
896
100
AcDbXrecord
280
     1
270
     1
271
     1
  0
XRECORD
  5
899
102
{ACAD_REACTORS
330
896
102
}
330
896
100
AcDbXrecord
280
     1
270
     1
271
     1
  0
XRECORD
  5
8A8
102
{ACAD_REACTORS
330
8A6
102
}
330
8A6
100
AcDbXrecord
280
     1
270
     1
271
     1
  0
XRECORD
  5
8A7
102
{ACAD_REACTORS
330
8A6
102
}
330
8A6
100
AcDbXrecord
280
     1
270
     1
271
     1
  0
XRECORD
  5
8AB
102
{ACAD_REACTORS
330
8A6
102
}
330
8A6
100
AcDbXrecord
280
     1
270
     1
271
     1
  0
XRECORD
  5
8AA
102
{ACAD_REACTORS
330
8A6
102
}
330
8A6
100
AcDbXrecord
280
     1
270
     1
271
     1
  0
XRECORD
  5
8AC
102
{ACAD_REACTORS
330
8A6
102
}
330
8A6
100
AcDbXrecord
280
     1
270
     1
271
     1
  0
XRECORD
  5
8A9
102
{ACAD_REACTORS
330
8A6
102
}
330
8A6
100
AcDbXrecord
280
     1
270
     1
271
     1
  0
XRECORD
  5
D62
102
{ACAD_REACTORS
330
CFB
102
}
330
CFB
100
AcDbXrecord
280
     1
102
DISPLAYNAME
  1
Imperial24
102
FLAGS
 90
        0
  0
CELLSTYLEMAP
  5
D61
102
{ACAD_REACTORS
330
924
102
}
330
924
100
AcDbCellStyleMap
 90
        3
300
CELLSTYLE
  1
TABLEFORMAT_BEGIN
 90
        5
170
     1
 91
        0
 92
    32768
 62
   257
 93
        1
300
CONTENTFORMAT
  1
CONTENTFORMAT_BEGIN
 90
        0
 91
        0
 92
      512
 93
        0
300

 40
0.0
140
1.0
 94
        5
 62
     0
340
11
144
0.25
309
CONTENTFORMAT_END
171
     0
 94
        0
309
TABLEFORMAT_END
  1
CELLSTYLE_BEGIN
 90
        1
 91
        1
300
_TITLE
309
CELLSTYLE_END
300
CELLSTYLE
  1
TABLEFORMAT_BEGIN
 90
        5
170
     1
 91
        0
 92
        0
 62
   257
 93
        1
300
CONTENTFORMAT
  1
CONTENTFORMAT_BEGIN
 90
        0
 91
        0
 92
      512
 93
        0
300

 40
0.0
140
1.0
 94
        5
 62
     0
340
11
144
0.18
309
CONTENTFORMAT_END
171
     0
 94
        0
309
TABLEFORMAT_END
  1
CELLSTYLE_BEGIN
 90
        2
 91
        1
300
_HEADER
309
CELLSTYLE_END
300
CELLSTYLE
  1
TABLEFORMAT_BEGIN
 90
        5
170
     1
 91
        0
 92
        0
 62
   257
 93
        1
300
CONTENTFORMAT
  1
CONTENTFORMAT_BEGIN
 90
        0
 91
        0
 92
      512
 93
        0
300

 40
0.0
140
1.0
 94
        2
 62
     0
340
11
144
0.18
309
CONTENTFORMAT_END
171
     0
 94
        0
309
TABLEFORMAT_END
  1
CELLSTYLE_BEGIN
 90
        3
 91
        2
300
_DATA
309
CELLSTYLE_END
  0
ENDSEC
  0
SECTION
  2
ACDSDATA
 70
     2
 71
     6
  0
ACDSSCHEMA
 90
        0
  1
AcDb_Thumbnail_Schema
  2
AcDbDs::ID
280
    10
 91
        8
  2
Thumbnail_Data
280
    15
 91
        0
101
ACDSRECORD
 95
        0
 90
        1
  2
AcDbDs::TreatedAsObjectData
280
     1
291
     1
101
ACDSRECORD
 95
        0
 90
        2
  2
AcDbDs::Legacy
280
     1
291
     1
101
ACDSRECORD
  1
AcDbDs::ID
 90
        3
  2
AcDs:Indexable
280
     1
291
     1
101
ACDSRECORD
  1
AcDbDs::ID
 90
        4
  2
AcDbDs::HandleAttribute
280
     7
282
     1
  0
ACDSSCHEMA
 90
        1
  1
AcDbDs::TreatedAsObjectDataSchema
  2
AcDbDs::TreatedAsObjectData
280
     1
 91
        0
  0
ACDSSCHEMA
 90
        2
  1
AcDbDs::LegacySchema
  2
AcDbDs::Legacy
280
     1
 91
        0
  0
ACDSSCHEMA
 90
        3
  1
AcDbDs::IndexedPropertySchema
  2
AcDs:Indexable
280
     1
 91
        0
  0
ACDSSCHEMA
 90
        4
  1
AcDbDs::HandleAttributeSchema
  2
AcDbDs::HandleAttribute
280
     7
 91
        1
284
     1
  0
ACDSRECORD
 90
        0
  2
AcDbDs::ID
280
    10
320
97C
  2
Thumbnail_Data
280
    15
 94
     2422
310
89504E470D0A1A0A0000000D4948445200000100000000C508030000008CFEDCE700000300504C5445FFFFFF000000C8C8C80000000000000000000000000000000000000000000000000000330000660000990000CC0000FF0033000033330033660033990033CC0033FF0066000066330066660066990066CC0066FF0099
310
000099330099660099990099CC0099FF00CC0000CC3300CC6600CC9900CCCC00CCFF00FF0000FF3300FF6600FF9900FFCC00FFFF3300003300333300663300993300CC3300FF3333003333333333663333993333CC3333FF3366003366333366663366993366CC3366FF3399003399333399663399993399CC3399FF33CC00
310
33CC3333CC6633CC9933CCCC33CCFF33FF0033FF3333FF6633FF9933FFCC33FFFF6600006600336600666600996600CC6600FF6633006633336633666633996633CC6633FF6666006666336666666666996666CC6666FF6699006699336699666699996699CC6699FF66CC0066CC3366CC6666CC9966CCCC66CCFF66FF0066
310
FF3366FF6666FF9966FFCC66FFFF9900009900339900669900999900CC9900FF9933009933339933669933999933CC9933FF9966009966339966669966999966CC9966FF9999009999339999669999999999CC9999FF99CC0099CC3399CC6699CC9999CCCC99CCFF99FF0099FF3399FF6699FF9999FFCC99FFFFCC0000CC00
310
33CC0066CC0099CC00CCCC00FFCC3300CC3333CC3366CC3399CC33CCCC33FFCC6600CC6633CC6666CC6699CC66CCCC66FFCC9900CC9933CC9966CC9999CC99CCCC99FFCCCC00CCCC33CCCC66CCCC99CCCCCCCCCCFFCCFF00CCFF33CCFF66CCFF99CCFFCCCCFFFFFF0000FF0033FF0066FF0099FF00CCFF00FFFF3300FF3333
310
FF3366FF3399FF33CCFF33FFFF6600FF6633FF6666FF6699FF66CCFF66FFFF9900FF9933FF9966FF9999FF99CCFF99FFFFCC00FFCC33FFCC66FFCC99FFCCCCFFCCFFFFFF00FFFF33FFFF66FFFF99FFFFCCFFFFFF0000000D0D0D1A1A1A2828283535354343435050505D5D5D6B6B6B787878868686939393A1A1A1AEAEAEBB
310
BBBBC9C9C9D6D6D6E4E4E4F1F1F1FFFFFF000000000000000000000000000000000000000000000000000000000000B0E2D235000006234944415478DAED9DD196AB2A0C40F9FFBFBCFB4BCE5A775A0505092408D6F49C87994E15DD242109310DBCFBF55F20BCF9E5005E0F0007E0001C800370000EC001380007E0001CC0
310
9B017CA3E3E80FE9ABF6BEFA8009232700DE38F90EC001380007E0001C803B420EC001380007E0001CC063AE976294ABCB07BC10C0C33CC1BF7BFD2500747EFA7700E000BAC4E587548051FAF27B00083F09403EEADB01101600605B9EF819D2FCA4774A002AF0FFDF7CEE4F19D380C53A3A11006DF24F8E5616D56A00907C
310
8AF635803C0D1E2001146EA213C01354A06169477808C5B12C010C0F665A2E9FCA38D8000863001838379415DF52020C00584E453BE7E9003AEC9969BC305F02E8B506E9A55FDEC8D200C6C4814807792800CABE61E320CF9580F695227BAF8B016004364A3A833500BD278858863B1241E33DC13E0069AAB212FE2A10F398
310
580072230C32154FC80790950C64C7139607806A782AE10F35D3B894043427E4AA4683DA843F2625D6781E109E7F3E804B3FBD3FC6A2E02D3E47022EBD94EEBD80C7A8C0F749045D8688AC6424F9FF4501343AD714748692E5FCAB93585A05A0CB5272E967273B4046E5418BAC0212034F48EA63BE481674857BA758146891
310
3EED340100B16F8BE514D756BC338029FB02E9F89A95E2D287B8DC75DB214C4888101200F49A87F4293E890F102DAF8919B83D23143F9738C815CEBE13CF7B6207B5105A004012CC9A4C8030CC2215C12F807B5560F3D13F57F4F77B9B40B47DE8AC2673014477FFE78DD12CDBA21C02E76BCB6EC1DC0C80903A633DFB4120
310
482A90590D5600F015F95D056422D3AD01640C2E8725DC0E008D2A102E0A177A0D1EA54926D89687F57982221540B4A855930947F13C8F9C2C42F700885480920A40EBAC574EC1291AFCE405120DE914010C54E07832D49AC0950FFE37FF9FFF770348BC2004E24E941A92D63E966AE1E337A6A980206977BA76B99D2A7CEE
310
789EFDC999736C300FC02E9ED5FBCB64BE6A3710A78036155804806C70AEA55C647F63021F082189889800A0AB6A81FA2932EE01792330194073A6A39FEE21231A19C1E5000CB9FF90CE3F618A1FD013DA8AFD2BA911D8E53F2E545C178028C8AC9EFDE08587D316D15C3FA06B1B84C608718160A841DD1922357B367CC4BE
310
80A1F06A6FBCB2E5164788F726448C6DC0597324EE72286FA7AE06C0E299C06AB4F56409D03B089FC4C0420018868D9CF1C52229670180BBE586D428FEA80AD4F36660E07D0F054047496343D1B9D613BC4D0286B4EA492CA0A61ED934162879C58CD0866415ECF195870643A03A81684A4B21F36D002E265923F5488FD63A
310
C3C382A18B8D3BD39611A8EBD5C3A04AD19B564C6D91C0B04A51799570932B572A1E86C524401E3EA37C92687646A84DCBA322DF939FA4CB90A8485A48405BC5DBD988A306905F03EF5501BA75B9FC5855A5CF4ACD0FB8134069E56EAF1740CE74956269347A7C19EBC43940D605D09921486D38D590AF940F58CF11122ABE
310
B4648CACABBC0400CDF21B6495D6595BB6AF1ED801B8292344A74E65814FA916EF0340EF59B84A5C98245A06A7C4AC57867334C82324C094C9C1015E372B8CEDF908D6D1A029805BB789C846837D9BE76355602C9643343817000366581B0D3601B07585EBAE9245C180302B3CCF1586B19D9397024027230D8A6229DDE1F1
310
82491280FE96060523A600D01A0D45C9C70A00345A2E7DE4A6C7C6DE05004DA710B4EDD7966EAB4BBD118CE6F99AC55B68C84483FE28796109100630550097E75A2527A87CC8025199316B4B00BD2D63CE00DA2B8F6F06E05FB0601DD24FFF722B07A0CC0768475FE3EBCD1CC0B40BC101BC1CC0EB556091970370000EE051
310
DF3AFB33AEB00370000EC001380007E0001CC0D3017C3781B6D6265BB94ED87A1D7D9F14216A444AD40F2E6A57CD7692CFCEEBB77F255B33F1432BD7E900E27BD87BCDEEDFAC1BFFF2BDA70F07B6E39226897107BA6FBBA0F89F455B755B00FBE42702B15FFBDE86376A8015B566DCE426A47B068F0010A26ECF216C8DBEA2
310
4D8F108973E038F52191801DD076FCAE16F14FBCDD08DA03F084C8CDA34ED90C74000EC0012C02E0F546D001AC07C0A34107E0001C800370006F0670742E4B5E67D11BD51E30616477841C800370000EC001380007E0001C800370000EC001BC18C0CB5FFF009B8F399B89CB421C0000000049454E44AE426082B38B000000
310
0049454E44AE426082
  0
ACDSRECORD
 90
        0
  2
AcDbDs::ID
280
    10
320
22
  2
Thumbnail_Data
280
    15
 94
     1901
310
89504E470D0A1A0A0000000D4948445200000100000000900803000000D0BD45A300000300504C5445212830000000C8C8C80000000000000000000000000000000000000000000000000000330000660000990000CC0000FF0033000033330033660033990033CC0033FF0066000066330066660066990066CC0066FF0099
310
000099330099660099990099CC0099FF00CC0000CC3300CC6600CC9900CCCC00CCFF00FF0000FF3300FF6600FF9900FFCC00FFFF3300003300333300663300993300CC3300FF3333003333333333663333993333CC3333FF3366003366333366663366993366CC3366FF3399003399333399663399993399CC3399FF33CC00
310
33CC3333CC6633CC9933CCCC33CCFF33FF0033FF3333FF6633FF9933FFCC33FFFF6600006600336600666600996600CC6600FF6633006633336633666633996633CC6633FF6666006666336666666666996666CC6666FF6699006699336699666699996699CC6699FF66CC0066CC3366CC6666CC9966CCCC66CCFF66FF0066
310
FF3366FF6666FF9966FFCC66FFFF9900009900339900669900999900CC9900FF9933009933339933669933999933CC9933FF9966009966339966669966999966CC9966FF9999009999339999669999999999CC9999FF99CC0099CC3399CC6699CC9999CCCC99CCFF99FF0099FF3399FF6699FF9999FFCC99FFFFCC0000CC00
310
33CC0066CC0099CC00CCCC00FFCC3300CC3333CC3366CC3399CC33CCCC33FFCC6600CC6633CC6666CC6699CC66CCCC66FFCC9900CC9933CC9966CC9999CC99CCCC99FFCCCC00CCCC33CCCC66CCCC99CCCCCCCCCCFFCCFF00CCFF33CCFF66CCFF99CCFFCCCCFFFFFF0000FF0033FF0066FF0099FF00CCFF00FFFF3300FF3333
310
FF3366FF3399FF33CCFF33FFFF6600FF6633FF6666FF6699FF66CCFF66FFFF9900FF9933FF9966FF9999FF99CCFF99FFFFCC00FFCC33FFCC66FFCC99FFCCCCFFCCFFFFFF00FFFF33FFFF66FFFF99FFFFCCFFFFFF0000000D0D0D1A1A1A2828283535354343435050505D5D5D6B6B6B787878868686939393A1A1A1AEAEAEBB
310
BBBBC9C9C9D6D6D6E4E4E4F1F1F1FFFFFF000000000000000000000000000000000000000000000000000000000000B21171F6000003574944415478DAED9CE192AB200C4679FFF73DFFEFECAD205511022A71FA9DD99D6D75A1F899008994108661FBFEC3D1A9780E8E6A6153FAA06C56C1DF4F2C46A5E8BDB0BF72AA4AED
310
94A0A9F99015FC88F0FFFAE70AC0C827574BF3F5EACB021601A2EA4C5280D29575153BA8E6D872762EE04B804DBB47CCABE0038B0B84640106559F10607398EBFD2D76898B104D66F7A40BF4DC6B0C022C2EC03A0A7812802E05EAD56F4681E0C30518F9706CAA5121F872018A4718A9394DB3D6DE3F4C64B4BFC7EE39CB05
310
53182ADED909DA6A04CB9C63AA005C510FE712CC35011EB0898AE7C14C23E0C962C7967F12813D1A0D4E1B820BC1F76B3B4143FD31109ED917D2EEAF96165A864487C1D0F1303F7A8B28CE0EBF2CE2E1B922958B1E7297B6066F86C4A902D0314D6474960934070CF7054335EB347B78FBD836791E40976F5CDE04DC0D83C6
310
16317C0FF0250006D318942AA524260D83C69C100CDACA7E0ECACCB8D09A12DB3F3B491232E602E521C0412CD0325450EC362B8F4D8AB9F3670538B1C1A683964EE3D485660A30F661EC5FD3E2D94E324218A72FED3D4A4A829654F29A126B4AEE35867207B6C5E438F8AA319C36DF3A9A3EF8108031E55A67CC2783FD0BD3
310
E2F4FFFF812DCC7D34725196C7905DDFF785DEB3C23CE185B84D8A729326388F066FAB9162FFE8202BCC94CFDE2C9078F8E139617A27406129D90401B853DBA6DCD32E497EFB64A121BF03F7DA46351A9CEB02A62573BC5000AAEDC77CDD60D1C2FEF8E4720B680909B9C7667CC402E30FFD461656CE17C0E05FAD39718C0E
310
333B18E2C4EE2B016F6BF3A94F84FC4D85E15E03F69D1122347E0FA03B4CF66F0165E36D15C058D90C01E85AF8406908E87838E0A213EC58F17A2840CFB4F95901B8945A00D75DEB5B60E20A4709E0440109107E5C0109107E5D81208410420821841042BC35A24DDB3BC56DBFB22F879076BC5AFFC6F54CBB82E173364B1B
310
A7ED6202F14C3AE04480B8AF53DCD7637D99B57B79170F441D9602EB659214CC7FB33D83D21662B81260B9399912E9BBDD64D2ACFB3FAD37372A144D86CC2ADE214048DB9A250BC87679592F2864DBA0E53693EBB039BEBA49DA3328998832AA12E0EDF7EF071F064A00092001841042082184104208218410420821841042
310
0821841042082184104208218410420821C40DFC03F2F3828C22CA59220000000049454E44AE426082F8B8440132239801C0426EC0C4828BF7A234BD2A055114058A46434C8F19ABAC07A02400283138891327286569C0D823F4438D607723B8F8E77B49206A5B806B04597F801990508343AD15FD4136B5AC0AC38124EA0F
310
989FD9DB11797ECBC0E20315B3FE8004800D3EA3206E921A1FC415F6070CA5B892DE76A8B420750727CF00380F88F8852B1E4B81162453C1082B086FE9047F2BE9C0CE14184DD9BA37130D6498BDEACFF105380010F5217C6D565AFF063D2FDD3FADEEBF18C11F3224BFEDCECCB6AF0000000049454E44AE426082
  0
ENDSEC
  0
EOF
