  0
SECTION
  2
HEADER
  9
$ACADVER
  1
AC1027
  9
$ACADMAINTVER
 70
    55
  9
$DWGCODEPAGE
  3
ANSI_1252
  9
$LASTSAVEDBY
  1
jackson
  9
$REQUIREDVERSIONS
160
                 0
  9
$INSBASE
 10
0.0
 20
0.0
 30
0.0
  9
$EXTMIN
 10
-101.2049893054063
 20
14.44001513120262
 30
0.0
  9
$EXTMAX
 10
311.657527025182
 20
460.2882959010771
 30
0.0
  9
$LIMMIN
 10
0.0
 20
0.0
  9
$LIMMAX
 10
1000.0
 20
750.0
  9
$ORTHOMODE
 70
     0
  9
$REGENMODE
 70
     1
  9
$FILLMODE
 70
     1
  9
$QTEXTMODE
 70
     0
  9
$MIRRTEXT
 70
     0
  9
$LTSCALE
 40
1.0
  9
$ATTMODE
 70
     1
  9
$TEXTSIZE
 40
0.2
  9
$TRACEWID
 40
0.05
  9
$TEXTSTYLE
  7
Standard
  9
$CLAYER
  8
0
  9
$CELTYPE
  6
ByLayer
  9
$CECOLOR
 62
     0
  9
$CELTSCALE
 40
1.0
  9
$DISPSILH
 70
     0
  9
$DIMSCALE
 40
1.0
  9
$DIMASZ
 40
7.0
  9
$DIMEXO
 40
1.5
  9
$DIMDLI
 40
0.38
  9
$DIMRND
 40
0.0
  9
$DIMDLE
 40
0.0
  9
$DIMEXE
 40
0.18
  9
$DIMTP
 40
0.0
  9
$DIMTM
 40
0.0
  9
$DIMTXT
 40
4.5
  9
$DIMCEN
 40
0.09
  9
$DIMTSZ
 40
0.0
  9
$DIMTOL
 70
     0
  9
$DIMLIM
 70
     0
  9
$DIMTIH
 70
     1
  9
$DIMTOH
 70
     1
  9
$DIMSE1
 70
     0
  9
$DIMSE2
 70
     0
  9
$DIMTAD
 70
     0
  9
$DIMZIN
 70
     0
  9
$DIMBLK
  1

  9
$DIMASO
 70
     1
  9
$DIMSHO
 70
     1
  9
$DIMPOST
  1
 MM\X
  9
$DIMAPOST
  1
 IN.
  9
$DIMALT
 70
     1
  9
$DIMALTD
 70
     1
  9
$DIMALTF
 40
0.039370079
  9
$DIMLFAC
 40
1.0
  9
$DIMTOFL
 70
     0
  9
$DIMTVP
 40
0.0
  9
$DIMTIX
 70
     0
  9
$DIMSOXD
 70
     0
  9
$DIMSAH
 70
     0
  9
$DIMBLK1
  1

  9
$DIMBLK2
  1

  9
$DIMSTYLE
  2
Kryton
  9
$DIMCLRD
 70
     0
  9
$DIMCLRE
 70
     0
  9
$DIMCLRT
 70
     0
  9
$DIMTFAC
 40
1.0
  9
$DIMGAP
 40
0.5
  9
$DIMJUST
 70
     0
  9
$DIMSD1
 70
     0
  9
$DIMSD2
 70
     0
  9
$DIMTOLJ
 70
     1
  9
$DIMTZIN
 70
     0
  9
$DIMALTZ
 70
     0
  9
$DIMALTTZ
 70
     0
  9
$DIMUPT
 70
     0
  9
$DIMDEC
 70
     0
  9
$DIMTDEC
 70
     0
  9
$DIMALTU
 70
     2
  9
$DIMALTTD
 70
     1
  9
$DIMTXSTY
  7
Standard
  9
$DIMAUNIT
 70
     0
  9
$DIMADEC
 70
     0
  9
$DIMALTRND
 40
0.0
  9
$DIMAZIN
 70
     0
  9
$DIMDSEP
 70
    46
  9
$DIMATFIT
 70
     3
  9
$DIMFRAC
 70
     0
  9
$DIMLDRBLK
  1

  9
$DIMLUNIT
 70
     2
  9
$DIMLWD
 70
    -2
  9
$DIMLWE
 70
    -2
  9
$DIMTMOVE
 70
     0
  9
$DIMFXL
 40
1.0
  9
$DIMFXLON
 70
     0
  9
$DIMJOGANG
 40
0.7853981633974483
  9
$DIMTFILL
 70
     0
  9
$DIMTFILLCLR
 70
     0
  9
$DIMARCSYM
 70
     0
  9
$DIMLTYPE
  6

  9
$DIMLTEX1
  6

  9
$DIMLTEX2
  6

  9
$DIMTXTDIRECTION
 70
     0
  9
$LUNITS
 70
     2
  9
$LUPREC
 70
     2
  9
$SKETCHINC
 40
0.1
  9
$FILLETRAD
 40
0.0
  9
$AUNITS
 70
     0
  9
$AUPREC
 70
     0
  9
$MENU
  1
.
  9
$ELEVATION
 40
0.0
  9
$PELEVATION
 40
0.0
  9
$THICKNESS
 40
0.0
  9
$LIMCHECK
 70
     0
  9
$CHAMFERA
 40
0.0
  9
$CHAMFERB
 40
0.0
  9
$CHAMFERC
 40
0.0
  9
$CHAMFERD
 40
0.0
  9
$SKPOLY
 70
     0
  9
$TDCREATE
 40
2454181.538640150
  9
$TDUCREATE
 40
2454181.871973484
  9
$TDUPDATE
 40
2457057.603048322
  9
$TDUUPDATE
 40
2457057.936381656
  9
$TDINDWG
 40
0.6507812616
  9
$TDUSRTIMER
 40
0.6507805324
  9
$USRTIMER
 70
     1
  9
$ANGBASE
 50
0.0
  9
$ANGDIR
 70
     0
  9
$PDMODE
 70
     0
  9
$PDSIZE
 40
0.0
  9
$PLINEWID
 40
0.0
  9
$SPLFRAME
 70
     0
  9
$SPLINETYPE
 70
     6
  9
$SPLINESEGS
 70
     8
  9
$HANDSEED
  5
FCF
  9
$SURFTAB1
 70
     6
  9
$SURFTAB2
 70
     6
  9
$SURFTYPE
 70
     6
  9
$SURFU
 70
     6
  9
$SURFV
 70
     6
  9
$UCSBASE
  2

  9
$UCSNAME
  2

  9
$UCSORG
 10
0.0
 20
0.0
 30
0.0
  9
$UCSXDIR
 10
1.0
 20
0.0
 30
0.0
  9
$UCSYDIR
 10
0.0
 20
1.0
 30
0.0
  9
$UCSORTHOREF
  2

  9
$UCSORTHOVIEW
 70
     0
  9
$UCSORGTOP
 10
0.0
 20
0.0
 30
0.0
  9
$UCSORGBOTTOM
 10
0.0
 20
0.0
 30
0.0
  9
$UCSORGLEFT
 10
0.0
 20
0.0
 30
0.0
  9
$UCSORGRIGHT
 10
0.0
 20
0.0
 30
0.0
  9
$UCSORGFRONT
 10
0.0
 20
0.0
 30
0.0
  9
$UCSORGBACK
 10
0.0
 20
0.0
 30
0.0
  9
$PUCSBASE
  2

  9
$PUCSNAME
  2

  9
$PUCSORG
 10
0.0
 20
0.0
 30
0.0
  9
$PUCSXDIR
 10
1.0
 20
0.0
 30
0.0
  9
$PUCSYDIR
 10
0.0
 20
1.0
 30
0.0
  9
$PUCSORTHOREF
  2

  9
$PUCSORTHOVIEW
 70
     0
  9
$PUCSORGTOP
 10
0.0
 20
0.0
 30
0.0
  9
$PUCSORGBOTTOM
 10
0.0
 20
0.0
 30
0.0
  9
$PUCSORGLEFT
 10
0.0
 20
0.0
 30
0.0
  9
$PUCSORGRIGHT
 10
0.0
 20
0.0
 30
0.0
  9
$PUCSORGFRONT
 10
0.0
 20
0.0
 30
0.0
  9
$PUCSORGBACK
 10
0.0
 20
0.0
 30
0.0
  9
$USERI1
 70
     0
  9
$USERI2
 70
     0
  9
$USERI3
 70
     0
  9
$USERI4
 70
     0
  9
$USERI5
 70
     0
  9
$USERR1
 40
0.0
  9
$USERR2
 40
0.0
  9
$USERR3
 40
0.0
  9
$USERR4
 40
0.0
  9
$USERR5
 40
0.0
  9
$WORLDVIEW
 70
     1
  9
$SHADEDGE
 70
     3
  9
$SHADEDIF
 70
    70
  9
$TILEMODE
 70
     0
  9
$MAXACTVP
 70
    64
  9
$PINSBASE
 10
0.0
 20
0.0
 30
0.0
  9
$PLIMCHECK
 70
     0
  9
$PEXTMIN
 10
-0.4334900755186056
 20
-0.4445805846494509
 30
0.0
  9
$PEXTMAX
 10
8.529245515968227
 20
10.88715604024001
 30
0.0
  9
$PLIMMIN
 10
-0.2499999962453767
 20
-0.2499999962453767
  9
$PLIMMAX
 10
8.249999763458733
 20
10.74999976345873
  9
$UNITMODE
 70
     0
  9
$VISRETAIN
 70
     1
  9
$PLINEGEN
 70
     0
  9
$PSLTSCALE
 70
     1
  9
$TREEDEPTH
 70
  3020
  9
$CMLSTYLE
  2
Standard
  9
$CMLJUST
 70
     0
  9
$CMLSCALE
 40
1.5
  9
$PROXYGRAPHICS
 70
     1
  9
$MEASUREMENT
 70
     0
  9
$CELWEIGHT
370
    25
  9
$ENDCAPS
280
     0
  9
$JOINSTYLE
280
     0
  9
$LWDISPLAY
290
     0
  9
$INSUNITS
 70
     4
  9
$HYPERLINKBASE
  1

  9
$STYLESHEET
  1

  9
$XEDIT
290
     1
  9
$CEPSNTYPE
380
     0
  9
$PSTYLEMODE
290
     1
  9
$FINGERPRINTGUID
  2
{FDEAD576-A652-11D2-9A35-0060089B3A3F}
  9
$VERSIONGUID
  2
{B14F9F9C-E798-435E-B253-2B3325683B27}
  9
$EXTNAMES
290
     1
  9
$PSVPSCALE
 40
0.0
  9
$OLESTARTUP
290
     0
  9
$SORTENTS
280
     1
  9
$INDEXCTL
280
     0
  9
$HIDETEXT
280
     1
  9
$XCLIPFRAME
280
     0
  9
$HALOGAP
280
     0
  9
$OBSCOLOR
 70
   257
  9
$OBSLTYPE
280
     0
  9
$INTERSECTIONDISPLAY
280
     0
  9
$INTERSECTIONCOLOR
 70
   257
  9
$DIMASSOC
280
     2
  9
$PROJECTNAME
  1

  9
$CAMERADISPLAY
290
     0
  9
$LENSLENGTH
 40
50.0
  9
$CAMERAHEIGHT
 40
0.0
  9
$STEPSPERSEC
 40
2.0
  9
$STEPSIZE
 40
6.0
  9
$3DDWFPREC
 40
2.0
  9
$PSOLWIDTH
 40
0.25
  9
$PSOLHEIGHT
 40
4.0
  9
$LOFTANG1
 40
1.570796326794896
  9
$LOFTANG2
 40
1.570796326794896
  9
$LOFTMAG1
 40
0.0
  9
$LOFTMAG2
 40
0.0
  9
$LOFTPARAM
 70
     7
  9
$LOFTNORMALS
280
     1
  9
$LATITUDE
 40
37.795
  9
$LONGITUDE
 40
-122.394
  9
$NORTHDIRECTION
 40
0.0
  9
$TIMEZONE
 70
 -8000
  9
$LIGHTGLYPHDISPLAY
280
     1
  9
$TILEMODELIGHTSYNCH
280
     1
  9
$CMATERIAL
347
6D1
  9
$SOLIDHIST
280
     1
  9
$SHOWHIST
280
     1
  9
$DWFFRAME
280
     2
  9
$DGNFRAME
280
     0
  9
$REALWORLDSCALE
290
     1
  9
$INTERFERECOLOR
 62
     1
  9
$INTERFEREOBJVS
345
6F3
  9
$INTERFEREVPVS
346
6F0
  9
$CSHADOW
280
     0
  9
$SHADOWPLANELOCATION
 40
0.0
  0
ENDSEC
  0
SECTION
  2
CLASSES
  0
CLASS
  1
ACDBDICTIONARYWDFLT
  2
AcDbDictionaryWithDefault
  3
ObjectDBX Classes
 90
        0
 91
        1
280
     0
281
     0
  0
CLASS
  1
DICTIONARYVAR
  2
AcDbDictionaryVar
  3
ObjectDBX Classes
 90
        0
 91
       11
280
     0
281
     0
  0
CLASS
  1
DIMASSOC
  2
AcDbDimAssoc
  3
"AcDbDimAssoc|Product Desc:     AcDim ARX App For Dimension|Company:          Autodesk, Inc.|WEB Address:      www.autodesk.com"
 90
        0
 91
        3
280
     0
281
     0
  0
CLASS
  1
MATERIAL
  2
AcDbMaterial
  3
ObjectDBX Classes
 90
     1153
 91
        3
280
     0
281
     0
  0
CLASS
  1
VISUALSTYLE
  2
AcDbVisualStyle
  3
ObjectDBX Classes
 90
     4095
 91
       26
280
     0
281
     0
  0
CLASS
  1
TABLESTYLE
  2
AcDbTableStyle
  3
ObjectDBX Classes
 90
     4095
 91
        1
280
     0
281
     0
  0
CLASS
  1
SCALE
  2
AcDbScale
  3
ObjectDBX Classes
 90
     1153
 91
       33
280
     0
281
     0
  0
CLASS
  1
MLEADERSTYLE
  2
AcDbMLeaderStyle
  3
ACDB_MLEADERSTYLE_CLASS
 90
     4095
 91
        1
280
     0
281
     0
  0
CLASS
  1
CELLSTYLEMAP
  2
AcDbCellStyleMap
  3
ObjectDBX Classes
 90
     1152
 91
        1
280
     0
281
     0
  0
CLASS
  1
SORTENTSTABLE
  2
AcDbSortentsTable
  3
ObjectDBX Classes
 90
        0
 91
        1
280
     0
281
     0
  0
CLASS
  1
ACDBSECTIONVIEWSTYLE
  2
AcDbSectionViewStyle
  3
ObjectDBX Classes
 90
     1025
 91
        1
280
     0
281
     0
  0
CLASS
  1
ACDBDETAILVIEWSTYLE
  2
AcDbDetailViewStyle
  3
ObjectDBX Classes
 90
     1025
 91
        1
280
     0
281
     0
  0
ENDSEC
  0
SECTION
  2
TABLES
  0
TABLE
  2
VPORT
  5
8
330
0
100
AcDbSymbolTable
 70
     1
  0
VPORT
  5
6CF
330
8
100
AcDbSymbolTableRecord
100
AcDbViewportTableRecord
  2
*Active
 70
     0
 10
0.0
 20
0.0
 11
1.0
 21
1.0
 12
134.9332877980987
 22
217.079561567057
 13
0.0
 23
0.0
 14
0.5
 24
0.5
 15
6.0
 25
6.0
 16
0.0
 26
0.0
 36
1.0
 17
0.0
 27
0.0
 37
0.0
 40
167.6849670780987
 41
1.886535552193645
 42
50.0
 43
0.0
 44
0.0
 50
0.0
 51
0.0
 71
     0
 72
  1000
 73
     1
 74
     3
 75
     0
 76
     0
 77
     0
 78
     0
281
     0
 65
     1
110
0.0
120
0.0
130
0.0
111
1.0
121
0.0
131
0.0
112
0.0
122
1.0
132
0.0
 79
     0
146
0.0
348
6EF
 60
     3
 61
     5
292
     1
282
     1
141
0.0
142
0.0
 63
   250
421
  3355443
1001
ACAD_NAV_VCDISPLAY
1070
     3
  0
ENDTAB
  0
TABLE
  2
LTYPE
  5
5
330
0
100
AcDbSymbolTable
 70
     1
  0
LTYPE
  5
14
330
5
100
AcDbSymbolTableRecord
100
AcDbLinetypeTableRecord
  2
ByBlock
 70
     0
  3

 72
    65
 73
     0
 40
0.0
  0
LTYPE
  5
15
330
5
100
AcDbSymbolTableRecord
100
AcDbLinetypeTableRecord
  2
ByLayer
 70
     0
  3

 72
    65
 73
     0
 40
0.0
  0
LTYPE
  5
16
330
5
100
AcDbSymbolTableRecord
100
AcDbLinetypeTableRecord
  2
Continuous
 70
     0
  3
Solid line
 72
    65
 73
     0
 40
0.0
  0
ENDTAB
  0
TABLE
  2
LAYER
  5
2
102
{ACAD_XDICTIONARY
360
75C
102
}
330
0
100
AcDbSymbolTable
 70
     2
  0
LAYER
  5
10
102
{ACAD_XDICTIONARY
360
7BC
102
}
330
2
100
AcDbSymbolTableRecord
100
AcDbLayerTableRecord
  2
0
 70
     0
 62
     7
  6
Continuous
370
    -3
390
F
347
6E1
348
0
  0
LAYER
  5
1EC
330
2
100
AcDbSymbolTableRecord
100
AcDbLayerTableRecord
  2
Defpoints
 70
     0
 62
     7
  6
Continuous
290
     0
370
    -3
390
F
347
6E1
348
0
  0
ENDTAB
  0
TABLE
  2
STYLE
  5
3
330
0
100
AcDbSymbolTable
 70
     1
  0
STYLE
  5
11
330
3
100
AcDbSymbolTableRecord
100
AcDbTextStyleTableRecord
  2
Standard
 70
     0
 40
0.0
 41
1.0
 50
0.0
 71
     0
 42
0.2
  3
ARIAL.TTF
  4

1001
ACAD
1000
Arial
1071
       34
  0
ENDTAB
  0
TABLE
  2
VIEW
  5
6
330
0
100
AcDbSymbolTable
 70
     0
  0
ENDTAB
  0
TABLE
  2
UCS
  5
7
330
0
100
AcDbSymbolTable
 70
     0
  0
ENDTAB
  0
TABLE
  2
APPID
  5
9
330
0
100
AcDbSymbolTable
 70
     8
  0
APPID
  5
12
330
9
100
AcDbSymbolTableRecord
100
AcDbRegAppTableRecord
  2
ACAD
 70
     0
  0
APPID
  5
720
330
9
100
AcDbSymbolTableRecord
100
AcDbRegAppTableRecord
  2
ACAD_MLEADERVER
 70
     0
  0
APPID
  5
727
330
9
100
AcDbSymbolTableRecord
100
AcDbRegAppTableRecord
  2
AcadAnnoPO
 70
     0
  0
APPID
  5
729
330
9
100
AcDbSymbolTableRecord
100
AcDbRegAppTableRecord
  2
ACAD_DSTYLE_DIMJAG
 70
     0
  0
APPID
  5
72A
330
9
100
AcDbSymbolTableRecord
100
AcDbRegAppTableRecord
  2
ACAD_DSTYLE_DIMTALN
 70
     0
  0
APPID
  5
753
330
9
100
AcDbSymbolTableRecord
100
AcDbRegAppTableRecord
  2
ACAD_PSEXT
 70
     0
  0
APPID
  5
A74
330
9
100
AcDbSymbolTableRecord
100
AcDbRegAppTableRecord
  2
ACAD_EXEMPT_FROM_CAD_STANDARDS
 70
     0
  0
APPID
  5
FA7
330
9
100
AcDbSymbolTableRecord
100
AcDbRegAppTableRecord
  2
ACAD_NAV_VCDISPLAY
 70
     0
  0
ENDTAB
  0
TABLE
  2
DIMSTYLE
  5
A
330
0
100
AcDbSymbolTable
 70
     2
100
AcDbDimStyleTable
 71
     2
340
1EA
340
27
  0
DIMSTYLE
105
27
102
{ACAD_REACTORS
330
D66
102
}
330
A
100
AcDbSymbolTableRecord
100
AcDbDimStyleTableRecord
  2
Standard
 70
     0
340
11
  0
DIMSTYLE
105
1EA
102
{ACAD_REACTORS
330
3C9
330
51C
330
D23
102
}
330
A
100
AcDbSymbolTableRecord
100
AcDbDimStyleTableRecord
  2
Kryton
 70
     0
  3
 MM\X
  4
 IN.
 41
7.0
 42
1.5
140
4.5
143
0.039370079
147
0.5
170
     1
171
     1
271
     0
272
     0
274
     1
340
11
1001
ACAD_DSTYLE_DIMJAG
1070
   388
1040
1.5
1001
ACAD_DSTYLE_DIMTALN
1070
   392
1070
     0
  0
ENDTAB
  0
TABLE
  2
BLOCK_RECORD
  5
1
330
0
100
AcDbSymbolTable
 70
    10
  0
BLOCK_RECORD
  5
1F
102
{ACAD_XDICTIONARY
360
A69
102
}
330
1
100
AcDbSymbolTableRecord
100
AcDbBlockTableRecord
  2
*Model_Space
340
22
 70
     0
280
     1
281
     0
  0
BLOCK_RECORD
  5
58
330
1
100
AcDbSymbolTableRecord
100
AcDbBlockTableRecord
  2
*Paper_Space
340
59
 70
     0
280
     1
281
     0
  0
BLOCK_RECORD
  5
14A
330
1
100
AcDbSymbolTableRecord
100
AcDbBlockTableRecord
  2
ADCHATCHTEMPORARYBLOCK
340
0
102
{BLKREFS
331
150
102
}
 70
     0
280
     1
281
     0
  0
BLOCK_RECORD
  5
14F
330
1
100
AcDbSymbolTableRecord
100
AcDbBlockTableRecord
  2
A$340
340
0
 70
     0
280
     1
281
     0
  0
BLOCK_RECORD
  5
3CA
330
1
100
AcDbSymbolTableRecord
100
AcDbBlockTableRecord
  2
*D2
340
0
 70
     0
280
     1
281
     0
  0
BLOCK_RECORD
  5
51D
330
1
100
AcDbSymbolTableRecord
100
AcDbBlockTableRecord
  2
*D3
340
0
 70
     0
280
     1
281
     0
  0
BLOCK_RECORD
  5
564
102
{ACAD_XDICTIONARY
360
566
102
}
330
1
100
AcDbSymbolTableRecord
100
AcDbBlockTableRecord
  2
joint line
340
0
102
{BLKREFS
331
577
331
579
102
}
 70
     4
280
     1
281
     0
  0
BLOCK_RECORD
  5
BDB
330
1
100
AcDbSymbolTableRecord
100
AcDbBlockTableRecord
  2
$AUDIT_BAD_BLOCK_RECORD1
340
0
 70
     0
280
     1
281
     0
  0
BLOCK_RECORD
  5
C9C
330
1
100
AcDbSymbolTableRecord
100
AcDbBlockTableRecord
  2
$AUDIT_BAD_BLOCK_RECORD2
340
0
 70
     0
280
     1
281
     0
  0
BLOCK_RECORD
  5
D26
330
1
100
AcDbSymbolTableRecord
100
AcDbBlockTableRecord
  2
*D7
340
0
 70
     0
280
     1
281
     0
  0
BLOCK_RECORD
  5
D67
330
1
100
AcDbSymbolTableRecord
100
AcDbBlockTableRecord
  2
*D8
340
0
 70
     0
280
     1
281
     0
  0
BLOCK_RECORD
  5
DF6
330
1
100
AcDbSymbolTableRecord
100
AcDbBlockTableRecord
  2
$AUDIT_BAD_BLOCK_RECORD3
340
0
 70
     0
280
     1
281
     0
  0
ENDTAB
  0
ENDSEC
  0
SECTION
  2
BLOCKS
  0
BLOCK
  5
20
330
1F
100
AcDbEntity
  8
0
100
AcDbBlockBegin
  2
*Model_Space
 70
     0
 10
0.0
 20
0.0
 30
0.0
  3
*Model_Space
  1

  0
ENDBLK
  5
21
330
1F
100
AcDbEntity
  8
0
100
AcDbBlockEnd
  0
BLOCK
  5
5A
330
58
100
AcDbEntity
 67
     1
  8
0
100
AcDbBlockBegin
  2
*Paper_Space
 70
     0
 10
0.0
 20
0.0
 30
0.0
  3
*Paper_Space
  1

  0
ENDBLK
  5
5B
330
58
100
AcDbEntity
 67
     1
  8
0
100
AcDbBlockEnd
  0
BLOCK
  5
14B
330
14A
100
AcDbEntity
  8
0
100
AcDbBlockBegin
  2
ADCHATCHTEMPORARYBLOCK
 70
     0
 10
1.73252203525641
 20
1.73252203525641
 30
0.0
  3
ADCHATCHTEMPORARYBLOCK
  1

  0
LWPOLYLINE
  5
14C
330
14A
100
AcDbEntity
  8
0
100
AcDbPolyline
 90
        4
 70
     1
 43
0.0
 10
0.0
 20
0.0
 10
3.46504407051282
 20
0.0
 10
3.46504407051282
 20
3.46504407051282
 10
0.0
 20
3.46504407051282
  0
HATCH
  5
14D
330
14A
100
AcDbEntity
  8
0
100
AcDbHatch
 10
0.0
 20
0.0
 30
0.0
210
0.0
220
0.0
230
1.0
  2
EARTH
 70
     0
 71
     0
 91
        1
 92
        3
 72
     0
 73
     1
 93
        4
 10
0.0
 20
0.0
 10
3.46504407051282
 20
0.0
 10
3.46504407051282
 20
3.46504407051282
 10
0.0
 20
3.46504407051282
 97
        0
 75
     0
 76
     1
 52
45.0
 41
1.0
 77
     0
 78
     6
 53
45.0
 43
0.0
 44
0.0
 45
0.0000000000000009
 46
8.980256121069153
 79
     2
 49
6.349999999999999
 49
-6.349999999999999
 53
45.0
 43
-1.683798022700466
 44
1.683798022700466
 45
0.0000000000000009
 46
8.980256121069153
 79
     2
 49
6.349999999999999
 49
-6.349999999999999
 53
45.0
 43
-3.367596045400932
 44
3.367596045400933
 45
0.0000000000000009
 46
8.980256121069153
 79
     2
 49
6.349999999999999
 49
-6.349999999999999
 53
135.0
 43
-3.367596045400932
 44
4.490128060534576
 45
-8.980256121069153
 46
0.0000000000000009
 79
     2
 49
6.349999999999999
 49
-6.349999999999999
 53
135.0
 43
-1.683798022700466
 44
6.173926083235043
 45
-8.980256121069153
 46
0.0000000000000009
 79
     2
 49
6.349999999999999
 49
-6.349999999999999
 53
135.0
 43
0.0000000000000004
 44
7.85772410593551
 45
-8.980256121069153
 46
0.0000000000000009
 79
     2
 49
6.349999999999999
 49
-6.349999999999999
 98
        1
 10
0.0
 20
0.0
  0
ENDBLK
  5
14E
330
14A
100
AcDbEntity
  8
0
100
AcDbBlockEnd
  0
BLOCK
  5
151
330
14F
100
AcDbEntity
  8
0
 62
    39
420
  6306067
100
AcDbBlockBegin
  2
A$340
 70
     0
 10
0.0
 20
0.0
 30
0.0
  3
A$340
  1

  0
INSERT
  5
150
330
14F
100
AcDbEntity
  8
0
100
AcDbBlockReference
  2
ADCHATCHTEMPORARYBLOCK
 10
0.0
 20
0.0
 30
0.0
  0
ENDBLK
  5
152
330
14F
100
AcDbEntity
  8
0
 62
    39
420
  6306067
100
AcDbBlockEnd
  0
BLOCK
  5
3D6
330
3CA
100
AcDbEntity
  8
0
 62
     0
100
AcDbBlockBegin
  2
*D2
 70
     1
 10
0.0
 20
0.0
 30
0.0
  3
*D2
  1

  0
LINE
  5
F2A
330
3CA
100
AcDbEntity
  8
0
 62
     0
440
 16777216
370
    -2
100
AcDbLine
 10
8.567319748233934
 20
171.696751977867
 30
0.0
 11
-31.73894228756912
 21
185.1328698601034
 31
0.0
  0
LINE
  5
F2B
330
3CA
100
AcDbEntity
  8
0
 62
     0
440
 16777216
370
    -2
100
AcDbLine
 10
21.20928474355747
 20
209.6206789793281
 30
0.0
 11
-19.09697729224558
 21
223.0567968615646
 31
0.0
  0
LINE
  5
F2C
330
3CA
100
AcDbEntity
  8
0
 62
     0
440
 16777216
370
    -2
100
AcDbLine
 10
-29.35448243581193
 20
191.7166948285665
 30
0.0
 11
-27.42810025599715
 21
197.4955414866007
 31
0.0
  0
LINE
  5
F2D
330
3CA
100
AcDbEntity
  8
0
 62
     0
440
 16777216
370
    -2
100
AcDbLine
 10
-21.13991292901594
 20
216.3591245805393
 30
0.0
 11
-22.66580220687655
 21
211.7816942833265
 31
0.0
  0
SOLID
  5
F2E
330
3CA
100
AcDbEntity
  8
0
 62
     0
440
 16777216
370
    25
100
AcDbTrace
 10
-30.4612738732693
 20
192.0856444526105
 30
0.0
 11
-28.24769099835457
 21
191.3477452045226
 31
0.0
 12
-31.5681801800757
 22
185.0759462038223
 32
0.0
 13
-31.5681801800757
 23
185.0759462038223
 33
0.0
  0
SOLID
  5
F2F
330
3CA
100
AcDbEntity
  8
0
 62
     0
440
 16777216
370
    25
100
AcDbTrace
 10
-22.24670436647332
 20
216.7280742045833
 30
0.0
 11
-20.03312149155858
 21
215.9901749564954
 31
0.0
 12
-18.92621518475216
 22
222.9998732052835
 32
0.0
 13
-18.92621518475216
 23
222.9998732052835
 33
0.0
  0
MTEXT
  5
F30
330
3CA
100
AcDbEntity
  8
0
 62
     0
440
 16777216
100
AcDbMText
 10
-25.04695123143687
 20
204.6386178849636
 30
0.0
 40
4.5
 41
0.0
 46
0.0
 71
     5
 72
     1
  1
\A1;40 MM\P [1.5 IN.]
 73
     1
 44
1.0
  0
POINT
  5
F31
330
3CA
100
AcDbEntity
  8
Defpoints
 62
     0
440
 16777216
370
    25
100
AcDbPoint
 10
9.990337310679109
 20
171.2223881755248
 30
0.0
  0
POINT
  5
F32
330
3CA
100
AcDbEntity
  8
Defpoints
 62
     0
440
 16777216
370
    25
100
AcDbPoint
 10
22.63230230600264
 20
209.1463151769859
 30
0.0
  0
POINT
  5
F33
330
3CA
100
AcDbEntity
  8
Defpoints
 62
     0
440
 16777216
370
    25
100
AcDbPoint
 10
-18.92621518475216
 20
222.9998732052835
 30
0.0
  0
ENDBLK
  5
3D7
330
3CA
100
AcDbEntity
  8
0
 62
     0
100
AcDbBlockEnd
  0
BLOCK
  5
52A
330
51D
100
AcDbEntity
  8
0
 62
     0
100
AcDbBlockBegin
  2
*D3
 70
     1
 10
0.0
 20
0.0
 30
0.0
  3
*D3
  1

  0
LINE
  5
F34
330
51D
100
AcDbEntity
  8
0
 62
     0
440
 16777216
370
    -2
100
AcDbLine
 10
9.461593381916081
 20
169.8442209632554
 30
0.0
 11
3.834270130123464
 21
153.0862323524592
 31
0.0
  0
LINE
  5
F35
330
51D
100
AcDbEntity
  8
0
 62
     0
440
 16777216
370
    -2
100
AcDbLine
 10
33.59946319997482
 20
161.7387377080397
 30
0.0
 11
27.9721399481822
 21
144.9807490972434
 31
0.0
  0
LINE
  5
F36
330
51D
100
AcDbEntity
  8
0
 62
     0
440
 16777216
370
    -2
100
AcDbLine
 10
10.52742704216163
 20
151.0285514853577
 30
0.0
 11
21.3935822063457
 21
147.3797026268732
 31
0.0
  0
LINE
  5
F37
330
51D
100
AcDbEntity
  8
0
 62
     0
440
 16777216
370
    -2
100
AcDbLine
 10
28.02943953328303
 20
145.1513854285076
 30
0.0
 11
38.35858680928279
 21
141.682863520098
 31
0.0
  0
LINE
  5
F38
330
51D
100
AcDbEntity
  8
0
 62
     0
440
 16777216
370
    -2
100
AcDbLine
 10
38.35858680928279
 20
141.682863520098
 30
0.0
 11
45.35858680928279
 21
141.682863520098
 31
0.0
  0
SOLID
  5
F39
330
51D
100
AcDbEntity
  8
0
 62
     0
440
 16777216
370
    25
100
AcDbTrace
 10
10.89881324188923
 20
152.1345277065139
 30
0.0
 11
10.15604084243403
 21
149.9225752642014
 31
0.0
 12
3.891569715224299
 22
153.2568686837233
 32
0.0
 13
3.891569715224299
 23
153.2568686837233
 33
0.0
  0
SOLID
  5
F3A
330
51D
100
AcDbEntity
  8
0
 62
     0
440
 16777216
370
    25
100
AcDbTrace
 10
21.7649684060733
 20
148.4856788480295
 30
0.0
 11
21.02219600661809
 21
146.273726405717
 31
0.0
 12
28.02943953328303
 22
145.1513854285076
 32
0.0
 13
28.02943953328303
 23
145.1513854285076
 33
0.0
  0
MTEXT
  5
F3B
330
51D
100
AcDbEntity
  8
0
 62
     0
440
 16777216
100
AcDbMText
 10
57.5337232349308
 20
141.682863520098
 30
0.0
 40
4.5
 41
0.0
 46
0.0
 71
     5
 72
     1
  1
\A1;25 MM\P [1.0 IN.]
 73
     1
 44
1.0
  0
POINT
  5
F3C
330
51D
100
AcDbEntity
  8
Defpoints
 62
     0
440
 16777216
370
    25
100
AcDbPoint
 10
9.939089924423001
 20
171.2661903904563
 30
0.0
  0
POINT
  5
F3D
330
51D
100
AcDbEntity
  8
Defpoints
 62
     0
440
 16777216
370
    25
100
AcDbPoint
 10
34.07695974248174
 20
163.1607071352405
 30
0.0
  0
POINT
  5
F3E
330
51D
100
AcDbEntity
  8
Defpoints
 62
     0
440
 16777216
370
    25
100
AcDbPoint
 10
28.02943953328303
 20
145.1513854285076
 30
0.0
  0
ENDBLK
  5
52B
330
51D
100
AcDbEntity
  8
0
 62
     0
100
AcDbBlockEnd
  0
BLOCK
  5
567
330
564
100
AcDbEntity
  8
0
 62
     0
100
AcDbBlockBegin
  2
joint line
 70
     0
 10
0.0
 20
0.0
 30
0.0
  3
joint line
  1

  0
LWPOLYLINE
  5
565
330
564
100
AcDbEntity
  8
0
100
AcDbPolyline
 90
        7
 70
     0
 43
0.0
 10
40.06469683741646
 20
0.0
 10
14.66469683741647
 20
0.0
 10
0.0
 20
25.40000000000001
 10
0.0
 20
0.0
 10
0.0
 20
-25.40000000000001
 10
-14.66469683741645
 20
0.0
 10
-40.06469683741646
 20
0.0
  0
ENDBLK
  5
568
330
564
100
AcDbEntity
  8
0
 62
     0
100
AcDbBlockEnd
  0
BLOCK
  5
BDC
330
BDB
100
AcDbEntity
  8
0
 62
     0
370
    25
100
AcDbBlockBegin
  2
$AUDIT_BAD_BLOCK_RECORD1
 70
     0
 10
0.0
 20
0.0
 30
0.0
  3
$AUDIT_BAD_BLOCK_RECORD1
  1

  0
LWPOLYLINE
  5
B97
330
BDB
100
AcDbEntity
  8
0
  6
ByBlock
 62
     0
370
    25
100
AcDbPolyline
 90
        2
 70
     1
 43
0.5
 10
-0.0625
 20
0.0
 42
1.0
 10
0.0625
 20
0.0
 42
1.0
  0
ENDBLK
  5
BDD
330
BDB
100
AcDbEntity
  8
0
 62
     0
370
    25
100
AcDbBlockEnd
  0
BLOCK
  5
C9D
330
C9C
100
AcDbEntity
  8
0
 62
     0
370
    25
100
AcDbBlockBegin
  2
$AUDIT_BAD_BLOCK_RECORD2
 70
     0
 10
0.0
 20
0.0
 30
0.0
  3
$AUDIT_BAD_BLOCK_RECORD2
  1

  0
LINE
  5
B1C
330
C9C
100
AcDbEntity
  8
0
 62
     0
370
    -2
100
AcDbLine
 10
46.71894867664029
 20
201.1472056616563
 30
0.0
 11
46.71894867664029
 21
225.8929335641836
 31
0.0
  0
LINE
  5
B1D
330
C9C
100
AcDbEntity
  8
0
 62
     0
370
    -2
100
AcDbLine
 10
199.9328435367389
 20
201.1472056616563
 30
0.0
 11
199.9328435367389
 21
225.8929335641836
 31
0.0
  0
LINE
  5
B1E
330
C9C
100
AcDbEntity
  8
0
 62
     0
370
    -2
100
AcDbLine
 10
48.71894867664029
 20
225.7129335641836
 30
0.0
 11
112.0516805541657
 21
225.7129335641836
 31
0.0
  0
LINE
  5
B1F
330
C9C
100
AcDbEntity
  8
0
 62
     0
370
    -2
100
AcDbLine
 10
197.9328435367389
 20
225.7129335641836
 30
0.0
 11
134.6001116592135
 21
225.7129335641836
 31
0.0
  0
SOLID
  5
B20
330
C9C
100
AcDbEntity
  8
0
 62
     0
370
    25
100
AcDbTrace
 10
48.71894867664029
 20
226.0462668975169
 30
0.0
 11
48.71894867664029
 21
225.3796002308502
 31
0.0
 12
46.71894867664029
 22
225.7129335641836
 32
0.0
 13
46.71894867664029
 23
225.7129335641836
 33
0.0
  0
SOLID
  5
B21
330
C9C
100
AcDbEntity
  8
0
 62
     0
370
    25
100
AcDbTrace
 10
197.9328435367389
 20
226.0462668975169
 30
0.0
 11
197.9328435367389
 21
225.3796002308502
 31
0.0
 12
199.9328435367389
 22
225.7129335641836
 32
0.0
 13
199.9328435367389
 23
225.7129335641836
 33
0.0
  0
MTEXT
  5
B22
330
C9C
100
AcDbEntity
  8
0
 62
     0
370
    25
100
AcDbMText
 10
123.3258961066896
 20
228.5120467974715
 30
0.0
 40
4.5
 41
0.0
 46
0.0
 71
     5
 72
     1
  1
\A1;153 MM
 73
     1
 44
1.0
  0
MTEXT
  5
B23
330
C9C
100
AcDbEntity
  8
0
 62
     0
370
    25
100
AcDbMText
 10
123.3258961066896
 20
222.3290658970622
 30
0.0
 40
4.5
 41
0.0
 46
0.0
 71
     5
 72
     1
  1
\A1;[6.0 IN.]
 73
     1
 44
1.0
  0
POINT
  5
B24
330
C9C
100
AcDbEntity
  8
Defpoints
 62
     0
370
    25
100
AcDbPoint
 10
46.71894867664029
 20
201.0847056616563
 30
0.0
  0
POINT
  5
B25
330
C9C
100
AcDbEntity
  8
Defpoints
 62
     0
370
    25
100
AcDbPoint
 10
199.9328435367389
 20
201.0847056616563
 30
0.0
  0
POINT
  5
B26
330
C9C
100
AcDbEntity
  8
Defpoints
 62
     0
370
    25
100
AcDbPoint
 10
199.9328435367389
 20
225.7129335641836
 30
0.0
  0
LWPOLYLINE
  5
BEB
330
C9C
100
AcDbEntity
  8
0
  6
ByBlock
 62
     0
370
    25
100
AcDbPolyline
 90
        2
 70
     1
 43
0.5
 10
-0.0625
 20
0.0
 42
1.0
 10
0.0625
 20
0.0
 42
1.0
  0
ENDBLK
  5
C9E
330
C9C
100
AcDbEntity
  8
0
 62
     0
370
    25
100
AcDbBlockEnd
  0
BLOCK
  5
D27
330
D26
100
AcDbEntity
  8
0
 62
     0
370
    25
100
AcDbBlockBegin
  2
*D7
 70
     1
 10
0.0
 20
0.0
 30
0.0
  3
*D7
  1

  0
LINE
  5
F3F
330
D26
100
AcDbEntity
  8
0
 62
     0
440
 16777216
370
    -2
100
AcDbLine
 10
13.17696496598087
 20
185.5201835598331
 30
0.0
 11
1.290201337794904
 21
189.4493878867176
 31
0.0
  0
LINE
  5
F40
330
D26
100
AcDbEntity
  8
0
 62
     0
440
 16777216
370
    -2
100
AcDbLine
 10
21.14880145329653
 20
209.6368565867118
 30
0.0
 11
9.26203782511056
 21
213.5660609135963
 31
0.0
  0
LINE
  5
F41
330
D26
100
AcDbEntity
  8
0
 62
     0
440
 16777216
370
    -2
100
AcDbLine
 10
-0.7358494870690464
 20
182.7465886166314
 30
0.0
 11
-2.932805326445503
 21
176.1002824967006
 31
0.0
  0
LINE
  5
F42
330
D26
100
AcDbEntity
  8
0
 62
     0
440
 16777216
370
    -2
100
AcDbLine
 10
11.62989867899952
 20
220.1558738833717
 30
0.0
 11
13.82685451837598
 21
226.8021800033025
 31
0.0
  0
SOLID
  5
F43
330
D26
100
AcDbEntity
  8
0
 62
     0
440
 16777216
370
    25
100
AcDbTrace
 10
-1.843567173724174
 20
183.1127479231942
 30
0.0
 11
0.3718681995860891
 21
182.3804293100687
 31
0.0
 12
1.46110635230741
 22
189.3928947365622
 32
0.0
 13
1.46110635230741
 23
189.3928947365622
 33
0.0
  0
SOLID
  5
F44
330
D26
100
AcDbEntity
  8
0
 62
     0
440
 16777216
370
    25
100
AcDbTrace
 10
10.52218099234439
 20
220.5220331899344
 30
0.0
 11
12.73761636565466
 21
219.7897145768089
 31
0.0
 12
9.432942839623066
 22
213.5095677634409
 32
0.0
 13
9.432942839623066
 23
213.5095677634409
 33
0.0
  0
MTEXT
  5
F45
330
D26
100
AcDbEntity
  8
0
 62
     0
440
 16777216
100
AcDbMText
 10
5.447024595965238
 20
201.4512312500015
 30
0.0
 40
4.5
 41
0.0
 46
0.0
 71
     5
 72
     1
  1
\A1;25 MM\P [1.0 IN.]
 73
     1
 44
1.0
  0
POINT
  5
F46
330
D26
100
AcDbEntity
  8
Defpoints
 62
     0
440
 16777216
370
    25
100
AcDbPoint
 10
14.60117342025176
 20
185.0494073085382
 30
0.0
  0
POINT
  5
F47
330
D26
100
AcDbEntity
  8
Defpoints
 62
     0
440
 16777216
370
    25
100
AcDbPoint
 10
22.57300990756742
 20
209.1660803354169
 30
0.0
  0
POINT
  5
F48
330
D26
100
AcDbEntity
  8
Defpoints
 62
     0
440
 16777216
370
    25
100
AcDbPoint
 10
9.432942839623066
 20
213.5095677634409
 30
0.0
  0
ENDBLK
  5
D28
330
D26
100
AcDbEntity
  8
0
 62
     0
370
    25
100
AcDbBlockEnd
  0
BLOCK
  5
D68
330
D67
100
AcDbEntity
  8
0
 62
     0
370
    25
100
AcDbBlockBegin
  2
*D8
 70
     1
 10
0.0
 20
0.0
 30
0.0
  3
*D8
  1

  0
LINE
  5
F54
330
D67
100
AcDbEntity
  8
0
 62
     0
440
 16777216
370
    -2
100
AcDbLine
 10
27.13230230600264
 20
359.4462396545321
 30
0.0
 11
49.49503620083188
 21
359.4462396545321
 31
0.0
  0
LINE
  5
F55
330
D67
100
AcDbEntity
  8
0
 62
     0
440
 16777216
370
    -2
100
AcDbLine
 10
38.14567367920021
 20
207.6196705111037
 30
0.0
 11
49.49503620083184
 21
207.6196705111037
 31
0.0
  0
LINE
  5
F56
330
D67
100
AcDbEntity
  8
0
 62
     0
440
 16777216
370
    -2
100
AcDbLine
 10
49.31503620083188
 20
352.4462396545321
 30
0.0
 11
49.31503620083187
 21
289.714401194687
 31
0.0
  0
LINE
  5
F57
330
D67
100
AcDbEntity
  8
0
 62
     0
440
 16777216
370
    -2
100
AcDbLine
 10
49.31503620083185
 20
214.6196705111037
 30
0.0
 11
49.31503620083187
 21
277.3515089709489
 31
0.0
  0
SOLID
  5
F58
330
D67
100
AcDbEntity
  8
0
 62
     0
440
 16777216
370
    25
100
AcDbTrace
 10
48.14836953416522
 20
352.4462396545321
 30
0.0
 11
50.48170286749854
 21
352.4462396545321
 31
0.0
 12
49.31503620083188
 22
359.4462396545321
 32
0.0
 13
49.31503620083188
 23
359.4462396545321
 33
0.0
  0
SOLID
  5
F59
330
D67
100
AcDbEntity
  8
0
 62
     0
440
 16777216
370
    25
100
AcDbTrace
 10
48.14836953416519
 20
214.6196705111037
 30
0.0
 11
50.48170286749852
 21
214.6196705111037
 31
0.0
 12
49.31503620083184
 22
207.6196705111037
 32
0.0
 13
49.31503620083184
 23
207.6196705111037
 33
0.0
  0
MTEXT
  5
F5A
330
D67
100
AcDbEntity
  8
0
 62
     0
440
 16777216
370
    25
100
AcDbMText
 10
49.31503620083182
 20
286.3305335275655
 30
0.0
 40
4.5
 41
0.0
 46
0.0
 71
     5
 72
     1
  1
\A1;152 MM
 73
     1
 44
1.0
  0
MTEXT
  5
F5B
330
D67
100
AcDbEntity
  8
0
 62
     0
440
 16777216
370
    25
100
AcDbMText
 10
49.31503620083182
 20
280.1490874156965
 30
0.0
 40
4.5
 41
0.0
 46
0.0
 71
     5
 72
     1
  1
\A1;[6.0 IN.]
 73
     1
 44
1.0
  0
POINT
  5
F5C
330
D67
100
AcDbEntity
  8
Defpoints
 62
     0
440
 16777216
370
    25
100
AcDbPoint
 10
25.63230230600265
 20
359.4462396545321
 30
0.0
  0
POINT
  5
F5D
330
D67
100
AcDbEntity
  8
Defpoints
 62
     0
440
 16777216
370
    25
100
AcDbPoint
 10
36.64567367920021
 20
207.6196705111037
 30
0.0
  0
POINT
  5
F5E
330
D67
100
AcDbEntity
  8
Defpoints
 62
     0
440
 16777216
370
    25
100
AcDbPoint
 10
49.31503620083184
 20
207.6196705111037
 30
0.0
  0
ENDBLK
  5
D69
330
D67
100
AcDbEntity
  8
0
 62
     0
370
    25
100
AcDbBlockEnd
  0
BLOCK
  5
DF7
330
DF6
100
AcDbEntity
  8
0
 62
     0
370
    25
100
AcDbBlockBegin
  2
$AUDIT_BAD_BLOCK_RECORD3
 70
     0
 10
0.0
 20
0.0
 30
0.0
  3
$AUDIT_BAD_BLOCK_RECORD3
  1

  0
LWPOLYLINE
  5
CCD
330
DF6
100
AcDbEntity
  8
0
  6
ByBlock
 62
     0
370
    25
100
AcDbPolyline
 90
        2
 70
     1
 43
0.5
 10
-0.0625
 20
0.0
 42
1.0
 10
0.0625
 20
0.0
 42
1.0
  0
ENDBLK
  5
DF8
330
DF6
100
AcDbEntity
  8
0
 62
     0
370
    25
100
AcDbBlockEnd
  0
ENDSEC
  0
SECTION
  2
ENTITIES
  0
MTEXT
  5
1C7
102
{ACAD_REACTORS
330
1C8
102
}
330
1F
100
AcDbEntity
  8
0
 62
     0
100
AcDbMText
 10
101.4610763075409
 20
221.4486272262714
 30
0.0
 40
4.5
 41
299.5479928158425
 46
0.0
 71
     1
 72
     1
  1
KRYSTOL T1 COATING 0.8 kg/m\S2^ ; (1.5 lbs./yd\S2^ ;)
 73
     1
 44
1.0
  0
LEADER
  5
1C8
330
1F
100
AcDbEntity
  8
0
 62
     0
100
AcDbLeader
  3
Standard
 73
     0
 74
     0
 75
     1
 40
7.341405184174624
 41
135.1319918144611
 76
     3
 10
84.73799141080915
 20
203.9673545173001
 30
0.0
 10
93.57285598195312
 20
217.7430409159208
 30
0.0
 10
100.5728559819531
 20
217.7430409159208
 30
0.0
340
1C7
213
-0.7982203255878205
223
-3.705586310350554
233
0.0
1001
ACAD
1000
DSTYLE
1002
{
1070
    41
1040
7.0
1070
   147
1040
0.09
1070
    77
1070
     0
1002
}
  0
POINT
  5
1DE
330
1F
100
AcDbEntity
  8
0
 62
     0
100
AcDbPoint
 10
38.68500440565633
 20
176.9887357523705
 30
0.0
  0
POINT
  5
1DF
330
1F
100
AcDbEntity
  8
0
 62
     0
100
AcDbPoint
 10
42.6977534632986
 20
189.0381276457562
 30
0.0
  0
LINE
  5
1E5
330
1F
100
AcDbEntity
  8
0
 62
     0
100
AcDbLine
 10
22.63330762563777
 20
166.990806742122
 30
0.0
 11
22.63489006295213
 21
101.0847056616562
 31
0.0
  0
POINT
  5
35C
330
1F
100
AcDbEntity
  8
0
 62
     0
100
AcDbPoint
 10
38.68781979088947
 20
176.9877977932085
 30
0.0
  0
POINT
  5
35D
330
1F
100
AcDbEntity
  8
0
 62
     0
100
AcDbPoint
 10
42.70338423376488
 20
189.0362517274324
 30
0.0
  0
LINE
  5
35F
330
1F
100
AcDbEntity
  8
0
 62
     0
100
AcDbLine
 10
14.60117342025177
 20
185.0494073085382
 30
0.0
 11
38.68781979088947
 21
176.9877977932085
 31
0.0
  0
LINE
  5
360
330
1F
100
AcDbEntity
  8
0
 62
     0
100
AcDbLine
 10
22.63230230600264
 20
209.1463151769859
 30
0.0
 11
46.71894867664029
 21
201.0847056616563
 31
0.0
  0
LINE
  5
362
330
1F
100
AcDbEntity
  8
0
 62
     0
100
AcDbLine
 10
296.4175270251819
 20
131.3876604055316
 30
0.0
 11
296.4175270251819
 21
76.05235724294806
 31
0.0
  0
LINE
  5
363
330
1F
100
AcDbEntity
  8
0
 62
     0
100
AcDbLine
 10
296.4175270251819
 20
101.0847056616563
 30
0.0
 11
-77.3762101459246
 21
101.0847056616562
 31
0.0
  0
LINE
  5
376
102
{ACAD_REACTORS
330
3E4
102
}
330
1F
100
AcDbEntity
  8
0
 62
     0
100
AcDbLine
 10
22.63230230600264
 20
209.1463151769859
 30
0.0
 11
22.63230230600264
 21
359.4417676603398
 31
0.0
  0
LINE
  5
377
330
1F
100
AcDbEntity
  8
0
 62
     0
100
AcDbLine
 10
38.79501069244101
 20
445.0482959010773
 30
0.0
 11
-18.85439215277506
 21
445.0482959010773
 31
0.0
  0
LINE
  5
37A
330
1F
100
AcDbEntity
  8
0
 62
     0
100
AcDbLine
 10
-77.37116351583677
 20
445.0484426209068
 30
0.0
 11
-77.3762101459246
 21
101.0847056616562
 31
0.0
  0
LINE
  5
399
102
{ACAD_REACTORS
330
CF2
102
}
330
1F
100
AcDbEntity
  8
0
 62
     0
100
AcDbLine
 10
34.07695974248174
 20
163.1607071352406
 30
0.0
 11
38.68781979088947
 21
176.9877977932085
 31
0.0
  0
LINE
  5
39A
102
{ACAD_REACTORS
330
CEE
102
}
330
1F
100
AcDbEntity
  8
0
 62
     0
100
AcDbLine
 10
38.68781979088947
 20
176.9877977932085
 30
0.0
 11
42.70338423376488
 21
189.0362517274324
 31
0.0
  0
LINE
  5
39B
330
1F
100
AcDbEntity
  8
0
 62
     0
100
AcDbLine
 10
42.70338423376488
 20
189.0362517274324
 30
0.0
 11
46.71894867664029
 21
201.0847056616563
 31
0.0
  0
LINE
  5
39C
330
1F
100
AcDbEntity
  8
0
 62
     0
100
AcDbLine
 10
9.931044912243891
 20
171.2421533339557
 30
0.0
 11
14.60117342025177
 21
185.0494073085382
 31
0.0
  0
LINE
  5
39D
330
1F
100
AcDbEntity
  8
0
 62
     0
100
AcDbLine
 10
14.60117342025177
 20
185.0494073085382
 30
0.0
 11
18.61673786312718
 21
197.0978612427621
 31
0.0
  0
LINE
  5
39E
330
1F
100
AcDbEntity
  8
0
 62
     0
100
AcDbLine
 10
18.61673786312718
 20
197.0978612427621
 30
0.0
 11
22.63230230600264
 21
209.1463151769859
 31
0.0
  0
DIMENSION
  5
3C9
102
{ACAD_XDICTIONARY
360
3D8
102
}
102
{ACAD_REACTORS
330
3E4
102
}
330
1F
100
AcDbEntity
  8
0
 62
     0
100
AcDbDimension
280
     0
  2
*D2
 10
-18.92621518475216
 20
222.9998732052835
 30
0.0
 11
-25.04695123143687
 21
204.6386178849636
 31
0.0
 70
   161
 71
     5
 42
39.97553649615148
 73
     0
 74
     0
 75
     0
  3
Kryton
100
AcDbAlignedDimension
 13
9.990337310679105
 23
171.2223881755248
 33
0.0
 14
22.63230230600264
 24
209.1463151769859
 34
0.0
1001
ACAD
1000
DSTYLE
1002
{
1070
   148
1040
0.5
1070
   271
1070
     0
1070
   147
1040
0.5
1002
}
  0
DIMENSION
  5
51C
330
1F
100
AcDbEntity
  8
0
 62
     0
100
AcDbDimension
280
     0
  2
*D3
 10
28.02943953328303
 20
145.1513854285076
 30
0.0
 11
57.5337232349308
 21
141.682863520098
 31
0.0
 70
   161
 71
     5
 42
25.46243543249808
 73
     0
 74
     0
 75
     0
  3
Kryton
100
AcDbAlignedDimension
 13
9.939089924423006
 23
171.2661903904563
 33
0.0
 14
34.07695974248174
 24
163.1607071352406
 34
0.0
1001
ACAD
1000
DSTYLE
1002
{
1070
   271
1070
     0
1002
}
  0
LINE
  5
56A
330
1F
100
AcDbEntity
  8
0
 62
     0
100
AcDbLine
 10
296.4175270251819
 20
170.091175345398
 30
0.0
 11
296.4175270251818
 21
216.052357242948
 31
0.0
  0
LINE
  5
575
330
1F
100
AcDbEntity
  8
0
 62
     0
100
AcDbLine
 10
-101.2049893054063
 20
445.0485893407365
 30
0.0
 11
-53.5373377262672
 21
445.0482959010773
 31
0.0
  0
INSERT
  5
577
330
1F
100
AcDbEntity
  8
0
 62
     0
100
AcDbBlockReference
  2
joint line
 10
-33.51908899019151
 20
445.0482959010773
 30
0.0
 41
-0.5999999999999997
 42
0.5999999999999944
 43
0.6
 50
180.0
  0
INSERT
  5
579
330
1F
100
AcDbEntity
  8
0
 62
     0
100
AcDbBlockReference
  2
joint line
 10
296.4175270251819
 20
146.052357242948
 30
0.0
 41
-0.6000000000000015
 42
0.6000000000000015
 43
0.6
 50
90.0
  0
MTEXT
  5
59E
102
{ACAD_XDICTIONARY
360
F7E
102
}
330
1F
100
AcDbEntity
  8
0
 62
     0
100
AcDbMText
 10
-41.34147860175597
 20
40.85104539495887
 30
0.0
 40
11.0
 41
314.1465862456343
 46
0.0
 71
     1
 72
     5
  1
JOINT REPAIR - WALL TO SLAB (INBOARD)\P\pi136.87;{\H0.54545x;REFER TO APPLICATION INSTRUCTION 5.12}
 73
     1
 44
1.0
  0
LINE
  5
B9A
330
1F
100
AcDbEntity
  8
0
 62
     0
370
    25
100
AcDbLine
 10
22.63230230600264
 20
359.4417676603398
 30
0.0
 11
25.63230230600265
 21
359.4462396545321
 31
0.0
  0
LINE
  5
B9B
330
1F
100
AcDbEntity
  8
0
 62
     0
370
    25
100
AcDbLine
 10
25.62070327416587
 20
359.4462223642644
 30
0.0
 11
25.62026732783755
 21
211.3097472281582
 31
0.0
  0
LINE
  5
B9C
330
1F
100
AcDbEntity
  8
0
 62
     0
370
    25
100
AcDbLine
 10
199.9328435367389
 20
201.0847056616563
 30
0.0
 11
199.9328435367389
 21
204.0847056616563
 31
0.0
  0
LINE
  5
B9D
330
1F
100
AcDbEntity
  8
0
 62
     0
370
    25
100
AcDbLine
 10
199.9328435367389
 20
204.0847056616563
 30
0.0
 11
47.67111017248498
 21
203.9295937940493
 31
0.0
  0
LINE
  5
B9E
330
1F
100
AcDbEntity
  8
0
 62
     0
100
AcDbLine
 10
25.62026732783755
 20
211.3097472281582
 30
0.0
 11
47.67111017248498
 21
203.9295937940493
 31
0.0
  0
LINE
  5
BEE
330
1F
100
AcDbEntity
  8
0
 62
     0
370
    25
100
AcDbLine
 10
199.9328435367389
 20
201.0847056616563
 30
0.0
 11
46.71894867664029
 21
201.0847056616563
 31
0.0
  0
LINE
  5
BF8
330
1F
100
AcDbEntity
  8
0
 62
     0
370
    25
100
AcDbLine
 10
46.71894867664031
 20
201.0847056616563
 30
0.0
 11
47.67111017248498
 21
203.9295937940493
 31
0.0
  0
HATCH
  5
BFC
330
1F
100
AcDbEntity
  8
0
 62
     0
370
    25
100
AcDbHatch
 10
0.0
 20
0.0
 30
0.0
210
0.0
220
0.0
230
1.0
  2
ANSI37
 70
     0
 71
     0
 91
        1
 92
        1
 93
        4
 72
     1
 10
199.9328435367389
 20
204.0847056616563
 11
47.67111017248498
 21
203.9295937940493
 72
     1
 10
47.67111017248498
 20
203.9295937940493
 11
46.71894867664031
 21
201.0847056616563
 72
     1
 10
46.71894867664029
 20
201.0847056616563
 11
199.9328435367389
 21
201.0847056616563
 72
     1
 10
199.9328435367389
 20
201.0847056616563
 11
199.9328435367389
 21
204.0847056616563
 97
        0
 75
     0
 76
     1
 52
0.0
 41
30.0
 77
     0
 78
     2
 53
45.0
 43
0.0
 44
0.0
 45
-2.651650429449552
 46
2.651650429449553
 79
     0
 53
135.0
 43
0.0
 44
0.0
 45
-2.651650429449553
 46
-2.651650429449552
 79
     0
 98
        1
 10
0.0
 20
0.0
1001
ACAD
1010
0.0
1020
0.0
1030
0.0
  0
LINE
  5
C05
330
1F
100
AcDbEntity
  8
0
 62
     0
370
    25
100
AcDbLine
 10
22.63230230600264
 20
209.1463151769859
 30
0.0
 11
25.62026732783755
 21
211.3097472281582
 31
0.0
  0
HATCH
  5
C08
330
1F
100
AcDbEntity
  8
0
 62
     0
370
    25
100
AcDbHatch
 10
0.0
 20
0.0
 30
0.0
210
0.0
220
0.0
230
1.0
  2
ANSI37
 70
     0
 71
     0
 91
        1
 92
        1
 93
        4
 72
     1
 10
25.62026732783755
 20
211.3097472281582
 11
47.67111017248498
 21
203.9295937940493
 72
     1
 10
47.67111017248498
 20
203.9295937940493
 11
46.71894867664031
 21
201.0847056616563
 72
     1
 10
46.71894867664029
 20
201.0847056616563
 11
22.63230230600264
 21
209.1463151769859
 72
     1
 10
22.63230230600264
 20
209.1463151769859
 11
25.62026732783755
 21
211.3097472281582
 97
        0
 75
     0
 76
     1
 52
60.0
 41
35.0
 77
     0
 78
     2
 53
105.0
 43
0.0
 44
0.0
 45
-4.225925490014674
 46
-1.132333322323527
 79
     0
 53
195.0
 43
0.0
 44
0.0
 45
1.132333322323527
 46
-4.225925490014674
 79
     0
 98
        1
 10
33.71776731687214
 20
206.7245419908345
1001
ACAD
1010
0.0
1020
0.0
1030
0.0
  0
LINE
  5
C13
330
1F
100
AcDbEntity
  8
0
 62
     0
370
    25
100
AcDbLine
 10
22.63230230600264
 20
359.4417676603398
 30
0.0
 11
22.63230230600264
 21
445.0482959010773
 31
0.0
  0
LINE
  5
C31
330
1F
100
AcDbEntity
  8
0
 62
     0
370
    25
100
AcDbLine
 10
9.931044912243891
 20
171.2421533339557
 30
0.0
 11
34.07695974248174
 21
163.1607071352406
 31
0.0
  0
HATCH
  5
CA9
330
1F
100
AcDbEntity
  8
0
 62
     0
370
    25
100
AcDbHatch
 10
0.0
 20
0.0
 30
0.0
210
0.0
220
0.0
230
1.0
  2
ANSI38
 70
     0
 71
     0
 91
        1
 92
        1
 93
        6
 72
     1
 10
18.61673786312718
 20
197.0978612427621
 11
22.63230230600264
 21
209.1463151769859
 72
     1
 10
22.63230230600264
 20
209.1463151769859
 11
46.71894867664029
 21
201.0847056616563
 72
     1
 10
46.71894867664029
 20
201.0847056616563
 11
42.70338423376488
 21
189.0362517274324
 72
     1
 10
42.70338423376488
 20
189.0362517274324
 11
38.68781979088947
 21
176.9877977932085
 72
     1
 10
38.68781979088947
 20
176.9877977932085
 11
14.60117342025177
 21
185.0494073085382
 72
     1
 10
14.60117342025177
 20
185.0494073085382
 11
18.61673786312718
 21
197.0978612427621
 97
        0
 75
     0
 76
     1
 52
90.0
 41
30.0
 77
     0
 78
     2
 53
135.0
 43
0.0
 44
0.0
 45
-2.651650429449553
 46
-2.651650429449552
 79
     0
 53
225.0
 43
0.0
 44
0.0
 45
-2.651650429449554
 46
-7.954951288348659
 79
     2
 49
9.375
 49
-5.625
 98
        1
 10
0.0
 20
0.0
1001
ACAD
1010
0.0
1020
0.0
1030
0.0
  0
LINE
  5
CD0
330
1F
100
AcDbEntity
  8
0
 62
     0
370
    25
100
AcDbLine
 10
199.9328435367389
 20
201.0847056616563
 30
0.0
 11
296.4175270251819
 21
201.0847056616565
 31
0.0
  0
HATCH
  5
CDB
330
1F
100
AcDbEntity
  8
0
 62
     0
370
    25
100
AcDbHatch
 10
0.0
 20
0.0
 30
0.0
210
0.0
220
0.0
230
1.0
  2
AR-CONC
 70
     0
 71
     0
 91
        2
 92
        7
 72
     0
 73
     1
 93
       16
 10
296.4175270251819
 20
154.8511753453979
 10
296.4175270251819
 20
170.091175345398
 10
296.4175270251819
 20
201.0847056616565
 10
199.9328435367389
 20
201.0847056616563
 10
46.71894867664028
 20
201.0847056616563
 10
42.70338423376488
 20
189.0362517274324
 10
38.68781979088947
 20
176.9877977932085
 10
34.07695974248173
 20
163.1607071352405
 10
22.63330762563777
 20
166.990806742122
 10
22.63489006295213
 20
101.0847056616562
 10
296.4175270251819
 20
101.0847056616563
 10
296.4175270251819
 20
131.3876604055316
 10
296.4175270251819
 20
137.2535391404981
 10
281.1775270251819
 20
146.052357242948
 10
296.4175270251819
 20
146.052357242948
 10
311.6575270251821
 20
146.052357242948
 97
        0
 92
       24
 93
        4
 72
     1
 10
33.12687672265143
 20
153.3484667078776
 11
58.72714957394747
 21
153.3484667078776
 72
     1
 10
58.72714957394747
 20
153.3484667078776
 11
58.72714957394747
 21
137.8123139111518
 72
     1
 10
58.72714957394747
 20
137.8123139111518
 11
33.12687672265143
 21
137.8123139111518
 72
     1
 10
33.12687672265143
 20
137.8123139111518
 11
33.12687672265143
 21
153.3484667078776
 97
        0
 75
     0
 76
     1
 52
0.0
 41
6.0
 77
     0
 78
    13
 53
50.0
 43
0.0
 44
0.0
 45
43.0356109560452
 46
-3.765128098955706
 79
     2
 49
4.5
 49
-49.5
 53
355.0
 43
0.0
 44
0.0
 45
-8.325080016779999
 46
45.1315280220007
 79
     2
 49
3.599999999999999
 49
-39.59999999999999
 53
100.4514
 43
3.5863008
 44
-0.3137604
 45
34.7105629028413
 46
41.36637252365722
 79
     2
 49
3.8244114
 49
-42.06852671999999
 53
46.1842
 43
0.0
 44
12.0
 45
64.03446291753866
 46
-9.931140859741084
 79
     2
 49
6.75
 49
-74.25
 53
96.6356
 43
5.336204699999999
 44
11.17240158
 45
56.0797623329222
 46
58.4470722540265
 79
     2
 49
5.736617279999999
 49
-63.10278
 53
351.1842000000001
 43
0.0
 44
12.0
 45
56.07971670801763
 46
58.44711605551947
 79
     2
 49
5.4
 49
-59.40000000000001
 53
21.0
 43
6.0
 44
9.0
 45
35.8144231271077
 46
-24.15713343992033
 79
     2
 49
4.5
 49
-49.5
 53
326.0
 43
6.0
 44
9.0
 45
14.5989199152949
 46
43.50900270281118
 79
     2
 49
3.599999999999999
 49
-39.59999999999999
 53
71.45140000000001
 43
8.98453398
 44
6.986903639999999
 45
50.4133577148894
 46
19.35182980259714
 79
     2
 49
3.8244114
 49
-42.06852671999999
 53
37.5
 43
0.0
 44
0.0
 45
0.7295913190374402
 46
19.97363122987869
 79
     6
 49
0.0
 49
-39.12
 49
0.0
 49
-40.2
 49
0.0
 49
-39.75
 53
7.499999999999999
 43
0.0
 44
0.0
 45
15.78417224652891
 46
23.66470271294161
 79
     6
 49
0.0
 49
-22.92
 49
0.0
 49
-38.22
 49
0.0
 49
-15.15
 53
327.5
 43
-13.38
 44
0.0
 45
32.02934617034455
 46
-1.353292304062787
 79
     6
 49
0.0
 49
-15.0
 49
0.0
 49
-46.79999999999999
 49
0.0
 49
-62.09999999999999
 53
317.5
 43
-19.38
 44
0.0
 45
34.99117016054318
 46
6.006298939939058
 79
     6
 49
0.0
 49
-19.5
 49
0.0
 49
-31.08
 49
0.0
 49
-44.09999999999999
 47
0.4175495735091774
 98
        1
 10
172.9713856102839
 20
152.5201087553075
1001
ACAD
1010
0.0
1020
0.0
1030
0.0
  0
HATCH
  5
CE7
330
1F
100
AcDbEntity
  8
0
 62
     0
370
    25
100
AcDbHatch
 10
0.0
 20
0.0
 30
0.0
210
0.0
220
0.0
230
1.0
  2
AR-CONC
 70
     0
 71
     0
 91
        3
 92
        7
 72
     0
 73
     1
 93
       18
 10
22.63230230600264
 20
351.6651086118177
 10
22.63230230600264
 20
445.0482959010772
 10
-18.85439215277506
 20
445.0482959010773
 10
-24.72027088774159
 20
445.0482959010773
 10
-33.51908899019151
 20
429.8082959010774
 10
-33.51908899019151
 20
445.0482959010773
 10
-33.51908899019151
 20
460.2882959010772
 10
-42.31790709264134
 20
445.0482959010772
 10
-57.55790709264137
 20
445.0482959010773
 10
-57.557907092489
 20
445.0483206514995
 10
-77.37116351583677
 20
445.0484426209069
 10
-77.3762101459246
 20
101.0847056616562
 10
22.63489006295213
 20
101.0847056616562
 10
22.63330762563777
 20
166.990806742122
 10
9.931044912243894
 20
171.2421533339557
 10
14.60117342025181
 20
185.0494073085379
 10
18.61673786312718
 20
197.0978612427621
 10
22.63230230600264
 20
209.1463151769859
 97
        0
 92
       24
 93
        4
 72
     1
 10
-9.329555490658567
 20
195.4520489736352
 11
14.09745678764975
 21
195.4520489736352
 72
     1
 10
14.09745678764975
 20
195.4520489736352
 11
14.09745678764975
 21
187.4343136393923
 72
     1
 10
14.09745678764975
 20
187.4343136393923
 11
-9.329555490658567
 21
187.4343136393923
 72
     1
 10
-9.329555490658567
 20
187.4343136393923
 11
-9.329555490658567
 21
195.4520489736352
 97
        0
 92
       24
 93
        4
 72
     1
 10
-8.069494099116958
 20
201.0472058631304
 11
12.83739539610814
 21
201.0472058631304
 72
     1
 10
12.83739539610814
 20
201.0472058631304
 11
12.83739539610814
 21
194.2020489736352
 72
     1
 10
12.83739539610814
 20
194.2020489736352
 11
-8.069494099116958
 21
194.2020489736352
 72
     1
 10
-8.069494099116958
 20
194.2020489736352
 11
-8.069494099116958
 21
201.0472058631304
 97
        0
 75
     0
 76
     1
 52
0.0
 41
6.0
 77
     0
 78
    13
 53
50.0
 43
0.0
 44
0.0
 45
43.0356109560452
 46
-3.765128098955706
 79
     2
 49
4.5
 49
-49.5
 53
355.0
 43
0.0
 44
0.0
 45
-8.325080016779999
 46
45.1315280220007
 79
     2
 49
3.599999999999999
 49
-39.59999999999999
 53
100.4514
 43
3.5863008
 44
-0.3137604
 45
34.7105629028413
 46
41.36637252365722
 79
     2
 49
3.8244114
 49
-42.06852671999999
 53
46.1842
 43
0.0
 44
12.0
 45
64.03446291753866
 46
-9.931140859741084
 79
     2
 49
6.75
 49
-74.25
 53
96.6356
 43
5.336204699999999
 44
11.17240158
 45
56.0797623329222
 46
58.4470722540265
 79
     2
 49
5.736617279999999
 49
-63.10278
 53
351.1842000000001
 43
0.0
 44
12.0
 45
56.07971670801763
 46
58.44711605551947
 79
     2
 49
5.4
 49
-59.40000000000001
 53
21.0
 43
6.0
 44
9.0
 45
35.8144231271077
 46
-24.15713343992033
 79
     2
 49
4.5
 49
-49.5
 53
326.0
 43
6.0
 44
9.0
 45
14.5989199152949
 46
43.50900270281118
 79
     2
 49
3.599999999999999
 49
-39.59999999999999
 53
71.45140000000001
 43
8.98453398
 44
6.986903639999999
 45
50.4133577148894
 46
19.35182980259714
 79
     2
 49
3.8244114
 49
-42.06852671999999
 53
37.5
 43
0.0
 44
0.0
 45
0.7295913190374402
 46
19.97363122987869
 79
     6
 49
0.0
 49
-39.12
 49
0.0
 49
-40.2
 49
0.0
 49
-39.75
 53
7.499999999999999
 43
0.0
 44
0.0
 45
15.78417224652891
 46
23.66470271294161
 79
     6
 49
0.0
 49
-22.92
 49
0.0
 49
-38.22
 49
0.0
 49
-15.15
 53
327.5
 43
-13.38
 44
0.0
 45
32.02934617034455
 46
-1.353292304062787
 79
     6
 49
0.0
 49
-15.0
 49
0.0
 49
-46.79999999999999
 49
0.0
 49
-62.09999999999999
 53
317.5
 43
-19.38
 44
0.0
 45
34.99117016054318
 46
6.006298939939058
 79
     6
 49
0.0
 49
-19.5
 49
0.0
 49
-31.08
 49
0.0
 49
-44.09999999999999
 47
0.5268574196399066
 98
        1
 10
-22.65169742023795
 20
323.3296586077224
1001
ACAD
1010
0.0
1020
0.0
1030
0.0
  0
LEADER
  5
CEB
102
{ACAD_XDICTIONARY
360
CED
102
}
102
{ACAD_REACTORS
330
CEE
102
}
330
1F
100
AcDbEntity
  8
0
 62
     0
370
    25
100
AcDbLeader
  3
Standard
 73
     0
 74
     0
 75
     1
 40
4.656548431105047
 41
78.35709413369714
 76
     3
 10
42.70338423376488
 20
189.0362517274324
 30
0.0
 10
94.68246154545136
 20
247.3930118060036
 30
0.0
 10
101.6824615454513
 20
247.3930118060036
 30
0.0
340
CEC
1001
ACAD
1000
DSTYLE
1002
{
1070
     3
1000
 MM\X
1070
     4
1000
 IN.
1070
    41
1040
7.0
1070
   140
1040
4.5
1070
   143
1040
0.039370079
1070
   147
1040
0.5
1070
   170
1070
     1
1070
   171
1070
     1
1070
   271
1070
     0
1070
   272
1070
     0
1070
   274
1070
     1
1002
}
  0
MTEXT
  5
CEC
102
{ACAD_REACTORS
330
CEB
102
}
330
1F
100
AcDbEntity
  8
0
 62
     0
370
    25
100
AcDbMText
 10
102.1824615454513
 20
247.3930118060036
 30
0.0
 40
4.5
 41
0.0
 46
0.0
 71
     4
 72
     1
  1
KRYSTOL REPAIR GROUT
 73
     1
 44
1.0
  0
LEADER
  5
CEF
102
{ACAD_XDICTIONARY
360
CF1
102
}
102
{ACAD_REACTORS
330
CF2
102
}
330
1F
100
AcDbEntity
  8
0
 62
     0
370
    25
100
AcDbLeader
  3
Standard
 73
     0
 74
     0
 75
     1
 40
4.656548431105047
 41
47.3574351978172
 76
     3
 10
36.3823897666856
 20
170.0742524642246
 30
0.0
 10
94.06014431233606
 20
233.3202943038523
 30
0.0
 10
101.060144312336
 20
233.3202943038523
 30
0.0
340
CF0
213
-0.5461034142630723
223
0.5682872939773063
233
0.0
1001
ACAD
1000
DSTYLE
1002
{
1070
     3
1000
 MM\X
1070
     4
1000
 IN.
1070
    41
1040
7.0
1070
   140
1040
4.5
1070
   143
1040
0.039370079
1070
   147
1040
0.5
1070
   170
1070
     1
1070
   171
1070
     1
1070
   271
1070
     0
1070
   272
1070
     0
1070
   274
1070
     1
1002
}
  0
MTEXT
  5
CF0
102
{ACAD_REACTORS
330
CEF
102
}
330
1F
100
AcDbEntity
  8
0
 62
     0
370
    25
100
AcDbMText
 10
102.1062477265991
 20
232.752007009875
 30
0.0
 40
4.5
 41
0.0
 46
0.0
 71
     4
 72
     1
  1
KRYSTOL PLUG
 73
     1
 44
1.0
  0
DIMENSION
  5
D23
330
1F
100
AcDbEntity
  8
0
 62
     0
100
AcDbDimension
280
     0
  2
*D7
 10
9.432942839623066
 20
213.5095677634409
 30
0.0
 11
5.447024595965238
 21
201.4512312500015
 31
0.0
 70
   161
 71
     5
 42
25.400080607468
 73
     0
 74
     0
 75
     0
  3
Kryton
100
AcDbAlignedDimension
 13
14.60117342025177
 23
185.0494073085382
 33
0.0
 14
22.57300990756743
 24
209.1660803354169
 34
0.0
1001
ACAD
1000
DSTYLE
1002
{
1070
   148
1040
0.5
1070
   271
1070
     0
1070
   147
1040
0.5
1002
}
  0
DIMENSION
  5
D66
330
1F
100
AcDbEntity
  8
0
 62
     0
370
    25
100
AcDbDimension
280
     0
  2
*D8
 10
49.31503620083184
 20
207.6196705111037
 30
0.0
 11
49.31503620083182
 21
283.5329550828179
 31
0.0
 70
    32
 71
     5
 42
151.8265691434283
 73
     0
 74
     0
 75
     0
  3
Standard
100
AcDbAlignedDimension
 13
25.63230230600265
 23
359.4462396545321
 33
0.0
 14
36.64567367920021
 24
207.6196705111037
 34
0.0
 50
90.0
100
AcDbRotatedDimension
1001
ACAD
1000
DSTYLE
1002
{
1070
    42
1040
1.5
1070
     3
1000
 MM\X
1070
     4
1000
 IN.
1070
    41
1040
7.0
1070
   140
1040
4.5
1070
   143
1040
0.039370079
1070
   147
1040
0.5
1070
   170
1070
     1
1070
   171
1070
     1
1070
   271
1070
     0
1070
   272
1070
     0
1070
   274
1070
     1
1002
}
  0
HATCH
  5
E16
330
1F
100
AcDbEntity
  8
0
 62
     0
370
    25
100
AcDbHatch
 10
0.0
 20
0.0
 30
0.0
210
0.0
220
0.0
230
1.0
  2
ANSI37
 70
     0
 71
     0
 91
        1
 92
       33
 93
        4
 72
     1
 10
25.62070327416587
 20
359.4462223642644
 11
25.62026732783755
 21
211.3097472281582
 72
     1
 10
22.63230230600264
 20
359.4417676603398
 11
25.63230230600265
 21
359.4462396545321
 72
     1
 10
22.63230230600264
 20
209.1463151769859
 11
22.63230230600264
 21
359.4417676603398
 72
     1
 10
22.63230230600264
 20
209.1463151769859
 11
25.62026732783755
 21
211.3097472281582
 97
        0
 75
     0
 76
     1
 52
0.0
 41
48.0
 77
     0
 78
     2
 53
45.0
 43
0.0
 44
0.0
 45
-4.242640687119284
 46
4.242640687119285
 79
     0
 53
135.0
 43
0.0
 44
0.0
 45
-4.242640687119285
 46
-4.242640687119284
 79
     0
 98
        1
 10
0.0
 20
0.0
1001
ACAD
1010
0.0
1020
0.0
1030
0.0
  0
HATCH
  5
E54
330
1F
100
AcDbEntity
  8
0
370
    25
100
AcDbHatch
 10
0.0
 20
0.0
 30
0.0
210
0.0
220
0.0
230
1.0
  2
SACNCR
 70
     0
 71
     0
 91
        1
 92
        1
 93
        4
 72
     1
 10
14.60117342025177
 20
185.0494073085382
 11
38.68781979088947
 21
176.9877977932085
 72
     1
 10
38.68781979088947
 20
176.9877977932085
 11
34.07695974248174
 21
163.1607071352406
 72
     1
 10
34.07695974248174
 20
163.1607071352406
 11
9.931044912243891
 21
171.2421533339557
 72
     1
 10
9.931044912243891
 20
171.2421533339557
 11
14.60117342025177
 21
185.0494073085382
 97
        0
 75
     0
 76
     1
 52
0.0
 41
1.0
 77
     0
 78
     2
 53
45.0
 43
0.0
 44
0.0
 45
-0.0662912607362388
 46
0.0662912607362388
 79
     0
 53
45.0
 43
0.066291261
 44
0.0
 45
-0.0662912607362388
 46
0.0662912607362388
 79
     2
 49
0.0
 49
-0.09375
 98
        1
 10
0.0
 20
0.0
1001
ACAD
1010
0.0
1020
0.0
1030
0.0
  0
VIEWPORT
  5
750
102
{ACAD_XDICTIONARY
360
751
102
}
330
58
100
AcDbEntity
 67
     1
  8
0
 62
     0
100
AcDbViewport
 10
6.324244061991779
 20
4.494444515830435
 30
0.0
 40
17.19711411142512
 41
9.115711650081799
 68
     1
 69
     1
 12
6.324244061991779
 22
4.494444515830435
 13
0.0
 23
0.0
 14
0.5
 24
0.5
 15
0.5
 25
0.5
 16
0.0
 26
0.0
 36
1.0
 17
0.0
 27
0.0
 37
0.0
 42
50.0
 43
0.0
 44
0.0
 45
9.115711650081799
 50
0.0
 51
0.0
 72
  1000
 90
   819232
  1

281
     0
 71
     1
 74
     0
110
0.0
120
0.0
130
0.0
111
1.0
121
0.0
131
0.0
112
0.0
122
1.0
132
0.0
 79
     0
146
0.0
170
     0
 61
     5
348
6EF
292
     1
282
     1
141
0.0
142
0.0
 63
   250
421
  3355443
  0
VIEWPORT
  5
755
102
{ACAD_XDICTIONARY
360
756
102
}
330
58
100
AcDbEntity
 67
     1
  8
0
 62
     0
100
AcDbViewport
 10
4.047877720224811
 20
5.221287727795282
 30
0.0
 40
8.962735591486833
 41
11.33173662488946
 68
     2
 69
     2
 12
111.2027641632216
 22
246.3039412114243
 13
0.0
 23
0.0
 14
0.5
 24
0.5
 15
6.0
 25
6.0
 16
0.0
 26
0.0
 36
1.0
 17
0.0
 27
0.0
 37
0.0
 42
50.0
 43
0.0
 44
0.0
 45
664.8180421783625
 50
0.0
 51
0.0
 72
  1000
 90
   819296
  1

281
     0
 71
     1
 74
     0
110
0.0
120
0.0
130
0.0
111
1.0
121
0.0
131
0.0
112
0.0
122
1.0
132
0.0
 79
     0
146
0.0
170
     0
 61
     5
348
6EF
292
     1
282
     1
141
0.0
142
0.0
 63
   250
421
  3355443
  0
ENDSEC
  0
SECTION
  2
OBJECTS
  0
DICTIONARY
  5
C
330
0
100
AcDbDictionary
281
     1
  3
ACAD_CIP_PREVIOUS_PRODUCT_INFO
350
F96
  3
ACAD_COLOR
350
73
  3
ACAD_DETAILVIEWSTYLE
350
F8E
  3
ACAD_GROUP
350
D
  3
ACAD_LAYOUT
350
1A
  3
ACAD_MATERIAL
350
72
  3
ACAD_MLEADERSTYLE
350
71E
  3
ACAD_MLINESTYLE
350
17
  3
ACAD_PLOTSETTINGS
350
19
  3
ACAD_PLOTSTYLENAME
350
E
  3
ACAD_SCALELIST
350
6FC
  3
ACAD_SECTIONVIEWSTYLE
350
F8C
  3
ACAD_TABLESTYLE
350
6FA
  3
ACAD_VISUALSTYLE
350
6E9
  3
AcadDim
350
69E
  3
ACDB_RECOMPOSE_DATA
350
FCE
  3
AcDbVariableDictionary
350
66
  0
DICTIONARY
  5
75C
330
2
100
AcDbDictionary
280
     1
281
     1
  3
ACAD_LAYERSTATES
360
75D
  0
DICTIONARY
  5
7BC
330
10
100
AcDbDictionary
280
     1
281
     1
  3
ADSK_XREC_LAYER_RECONCILED
360
7BD
  0
DICTIONARY
  5
A69
330
1F
100
AcDbDictionary
280
     1
281
     1
  3
ACAD_SORTENTS
360
A6A
  0
DICTIONARY
  5
566
330
564
100
AcDbDictionary
280
     1
281
     1
  0
DICTIONARY
  5
3D8
330
3C9
100
AcDbDictionary
280
     1
281
     1
  3
ACAD_DIMASSOC
360
3E4
  0
DICTIONARY
  5
F7E
330
59E
100
AcDbDictionary
280
     1
281
     1
  3
ACAD_MTEXT_2008_RT
360
FCA
  0
DICTIONARY
  5
CED
330
CEB
100
AcDbDictionary
280
     1
281
     1
  3
ACAD_DIMASSOC
360
CEE
  0
DICTIONARY
  5
CF1
330
CEF
100
AcDbDictionary
280
     1
281
     1
  3
ACAD_DIMASSOC
360
CF2
  0
DICTIONARY
  5
751
330
750
100
AcDbDictionary
280
     1
281
     1
  3
ASDK_XREC_ANNOTATION_SCALE_INFO
360
752
  0
DICTIONARY
  5
756
330
755
100
AcDbDictionary
280
     1
281
     1
  3
ASDK_XREC_ANNOTATION_SCALE_INFO
360
757
  0
XRECORD
  5
F96
102
{ACAD_REACTORS
330
C
102
}
330
C
100
AcDbXrecord
280
     1
300
ACD
300
2014
300
ACD_F_S
  0
DICTIONARY
  5
73
102
{ACAD_REACTORS
330
C
102
}
330
C
100
AcDbDictionary
281
     1
  0
DICTIONARY
  5
F8E
102
{ACAD_REACTORS
330
C
102
}
330
C
100
AcDbDictionary
281
     1
  3
Imperial24
350
F8F
  0
DICTIONARY
  5
D
102
{ACAD_REACTORS
330
C
102
}
330
C
100
AcDbDictionary
281
     1
  0
DICTIONARY
  5
1A
102
{ACAD_REACTORS
330
C
102
}
330
C
100
AcDbDictionary
281
     1
  3
Layout1
350
59
  3
Model
350
22
  0
DICTIONARY
  5
72
102
{ACAD_REACTORS
330
C
102
}
330
C
100
AcDbDictionary
281
     1
  3
ByBlock
350
6D9
  3
ByLayer
350
6D1
  3
Global
350
6E1
  0
DICTIONARY
  5
71E
102
{ACAD_REACTORS
330
C
102
}
330
C
100
AcDbDictionary
281
     1
  3
Standard
350
71F
  0
DICTIONARY
  5
17
102
{ACAD_REACTORS
330
C
102
}
330
C
100
AcDbDictionary
281
     1
  3
Standard
350
18
  0
DICTIONARY
  5
19
102
{ACAD_REACTORS
330
C
102
}
330
C
100
AcDbDictionary
281
     1
  0
ACDBDICTIONARYWDFLT
  5
E
102
{ACAD_REACTORS
330
C
102
}
330
C
100
AcDbDictionary
281
     1
  3
Normal
350
F
100
AcDbDictionaryWithDefault
340
F
  0
DICTIONARY
  5
6FC
102
{ACAD_REACTORS
330
C
102
}
330
C
100
AcDbDictionary
281
     1
  3
A0
350
6FD
  3
A1
350
6FE
  3
A2
350
6FF
  3
A3
350
700
  3
A4
350
701
  3
A5
350
702
  3
A6
350
703
  3
A7
350
704
  3
A8
350
705
  3
A9
350
706
  3
B0
350
707
  3
B1
350
708
  3
B2
350
709
  3
B3
350
70A
  3
B4
350
70B
  3
B5
350
70C
  3
B6
350
70D
  3
B7
350
70E
  3
B8
350
70F
  3
B9
350
710
  3
C0
350
711
  3
C1
350
712
  3
C2
350
713
  3
C3
350
714
  3
C4
350
715
  3
C5
350
716
  3
C6
350
717
  3
C7
350
718
  3
C8
350
719
  3
C9
350
71A
  3
D0
350
71B
  3
D1
350
71C
  3
D2
350
71D
  0
DICTIONARY
  5
F8C
102
{ACAD_REACTORS
330
C
102
}
330
C
100
AcDbDictionary
281
     1
  3
Imperial24
350
F8D
  0
DICTIONARY
  5
6FA
102
{ACAD_REACTORS
330
C
102
}
330
C
100
AcDbDictionary
281
     1
  3
Standard
350
6FB
  0
DICTIONARY
  5
6E9
102
{ACAD_REACTORS
330
C
102
}
330
C
100
AcDbDictionary
281
     1
  3
2dWireframe
350
6EF
  3
3D Hidden
350
6F1
  3
3dWireframe
350
6F0
  3
Basic
350
6EE
  3
Brighten
350
6F5
  3
ColorChange
350
6F9
  3
Conceptual
350
6F2
  3
Dim
350
6F4
  3
EdgeColorOff
350
F8B
  3
Facepattern
350
6F8
  3
Flat
350
6EA
  3
FlatWithEdges
350
6EB
  3
Gouraud
350
6EC
  3
GouraudWithEdges
350
6ED
  3
Hidden
350
F83
  3
JitterOff
350
F89
  3
Linepattern
350
6F7
  3
OverhangOff
350
F8A
  3
Realistic
350
6F3
  3
Shaded
350
F88
  3
Shaded with edges
350
F87
  3
Shades of Gray
350
F84
  3
Sketchy
350
F85
  3
Thicken
350
6F6
  3
Wireframe
350
F82
  3
X-Ray
350
F86
  0
XRECORD
  5
69E
102
{ACAD_REACTORS
330
C
102
}
330
C
100
AcDbXrecord
280
     1
 90
   990106
  3

 60
     0
 61
     0
 62
     1
 63
     1
 64
     0
 65
     0
 66
     0
 67
     3
 68
     1
 69
     0
 70
     0
 71
     0
 72
     0
 40
299.5479928158425
170
     2
340
0
  0
XRECORD
  5
FCE
102
{ACAD_REACTORS
330
C
102
}
330
C
100
AcDbXrecord
280
     1
 90
        1
330
59E
330
6FB
330
F8D
330
F8F
  0
DICTIONARY
  5
66
102
{ACAD_REACTORS
330
C
102
}
330
C
100
AcDbDictionary
281
     1
  3
CANNOSCALE
350
B5E
  3
CMLEADERSTYLE
350
B5C
  3
CTABLESTYLE
350
B5B
  3
CVIEWDETAILSTYLE
350
FBE
  3
CVIEWSECTIONSTYLE
350
FBF
  3
DIMASSOC
350
67
  3
HIDETEXT
350
6B
  3
LAYEREVAL
350
FC0
  3
LAYERNOTIFY
350
FC1
  3
LIGHTINGUNITS
350
B5F
  3
MSLTSCALE
350
B5D
  0
DICTIONARY
  5
75D
102
{ACAD_REACTORS
330
75C
102
}
330
75C
100
AcDbDictionary
281
     1
  0
XRECORD
  5
7BD
102
{ACAD_REACTORS
330
7BC
102
}
330
7BC
100
AcDbXrecord
280
     1
290
     1
  0
SORTENTSTABLE
  5
A6A
102
{ACAD_REACTORS
330
A69
102
}
330
A69
100
AcDbSortentsTable
330
1F
331
D23
  5
D66
331
362
  5
39C
331
1DE
  5
1DF
331
377
  5
40B
331
CEF
  5
CF0
331
35C
  5
35F
331
B9E
  5
39A
331
39C
  5
577
331
E54
  5
E54
331
1E5
  5
35D
331
363
  5
39D
331
1DF
  5
1E5
331
E16
  5
3C9
331
CD0
  5
CD2
331
C05
  5
C66
331
CF0
  5
D23
331
35D
  5
360
331
39D
  5
6A0
331
C31
  5
CD0
331
51C
  5
6BC
331
39E
  5
6A1
331
C13
  5
CA9
331
579
  5
B9C
331
CEB
  5
CEC
331
B9A
  5
BFC
331
59E
  5
BF8
331
37A
  5
40C
331
35F
  5
376
331
BFC
  5
C06
331
575
  5
AA2
331
CEC
  5
CEF
331
BEE
  5
C14
331
B9B
  5
C05
331
399
  5
51C
331
C08
  5
37A
331
360
  5
399
331
1C7
  5
1C8
331
B9C
  5
C11
331
39A
  5
56A
331
CE7
  5
CEB
331
56A
  5
A95
331
1C8
  5
1DE
331
CA9
  5
363
331
577
  5
B9B
331
3C9
  5
6A8
331
376
  5
409
331
BF8
  5
C31
331
39B
  5
575
331
B9D
  5
C13
331
D66
  5
E16
331
CDB
  5
CDF
  0
DIMASSOC
  5
3E4
102
{ACAD_REACTORS
330
3D8
102
}
330
3D8
100
AcDbDimAssoc
330
3C9
 90
        2
 70
     0
 71
     0
  1
AcDbOsnapPointRef
 72
    13
331
376
 73
     2
 91
        0
 40
0.0
 10
0.0
 20
0.0
 30
2.000000000000000E+50
 75
     0
  0
XRECORD
  5
FCA
102
{ACAD_REACTORS
330
F7E
102
}
330
F7E
100
AcDbXrecord
280
     1
 40
341951.0
  1
JOINT REPAIR - WALL TO SLAB (INBOARD)\P\pxqr;{\H0.54545x;REFER TO APPLICATION INSTRUCTION 5.12}
  0
DIMASSOC
  5
CEE
102
{ACAD_REACTORS
330
CED
102
}
330
CED
100
AcDbDimAssoc
330
CEB
 90
        1
 70
     0
 71
     0
  1
AcDbOsnapPointRef
 72
     1
331
39A
 73
     2
 91
        0
 40
1.0
 10
0.0
 20
0.0
 30
2.000000000000000E+50
 75
     0
  0
DIMASSOC
  5
CF2
102
{ACAD_REACTORS
330
CF1
102
}
330
CF1
100
AcDbDimAssoc
330
CEF
 90
        1
 70
     0
 71
     0
  1
AcDbOsnapPointRef
 72
     2
331
399
 73
     2
 91
        0
 40
0.500000000000001
 10
0.0
 20
0.0
 30
0.0
 75
     0
  0
XRECORD
  5
752
102
{ACAD_REACTORS
330
751
102
}
330
751
100
AcDbXrecord
280
     1
 90
        1
340
6FD
  0
XRECORD
  5
757
102
{ACAD_REACTORS
330
756
102
}
330
756
100
AcDbXrecord
280
     1
 90
        1
340
6FD
  0
ACDBDETAILVIEWSTYLE
  5
F8F
102
{ACAD_XDICTIONARY
360
FBB
102
}
102
{ACAD_REACTORS
330
F8E
102
}
330
F8E
100
AcDbModelDocViewStyle
 70
     0
  3
Imperial24
290
     0
100
AcDbDetailViewStyle
 70
     0
 71
     0
 90
        3
 71
     1
340
11
 62
   256
 40
0.24
340
0
 62
   256
 40
0.24
300

 40
0.36
280
     3
 71
     2
340
16
 90
       25
 62
   256
 71
     3
340
11
 62
   256
 40
0.24
 90
        1
 40
0.75
 90
        1
300
%<\AcVar ViewType \f "%tc1">% %<\AcVar ViewDetailId>%\PSCALE %<\AcVar ViewScale \f "%sn">%
 71
     4
340
16
 90
       25
 62
   256
340
16
 90
       25
 62
   256
280
     0
  0
LAYOUT
  5
59
102
{ACAD_XDICTIONARY
360
761
102
}
102
{ACAD_REACTORS
330
1A
102
}
330
1A
100
AcDbPlotSettings
  1

  2
none_device
  4
Letter_(8.50_x_11.00_Inches)
  6

 40
6.349999904632568
 41
6.349999904632568
 42
6.350006103515625
 43
6.350006103515625
 44
215.8999938964844
 45
279.3999938964844
 46
0.0
 47
0.0
 48
0.0
 49
0.0
140
0.0
141
0.0
142
1.0
143
1.0
 70
   688
 72
     0
 73
     0
 74
     5
  7

 75
    16
147
1.0
 76
     0
 77
     2
 78
   300
148
0.0
149
0.0
100
AcDbLayout
  1
Layout1
 70
     1
 71
     1
 10
-0.2499999962453767
 20
-0.2499999962453767
 11
8.249999763458733
 21
10.74999976345873
 12
0.0
 22
0.0
 32
0.0
 14
-0.4334900755186056
 24
-0.4445805846494509
 34
0.0
 15
8.529245515968227
 25
10.88715604024001
 35
0.0
146
0.0
 13
0.0
 23
0.0
 33
0.0
 16
1.0
 26
0.0
 36
0.0
 17
0.0
 27
1.0
 37
0.0
 76
     0
330
58
331
750
1001
ACAD_PSEXT
1000
None
1000
None
1000
Not applicable
1000
The layout will not be plotted unless a new plotter configuration name is selected.
1070
     0
  0
LAYOUT
  5
22
102
{ACAD_REACTORS
330
1A
102
}
330
1A
100
AcDbPlotSettings
  1

  2
none_device
  4
ANSI_A_(8.50_x_11.00_Inches)
  6

 40
6.349999904632568
 41
19.04999923706055
 42
6.350006103515625
 43
19.04998779296875
 44
215.8999938964844
 45
279.3999938964844
 46
0.0
 47
0.0
 48
0.0
 49
0.0
140
0.0
141
0.0
142
1.0
143
2.584895464708373
 70
 11952
 72
     0
 73
     1
 74
     0
  7

 75
     0
147
0.3868628397755418
 76
     0
 77
     2
 78
   300
148
0.0
149
0.0
100
AcDbLayout
  1
Model
 70
     1
 71
     0
 10
0.0
 20
0.0
 11
12.0
 21
9.0
 12
0.0
 22
0.0
 32
0.0
 14
0.0
 24
0.0
 34
0.0
 15
0.0
 25
0.0
 35
0.0
146
0.0
 13
0.0
 23
0.0
 33
0.0
 16
1.0
 26
0.0
 36
0.0
 17
0.0
 27
1.0
 37
0.0
 76
     0
330
1F
331
6CF
  0
MATERIAL
  5
6D9
102
{ACAD_XDICTIONARY
360
6DA
102
}
102
{ACAD_REACTORS
330
72
102
}
330
72
100
AcDbMaterial
  1
ByBlock
 72
     0
 43
0.0008202099737533
 43
0.0
 43
0.0
 43
0.0
 43
0.0
 43
0.0008202099737533
 43
0.0
 43
0.0
 43
0.0
 43
0.0
 43
1.0
 43
0.0
 43
0.0
 43
0.0
 43
0.0
 43
1.0
 77
     0
 47
0.0008202099737533
 47
0.0
 47
0.0
 47
0.0
 47
0.0
 47
0.0008202099737533
 47
0.0
 47
0.0
 47
0.0
 47
0.0
 47
1.0
 47
0.0
 47
0.0
 47
0.0
 47
0.0
 47
1.0
171
     0
 49
0.0008202099737533
 49
0.0
 49
0.0
 49
0.0
 49
0.0
 49
0.0008202099737533
 49
0.0
 49
0.0
 49
0.0
 49
0.0
 49
1.0
 49
0.0
 49
0.0
 49
0.0
 49
0.0
 49
1.0
175
     0
142
0.0008202099737533
142
0.0
142
0.0
142
0.0
142
0.0
142
0.0008202099737533
142
0.0
142
0.0
142
0.0
142
0.0
142
1.0
142
0.0
142
0.0
142
0.0
142
0.0
142
1.0
179
     0
144
0.0008202099737533
144
0.0
144
0.0
144
0.0
144
0.0
144
0.0008202099737533
144
0.0
144
0.0
144
0.0
144
0.0
144
1.0
144
0.0
144
0.0
144
0.0
144
0.0
144
1.0
147
0.0008202099737533
147
0.0
147
0.0
147
0.0
147
0.0
147
0.0008202099737533
147
0.0
147
0.0
147
0.0
147
0.0
147
1.0
147
0.0
147
0.0
147
0.0
147
0.0
147
1.0
  0
MATERIAL
  5
6D1
102
{ACAD_XDICTIONARY
360
6D2
102
}
102
{ACAD_REACTORS
330
72
102
}
330
72
100
AcDbMaterial
  1
ByLayer
 72
     0
 43
0.0008202099737533
 43
0.0
 43
0.0
 43
0.0
 43
0.0
 43
0.0008202099737533
 43
0.0
 43
0.0
 43
0.0
 43
0.0
 43
1.0
 43
0.0
 43
0.0
 43
0.0
 43
0.0
 43
1.0
 77
     0
 47
0.0008202099737533
 47
0.0
 47
0.0
 47
0.0
 47
0.0
 47
0.0008202099737533
 47
0.0
 47
0.0
 47
0.0
 47
0.0
 47
1.0
 47
0.0
 47
0.0
 47
0.0
 47
0.0
 47
1.0
171
     0
 49
0.0008202099737533
 49
0.0
 49
0.0
 49
0.0
 49
0.0
 49
0.0008202099737533
 49
0.0
 49
0.0
 49
0.0
 49
0.0
 49
1.0
 49
0.0
 49
0.0
 49
0.0
 49
0.0
 49
1.0
175
     0
142
0.0008202099737533
142
0.0
142
0.0
142
0.0
142
0.0
142
0.0008202099737533
142
0.0
142
0.0
142
0.0
142
0.0
142
1.0
142
0.0
142
0.0
142
0.0
142
0.0
142
1.0
179
     0
144
0.0008202099737533
144
0.0
144
0.0
144
0.0
144
0.0
144
0.0008202099737533
144
0.0
144
0.0
144
0.0
144
0.0
144
1.0
144
0.0
144
0.0
144
0.0
144
0.0
144
1.0
147
0.0008202099737533
147
0.0
147
0.0
147
0.0
147
0.0
147
0.0008202099737533
147
0.0
147
0.0
147
0.0
147
0.0
147
1.0
147
0.0
147
0.0
147
0.0
147
0.0
147
1.0
  0
MATERIAL
  5
6E1
102
{ACAD_XDICTIONARY
360
6E2
102
}
102
{ACAD_REACTORS
330
72
102
}
330
72
100
AcDbMaterial
  1
Global
 72
     0
 43
0.0008202099737533
 43
0.0
 43
0.0
 43
0.0
 43
0.0
 43
0.0008202099737533
 43
0.0
 43
0.0
 43
0.0
 43
0.0
 43
1.0
 43
0.0
 43
0.0
 43
0.0
 43
0.0
 43
1.0
 77
     0
 47
0.0008202099737533
 47
0.0
 47
0.0
 47
0.0
 47
0.0
 47
0.0008202099737533
 47
0.0
 47
0.0
 47
0.0
 47
0.0
 47
1.0
 47
0.0
 47
0.0
 47
0.0
 47
0.0
 47
1.0
171
     0
 49
0.0008202099737533
 49
0.0
 49
0.0
 49
0.0
 49
0.0
 49
0.0008202099737533
 49
0.0
 49
0.0
 49
0.0
 49
0.0
 49
1.0
 49
0.0
 49
0.0
 49
0.0
 49
0.0
 49
1.0
175
     0
142
0.0008202099737533
142
0.0
142
0.0
142
0.0
142
0.0
142
0.0008202099737533
142
0.0
142
0.0
142
0.0
142
0.0
142
1.0
142
0.0
142
0.0
142
0.0
142
0.0
142
1.0
179
     0
144
0.0008202099737533
144
0.0
144
0.0
144
0.0
144
0.0
144
0.0008202099737533
144
0.0
144
0.0
144
0.0
144
0.0
144
1.0
144
0.0
144
0.0
144
0.0
144
0.0
144
1.0
147
0.0008202099737533
147
0.0
147
0.0
147
0.0
147
0.0
147
0.0008202099737533
147
0.0
147
0.0
147
0.0
147
0.0
147
1.0
147
0.0
147
0.0
147
0.0
147
0.0
147
1.0
  0
MLEADERSTYLE
  5
71F
102
{ACAD_REACTORS
330
71E
102
}
330
71E
100
AcDbMLeaderStyle
179
     2
170
     2
171
     1
172
     0
 90
        2
 40
0.0
 41
0.0
173
     1
 91
-1056964608
340
14
 92
       -2
290
     1
 42
0.09
291
     1
 43
0.36
  3
Standard
 44
0.18
300

342
11
174
     1
178
     6
175
     1
176
     0
 93
-1056964608
 45
0.18
292
     0
297
     0
 46
0.18
 94
-1056964608
 47
1.0
 49
1.0
140
1.0
293
     1
141
0.0
294
     1
177
     0
142
1.0
295
     0
296
     0
143
0.125
271
     0
272
     9
273
     9
298
     0
  0
MLINESTYLE
  5
18
102
{ACAD_REACTORS
330
17
102
}
330
17
100
AcDbMlineStyle
  2
STANDARD
 70
     0
  3

 62
   256
 51
90.0
 52
90.0
 71
     2
 49
0.5
 62
   256
  6
BYLAYER
 49
-0.5
 62
   256
  6
BYLAYER
  0
ACDBPLACEHOLDER
  5
F
102
{ACAD_REACTORS
330
E
102
}
330
E
  0
SCALE
  5
6FD
102
{ACAD_REACTORS
330
6FC
102
}
330
6FC
100
AcDbScale
 70
     0
300
1:1
140
1.0
141
1.0
290
     1
  0
SCALE
  5
6FE
102
{ACAD_REACTORS
330
6FC
102
}
330
6FC
100
AcDbScale
 70
     0
300
1:2
140
1.0
141
2.0
290
     0
  0
SCALE
  5
6FF
102
{ACAD_REACTORS
330
6FC
102
}
330
6FC
100
AcDbScale
 70
     0
300
1:4
140
1.0
141
4.0
290
     0
  0
SCALE
  5
700
102
{ACAD_REACTORS
330
6FC
102
}
330
6FC
100
AcDbScale
 70
     0
300
1:5
140
1.0
141
5.0
290
     0
  0
SCALE
  5
701
102
{ACAD_REACTORS
330
6FC
102
}
330
6FC
100
AcDbScale
 70
     0
300
1:8
140
1.0
141
8.0
290
     0
  0
SCALE
  5
702
102
{ACAD_REACTORS
330
6FC
102
}
330
6FC
100
AcDbScale
 70
     0
300
1:10
140
1.0
141
10.0
290
     0
  0
SCALE
  5
703
102
{ACAD_REACTORS
330
6FC
102
}
330
6FC
100
AcDbScale
 70
     0
300
1:16
140
1.0
141
16.0
290
     0
  0
SCALE
  5
704
102
{ACAD_REACTORS
330
6FC
102
}
330
6FC
100
AcDbScale
 70
     0
300
1:20
140
1.0
141
20.0
290
     0
  0
SCALE
  5
705
102
{ACAD_REACTORS
330
6FC
102
}
330
6FC
100
AcDbScale
 70
     0
300
1:30
140
1.0
141
30.0
290
     0
  0
SCALE
  5
706
102
{ACAD_REACTORS
330
6FC
102
}
330
6FC
100
AcDbScale
 70
     0
300
1:40
140
1.0
141
40.0
290
     0
  0
SCALE
  5
707
102
{ACAD_REACTORS
330
6FC
102
}
330
6FC
100
AcDbScale
 70
     0
300
1:50
140
1.0
141
50.0
290
     0
  0
SCALE
  5
708
102
{ACAD_REACTORS
330
6FC
102
}
330
6FC
100
AcDbScale
 70
     0
300
1:100
140
1.0
141
100.0
290
     0
  0
SCALE
  5
709
102
{ACAD_REACTORS
330
6FC
102
}
330
6FC
100
AcDbScale
 70
     0
300
2:1
140
2.0
141
1.0
290
     0
  0
SCALE
  5
70A
102
{ACAD_REACTORS
330
6FC
102
}
330
6FC
100
AcDbScale
 70
     0
300
4:1
140
4.0
141
1.0
290
     0
  0
SCALE
  5
70B
102
{ACAD_REACTORS
330
6FC
102
}
330
6FC
100
AcDbScale
 70
     0
300
8:1
140
8.0
141
1.0
290
     0
  0
SCALE
  5
70C
102
{ACAD_REACTORS
330
6FC
102
}
330
6FC
100
AcDbScale
 70
     0
300
10:1
140
10.0
141
1.0
290
     0
  0
SCALE
  5
70D
102
{ACAD_REACTORS
330
6FC
102
}
330
6FC
100
AcDbScale
 70
     0
300
100:1
140
100.0
141
1.0
290
     0
  0
SCALE
  5
70E
102
{ACAD_REACTORS
330
6FC
102
}
330
6FC
100
AcDbScale
 70
     0
300
1/128" = 1'-0"
140
0.0078125
141
12.0
290
     0
  0
SCALE
  5
70F
102
{ACAD_REACTORS
330
6FC
102
}
330
6FC
100
AcDbScale
 70
     0
300
1/64" = 1'-0"
140
0.015625
141
12.0
290
     0
  0
SCALE
  5
710
102
{ACAD_REACTORS
330
6FC
102
}
330
6FC
100
AcDbScale
 70
     0
300
1/32" = 1'-0"
140
0.03125
141
12.0
290
     0
  0
SCALE
  5
711
102
{ACAD_REACTORS
330
6FC
102
}
330
6FC
100
AcDbScale
 70
     0
300
1/16" = 1'-0"
140
0.0625
141
12.0
290
     0
  0
SCALE
  5
712
102
{ACAD_REACTORS
330
6FC
102
}
330
6FC
100
AcDbScale
 70
     0
300
3/32" = 1'-0"
140
0.09375
141
12.0
290
     0
  0
SCALE
  5
713
102
{ACAD_REACTORS
330
6FC
102
}
330
6FC
100
AcDbScale
 70
     0
300
1/8" = 1'-0"
140
0.125
141
12.0
290
     0
  0
SCALE
  5
714
102
{ACAD_REACTORS
330
6FC
102
}
330
6FC
100
AcDbScale
 70
     0
300
3/16" = 1'-0"
140
0.1875
141
12.0
290
     0
  0
SCALE
  5
715
102
{ACAD_REACTORS
330
6FC
102
}
330
6FC
100
AcDbScale
 70
     0
300
1/4" = 1'-0"
140
0.25
141
12.0
290
     0
  0
SCALE
  5
716
102
{ACAD_REACTORS
330
6FC
102
}
330
6FC
100
AcDbScale
 70
     0
300
3/8" = 1'-0"
140
0.375
141
12.0
290
     0
  0
SCALE
  5
717
102
{ACAD_REACTORS
330
6FC
102
}
330
6FC
100
AcDbScale
 70
     0
300
1/2" = 1'-0"
140
0.5
141
12.0
290
     0
  0
SCALE
  5
718
102
{ACAD_REACTORS
330
6FC
102
}
330
6FC
100
AcDbScale
 70
     0
300
3/4" = 1'-0"
140
0.75
141
12.0
290
     0
  0
SCALE
  5
719
102
{ACAD_REACTORS
330
6FC
102
}
330
6FC
100
AcDbScale
 70
     0
300
1" = 1'-0"
140
1.0
141
12.0
290
     0
  0
SCALE
  5
71A
102
{ACAD_REACTORS
330
6FC
102
}
330
6FC
100
AcDbScale
 70
     0
300
1-1/2" = 1'-0"
140
1.5
141
12.0
290
     0
  0
SCALE
  5
71B
102
{ACAD_REACTORS
330
6FC
102
}
330
6FC
100
AcDbScale
 70
     0
300
3" = 1'-0"
140
3.0
141
12.0
290
     0
  0
SCALE
  5
71C
102
{ACAD_REACTORS
330
6FC
102
}
330
6FC
100
AcDbScale
 70
     0
300
6" = 1'-0"
140
6.0
141
12.0
290
     0
  0
SCALE
  5
71D
102
{ACAD_REACTORS
330
6FC
102
}
330
6FC
100
AcDbScale
 70
     0
300
1'-0" = 1'-0"
140
12.0
141
12.0
290
     0
  0
ACDBSECTIONVIEWSTYLE
  5
F8D
102
{ACAD_XDICTIONARY
360
FB9
102
}
102
{ACAD_REACTORS
330
F8C
102
}
330
F8C
100
AcDbModelDocViewStyle
 70
     0
  3
Imperial24
290
     0
100
AcDbSectionViewStyle
 70
     0
 71
     0
 90
       78
 71
     1
340
11
 62
   256
 40
0.24
340
0
340
0
 62
   256
 40
0.24
300
I, O, Q, S, X, Z
 40
0.48
 90
        3
 40
0.18
 90
        1
 71
     2
340
16
 90
       25
 62
   256
340
16
 90
       50
 62
   256
 40
0.24
 40
0.0
 40
0.24
 71
     3
340
11
 62
   256
 40
0.24
 90
        1
 40
0.75
 90
        1
300
%<\AcVar ViewType \f "%tc1">% %<\AcVar ViewSectionStartId>%-%<\AcVar ViewSectionEndId>%\PSCALE %<\AcVar ViewScale \f "%sn">%
 71
     4
 62
   256
 62
   257
300
ANSI31
 40
1.0
 90
        0
290
     0
290
     0
 90
        6
 40
0.0
 40
1.570796326794896
 40
0.2617993877991494
 40
1.308996938995747
 40
-0.2617993877991494
 40
1.832595714594046
  0
TABLESTYLE
  5
6FB
102
{ACAD_XDICTIONARY
360
B58
102
}
102
{ACAD_REACTORS
330
6FA
102
}
330
6FA
100
AcDbTableStyle
280
     0
  3
Standard
 70
     0
 71
     0
 40
0.06
 41
0.06
280
     0
281
     0
  7
Standard
140
0.18
170
     2
 62
     0
 63
     7
283
     0
 90
      512
 91
        0
  1

274
    -2
284
     1
 64
     0
275
    -2
285
     1
 65
     0
276
    -2
286
     1
 66
     0
277
    -2
287
     1
 67
     0
278
    -2
288
     1
 68
     0
279
    -2
289
     1
 69
     0
  7
Standard
140
0.25
170
     5
 62
     0
 63
     7
283
     0
 90
      512
 91
        0
  1

274
    -2
284
     1
 64
     0
275
    -2
285
     1
 65
     0
276
    -2
286
     1
 66
     0
277
    -2
287
     1
 67
     0
278
    -2
288
     1
 68
     0
279
    -2
289
     1
 69
     0
  7
Standard
140
0.18
170
     5
 62
     0
 63
     7
283
     0
 90
      512
 91
        0
  1

274
    -2
284
     1
 64
     0
275
    -2
285
     1
 65
     0
276
    -2
286
     1
 66
     0
277
    -2
287
     1
 67
     0
278
    -2
288
     1
 68
     0
279
    -2
289
     1
 69
     0
  0
VISUALSTYLE
  5
6EF
102
{ACAD_REACTORS
330
6E9
102
}
330
6E9
100
AcDbVisualStyle
  2
2dWireframe
 70
     4
177
     3
291
     0
 70
    58
 90
        0
176
     1
 90
        2
176
     1
 90
        0
176
     1
 90
        0
176
     1
 40
0.6
176
     1
 40
30.0
176
     1
 62
     7
420
 16777215
176
     1
 90
        1
176
     1
 90
        4
176
     1
 62
     7
176
     1
 62
   257
176
     1
 90
        1
176
     1
 90
        1
176
     1
 40
1.0
176
     1
 90
        0
176
     1
 62
   257
176
     1
 40
1.0
176
     1
 90
        1
176
     1
 90
        6
176
     1
 90
        2
176
     1
 62
     7
176
     1
 90
        5
176
     1
 90
        0
176
     1
 90
        0
176
     1
290
     0
176
     1
 90
        1
176
     1
 40
0.0
176
     1
 90
        0
176
     1
290
     1
176
     1
290
     1
176
     1
290
     0
176
     1
290
     0
176
     1
290
     0
176
     1
290
     0
176
     1
290
     0
176
     1
290
     0
176
     1
290
     0
176
     1
 90
       50
176
     1
 40
0.0
176
     1
 40
1.0
176
     1
 90
        0
176
     1
 62
    18
420
        0
176
     1
 90
       50
176
     1
 90
        3
176
     1
 62
     5
420
      255
176
     1
290
     0
176
     1
 90
       50
176
     1
 90
       50
176
     1
 90
       50
176
     1
290
     0
176
     1
 90
       50
176
     1
 62
   256
176
     0
 40
1.0
176
     0
 90
        2
176
     1
  1
strokes_ogs.tif
176
     1
290
     0
176
     1
 40
1.0
176
     1
 40
1.0
176
     1
  0
VISUALSTYLE
  5
6F1
102
{ACAD_REACTORS
330
6E9
102
}
330
6E9
100
AcDbVisualStyle
  2
3D Hidden
 70
     6
177
     3
291
     0
 70
    58
 90
        1
176
     1
 90
        2
176
     1
 90
        2
176
     1
 90
        0
176
     1
 40
0.6
176
     1
 40
30.0
176
     1
 62
     7
420
 16777215
176
     1
 90
        2
176
     1
 90
        2
176
     1
 62
     7
176
     1
 62
   257
176
     1
 90
        2
176
     1
 90
        1
176
     1
 40
40.0
176
     1
 90
        0
176
     1
 62
   257
176
     1
 40
1.0
176
     1
 90
        1
176
     1
 90
        6
176
     1
 90
        2
176
     1
 62
     7
176
     1
 90
        3
176
     1
 90
        0
176
     1
 90
        0
176
     1
290
     0
176
     1
 90
        1
176
     1
 40
0.0
176
     1
 90
        0
176
     1
290
     0
176
     1
290
     1
176
     1
290
     1
176
     1
290
     0
176
     1
290
     0
176
     1
290
     0
176
     1
290
     0
176
     1
290
     0
176
     1
290
     0
176
     1
 90
       50
176
     1
 40
0.0
176
     1
 40
1.0
176
     1
 90
        0
176
     1
 62
    18
420
        0
176
     1
 90
       50
176
     1
 90
        3
176
     1
 62
     5
420
      255
176
     1
290
     0
176
     1
 90
       50
176
     1
 90
       50
176
     1
 90
       50
176
     1
290
     0
176
     1
 90
       50
176
     1
 62
   256
176
     0
 40
1.0
176
     0
 90
        2
176
     1
  1
strokes_ogs.tif
176
     1
290
     0
176
     1
 40
1.0
176
     1
 40
1.0
176
     1
  0
VISUALSTYLE
  5
6F0
102
{ACAD_REACTORS
330
6E9
102
}
330
6E9
100
AcDbVisualStyle
  2
3dWireframe
 70
     5
177
     3
291
     0
 70
    58
 90
        0
176
     1
 90
        2
176
     1
 90
        0
176
     1
 90
        0
176
     1
 40
0.6
176
     1
 40
30.0
176
     1
 62
     7
420
 16777215
176
     1
 90
        1
176
     1
 90
        4
176
     1
 62
     7
176
     1
 62
   257
176
     1
 90
        1
176
     1
 90
        1
176
     1
 40
1.0
176
     1
 90
        0
176
     1
 62
   257
176
     1
 40
1.0
176
     1
 90
        1
176
     1
 90
        6
176
     1
 90
        2
176
     1
 62
     7
176
     1
 90
        5
176
     1
 90
        0
176
     1
 90
        0
176
     1
290
     0
176
     1
 90
        1
176
     1
 40
0.0
176
     1
 90
        0
176
     1
290
     0
176
     1
290
     1
176
     1
290
     1
176
     1
290
     0
176
     1
290
     0
176
     1
290
     0
176
     1
290
     0
176
     1
290
     0
176
     1
290
     0
176
     1
 90
       50
176
     1
 40
0.0
176
     1
 40
1.0
176
     1
 90
        0
176
     1
 62
    18
420
        0
176
     1
 90
       50
176
     1
 90
        3
176
     1
 62
     5
420
      255
176
     1
290
     0
176
     1
 90
       50
176
     1
 90
       50
176
     1
 90
       50
176
     1
290
     0
176
     1
 90
       50
176
     1
 62
   256
176
     0
 40
1.0
176
     0
 90
        2
176
     1
  1
strokes_ogs.tif
176
     1
290
     0
176
     1
 40
1.0
176
     1
 40
1.0
176
     1
  0
VISUALSTYLE
  5
6EE
102
{ACAD_REACTORS
330
6E9
102
}
330
6E9
100
AcDbVisualStyle
  2
Basic
 70
     7
177
     3
291
     1
 70
    58
 90
        1
176
     1
 90
        0
176
     1
 90
        1
176
     1
 90
        0
176
     1
 40
0.6
176
     1
 40
30.0
176
     1
 62
     7
420
 16777215
176
     1
 90
        0
176
     1
 90
        4
176
     1
 62
     7
176
     1
 62
   257
176
     1
 90
        1
176
     1
 90
        1
176
     1
 40
1.0
176
     1
 90
        8
176
     1
 62
     7
176
     1
 40
1.0
176
     1
 90
        1
176
     1
 90
        6
176
     1
 90
        2
176
     1
 62
     7
176
     1
 90
        5
176
     1
 90
        0
176
     1
 90
        0
176
     1
290
     0
176
     1
 90
        1
176
     1
 40
0.0
176
     1
 90
        0
176
     1
290
     0
176
     1
290
     1
176
     1
290
     1
176
     1
290
     0
176
     1
290
     0
176
     1
290
     0
176
     1
290
     0
176
     1
290
     0
176
     1
290
     0
176
     1
 90
       50
176
     1
 40
0.0
176
     1
 40
1.0
176
     1
 90
        0
176
     1
 62
    18
420
        0
176
     1
 90
       50
176
     1
 90
        3
176
     1
 62
     5
420
      255
176
     1
290
     0
176
     1
 90
       50
176
     1
 90
       50
176
     1
 90
       50
176
     1
290
     0
176
     1
 90
       50
176
     1
 62
   256
176
     0
 40
1.0
176
     0
 90
        2
176
     1
  1
strokes_ogs.tif
176
     1
290
     0
176
     1
 40
1.0
176
     1
 40
1.0
176
     1
  0
VISUALSTYLE
  5
6F5
102
{ACAD_REACTORS
330
6E9
102
}
330
6E9
100
AcDbVisualStyle
  2
Brighten
 70
    12
177
     3
291
     1
 70
    58
 90
        2
176
     1
 90
        2
176
     1
 90
        0
176
     1
 90
        0
176
     1
 40
0.6
176
     1
 40
30.0
176
     1
 62
     7
420
 16777215
176
     1
 90
        1
176
     1
 90
        4
176
     1
 62
     7
176
     1
 62
   257
176
     1
 90
        1
176
     1
 90
        1
176
     1
 40
1.0
176
     1
 90
        8
176
     1
 62
     7
176
     1
 40
1.0
176
     1
 90
        1
176
     1
 90
        6
176
     1
 90
        2
176
     1
 62
     7
176
     1
 90
        5
176
     1
 90
        0
176
     1
 90
        0
176
     1
290
     0
176
     1
 90
        1
176
     1
 40
50.0
176
     1
 90
        0
176
     1
290
     0
176
     1
290
     1
176
     1
290
     1
176
     1
290
     0
176
     1
290
     0
176
     1
290
     0
176
     1
290
     0
176
     1
290
     0
176
     1
290
     0
176
     1
 90
       50
176
     1
 40
0.0
176
     1
 40
1.0
176
     1
 90
        0
176
     1
 62
    18
420
        0
176
     1
 90
       50
176
     1
 90
        3
176
     1
 62
     5
420
      255
176
     1
290
     0
176
     1
 90
       50
176
     1
 90
       50
176
     1
 90
       50
176
     1
290
     0
176
     1
 90
       50
176
     1
 62
   256
176
     0
 40
1.0
176
     0
 90
        2
176
     1
  1
strokes_ogs.tif
176
     1
290
     0
176
     1
 40
1.0
176
     1
 40
1.0
176
     1
  0
VISUALSTYLE
  5
6F9
102
{ACAD_REACTORS
330
6E9
102
}
330
6E9
100
AcDbVisualStyle
  2
ColorChange
 70
    16
177
     3
291
     1
 70
    58
 90
        2
176
     1
 90
        2
176
     1
 90
        3
176
     1
 90
        0
176
     1
 40
0.6
176
     1
 40
30.0
176
     1
 62
     8
420
  8421504
176
     1
 90
        1
176
     1
 90
        4
176
     1
 62
     7
176
     1
 62
   257
176
     1
 90
        1
176
     1
 90
        1
176
     1
 40
1.0
176
     1
 90
        8
176
     1
 62
     8
420
  8421504
176
     1
 40
1.0
176
     1
 90
        1
176
     1
 90
        6
176
     1
 90
        2
176
     1
 62
     7
176
     1
 90
        5
176
     1
 90
        0
176
     1
 90
        0
176
     1
290
     0
176
     1
 90
        1
176
     1
 40
0.0
176
     1
 90
        0
176
     1
290
     0
176
     1
290
     1
176
     1
290
     1
176
     1
290
     0
176
     1
290
     0
176
     1
290
     0
176
     1
290
     0
176
     1
290
     0
176
     1
290
     0
176
     1
 90
       50
176
     1
 40
0.0
176
     1
 40
1.0
176
     1
 90
        0
176
     1
 62
    18
420
        0
176
     1
 90
       50
176
     1
 90
        3
176
     1
 62
     5
420
      255
176
     1
290
     0
176
     1
 90
       50
176
     1
 90
       50
176
     1
 90
       50
176
     1
290
     0
176
     1
 90
       50
176
     1
 62
   256
176
     0
 40
1.0
176
     0
 90
        2
176
     1
  1
strokes_ogs.tif
176
     1
290
     0
176
     1
 40
1.0
176
     1
 40
1.0
176
     1
  0
VISUALSTYLE
  5
6F2
102
{ACAD_REACTORS
330
6E9
102
}
330
6E9
100
AcDbVisualStyle
  2
Conceptual
 70
     9
177
     3
291
     0
 70
    58
 90
        3
176
     1
 90
        2
176
     1
 90
        0
176
     1
 90
        0
176
     1
 40
0.6
176
     1
 40
30.0
176
     1
 62
     7
420
 16777215
176
     1
 90
        2
176
     1
 90
        2
176
     1
 62
     7
176
     1
 62
   257
176
     1
 90
        1
176
     1
 90
        1
176
     1
 40
40.0
176
     1
 90
        8
176
     1
 62
     7
176
     1
 40
1.0
176
     1
 90
        1
176
     1
 90
        6
176
     1
 90
        2
176
     1
 62
     7
176
     1
 90
        3
176
     1
 90
        0
176
     1
 90
        0
176
     1
290
     0
176
     1
 90
        1
176
     1
 40
0.0
176
     1
 90
        0
176
     1
290
     0
176
     1
290
     1
176
     1
290
     1
176
     1
290
     0
176
     1
290
     0
176
     1
290
     0
176
     1
290
     0
176
     1
290
     0
176
     1
290
     0
176
     1
 90
       50
176
     1
 40
0.0
176
     1
 40
1.0
176
     1
 90
        0
176
     1
 62
    18
420
        0
176
     1
 90
       50
176
     1
 90
        3
176
     1
 62
     5
420
      255
176
     1
290
     0
176
     1
 90
       50
176
     1
 90
       50
176
     1
 90
       50
176
     1
290
     0
176
     1
 90
       50
176
     1
 62
   256
176
     0
 40
1.0
176
     0
 90
        2
176
     1
  1
strokes_ogs.tif
176
     1
290
     0
176
     1
 40
1.0
176
     1
 40
1.0
176
     1
  0
VISUALSTYLE
  5
6F4
102
{ACAD_REACTORS
330
6E9
102
}
330
6E9
100
AcDbVisualStyle
  2
Dim
 70
    11
177
     3
291
     1
 70
    58
 90
        2
176
     1
 90
        2
176
     1
 90
        0
176
     1
 90
        0
176
     1
 40
0.6
176
     1
 40
30.0
176
     1
 62
     7
420
 16777215
176
     1
 90
        1
176
     1
 90
        4
176
     1
 62
     7
176
     1
 62
   257
176
     1
 90
        1
176
     1
 90
        1
176
     1
 40
1.0
176
     1
 90
        8
176
     1
 62
     7
176
     1
 40
1.0
176
     1
 90
        1
176
     1
 90
        6
176
     1
 90
        2
176
     1
 62
     7
176
     1
 90
        5
176
     1
 90
        0
176
     1
 90
        0
176
     1
290
     0
176
     1
 90
        1
176
     1
 40
-50.0
176
     1
 90
        0
176
     1
290
     0
176
     1
290
     1
176
     1
290
     1
176
     1
290
     0
176
     1
290
     0
176
     1
290
     0
176
     1
290
     0
176
     1
290
     0
176
     1
290
     0
176
     1
 90
       50
176
     1
 40
0.0
176
     1
 40
1.0
176
     1
 90
        0
176
     1
 62
    18
420
        0
176
     1
 90
       50
176
     1
 90
        3
176
     1
 62
     5
420
      255
176
     1
290
     0
176
     1
 90
       50
176
     1
 90
       50
176
     1
 90
       50
176
     1
290
     0
176
     1
 90
       50
176
     1
 62
   256
176
     0
 40
1.0
176
     0
 90
        2
176
     1
  1
strokes_ogs.tif
176
     1
290
     0
176
     1
 40
1.0
176
     1
 40
1.0
176
     1
  0
VISUALSTYLE
  5
F8B
102
{ACAD_REACTORS
330
6E9
102
}
330
6E9
100
AcDbVisualStyle
  2
EdgeColorOff
 70
    22
177
     3
291
     1
 70
    58
 90
        2
176
     0
 90
        2
176
     0
 90
        0
176
     0
 90
        0
176
     0
 40
0.6
176
     0
 40
30.0
176
     0
 62
     7
420
 16777215
176
     0
 90
        1
176
     0
 90
        4
176
     0
 62
     7
176
     0
 62
   257
176
     0
 90
        1
176
     0
 90
        1
176
     0
 40
1.0
176
     0
 90
        8
176
     2
 62
     7
176
     0
 40
1.0
176
     0
 90
        1
176
     0
 90
        6
176
     0
 90
        2
176
     0
 62
     7
176
     0
 90
        5
176
     0
 90
        0
176
     0
 90
        0
176
     0
290
     0
176
     0
 90
        1
176
     0
 40
0.0
176
     0
 90
        0
176
     0
290
     0
176
     0
290
     1
176
     0
290
     1
176
     0
290
     0
176
     0
290
     0
176
     0
290
     0
176
     0
290
     0
176
     0
290
     0
176
     0
290
     0
176
     0
 90
       50
176
     0
 40
0.0
176
     0
 40
1.0
176
     0
 90
        0
176
     0
 62
    18
420
        0
176
     0
 90
       50
176
     0
 90
        3
176
     0
 62
     5
420
      255
176
     0
290
     0
176
     0
 90
       50
176
     0
 90
       50
176
     0
 90
       50
176
     0
290
     0
176
     0
 90
       50
176
     0
 62
   256
176
     0
 40
1.0
176
     0
 90
        2
176
     0
  1
strokes_ogs.tif
176
     0
290
     0
176
     0
 40
1.0
176
     0
 40
1.0
176
     0
  0
VISUALSTYLE
  5
6F8
102
{ACAD_REACTORS
330
6E9
102
}
330
6E9
100
AcDbVisualStyle
  2
Facepattern
 70
    15
177
     3
291
     1
 70
    58
 90
        2
176
     1
 90
        2
176
     1
 90
        0
176
     1
 90
        0
176
     1
 40
0.6
176
     1
 40
30.0
176
     1
 62
     7
420
 16777215
176
     1
 90
        1
176
     1
 90
        4
176
     1
 62
     7
176
     1
 62
   257
176
     1
 90
        1
176
     1
 90
        1
176
     1
 40
1.0
176
     1
 90
        8
176
     1
 62
     7
176
     1
 40
1.0
176
     1
 90
        1
176
     1
 90
        6
176
     1
 90
        2
176
     1
 62
     7
176
     1
 90
        5
176
     1
 90
        0
176
     1
 90
        0
176
     1
290
     0
176
     1
 90
        1
176
     1
 40
0.0
176
     1
 90
        0
176
     1
290
     0
176
     1
290
     1
176
     1
290
     1
176
     1
290
     0
176
     1
290
     0
176
     1
290
     0
176
     1
290
     0
176
     1
290
     0
176
     1
290
     0
176
     1
 90
       50
176
     1
 40
0.0
176
     1
 40
1.0
176
     1
 90
        0
176
     1
 62
    18
420
        0
176
     1
 90
       50
176
     1
 90
        3
176
     1
 62
     5
420
      255
176
     1
290
     0
176
     1
 90
       50
176
     1
 90
       50
176
     1
 90
       50
176
     1
290
     0
176
     1
 90
       50
176
     1
 62
   256
176
     0
 40
1.0
176
     0
 90
        2
176
     1
  1
strokes_ogs.tif
176
     1
290
     0
176
     1
 40
1.0
176
     1
 40
1.0
176
     1
  0
VISUALSTYLE
  5
6EA
102
{ACAD_REACTORS
330
6E9
102
}
330
6E9
100
AcDbVisualStyle
  2
Flat
 70
     0
177
     3
291
     1
 70
    58
 90
        2
176
     1
 90
        1
176
     1
 90
        1
176
     1
 90
        2
176
     1
 40
0.6
176
     1
 40
30.0
176
     1
 62
     7
420
 16777215
176
     1
 90
        0
176
     1
 90
        4
176
     1
 62
     7
176
     1
 62
   257
176
     1
 90
        1
176
     1
 90
        1
176
     1
 40
1.0
176
     1
 90
        8
176
     1
 62
     7
176
     1
 40
1.0
176
     1
 90
        1
176
     1
 90
        6
176
     1
 90
        2
176
     1
 62
     7
176
     1
 90
        5
176
     1
 90
        0
176
     1
 90
        0
176
     1
290
     0
176
     1
 90
       13
176
     1
 40
0.0
176
     1
 90
        0
176
     1
290
     0
176
     1
290
     1
176
     1
290
     1
176
     1
290
     0
176
     1
290
     0
176
     1
290
     0
176
     1
290
     0
176
     1
290
     0
176
     1
290
     0
176
     1
 90
       50
176
     1
 40
0.0
176
     1
 40
1.0
176
     1
 90
        0
176
     1
 62
    18
420
        0
176
     1
 90
       50
176
     1
 90
        3
176
     1
 62
     5
420
      255
176
     1
290
     0
176
     1
 90
       50
176
     1
 90
       50
176
     1
 90
       50
176
     1
290
     0
176
     1
 90
       50
176
     1
 62
   256
176
     0
 40
1.0
176
     0
 90
        2
176
     1
  1
strokes_ogs.tif
176
     1
290
     0
176
     1
 40
1.0
176
     1
 40
1.0
176
     1
  0
VISUALSTYLE
  5
6EB
102
{ACAD_REACTORS
330
6E9
102
}
330
6E9
100
AcDbVisualStyle
  2
FlatWithEdges
 70
     1
177
     3
291
     1
 70
    58
 90
        2
176
     1
 90
        1
176
     1
 90
        1
176
     1
 90
        2
176
     1
 40
0.6
176
     1
 40
30.0
176
     1
 62
     7
420
 16777215
176
     1
 90
        1
176
     1
 90
        4
176
     1
 62
     7
176
     1
 62
   257
176
     1
 90
        1
176
     1
 90
        1
176
     1
 40
1.0
176
     1
 90
        0
176
     1
 62
   257
176
     1
 40
1.0
176
     1
 90
        1
176
     1
 90
        6
176
     1
 90
        2
176
     1
 62
     7
176
     1
 90
        5
176
     1
 90
        0
176
     1
 90
        0
176
     1
290
     0
176
     1
 90
       13
176
     1
 40
0.0
176
     1
 90
        0
176
     1
290
     0
176
     1
290
     1
176
     1
290
     1
176
     1
290
     0
176
     1
290
     0
176
     1
290
     0
176
     1
290
     0
176
     1
290
     0
176
     1
290
     0
176
     1
 90
       50
176
     1
 40
0.0
176
     1
 40
1.0
176
     1
 90
        0
176
     1
 62
    18
420
        0
176
     1
 90
       50
176
     1
 90
        3
176
     1
 62
     5
420
      255
176
     1
290
     0
176
     1
 90
       50
176
     1
 90
       50
176
     1
 90
       50
176
     1
290
     0
176
     1
 90
       50
176
     1
 62
   256
176
     0
 40
1.0
176
     0
 90
        2
176
     1
  1
strokes_ogs.tif
176
     1
290
     0
176
     1
 40
1.0
176
     1
 40
1.0
176
     1
  0
VISUALSTYLE
  5
6EC
102
{ACAD_REACTORS
330
6E9
102
}
330
6E9
100
AcDbVisualStyle
  2
Gouraud
 70
     2
177
     3
291
     1
 70
    58
 90
        2
176
     1
 90
        2
176
     1
 90
        1
176
     1
 90
        2
176
     1
 40
0.6
176
     1
 40
30.0
176
     1
 62
     7
420
 16777215
176
     1
 90
        0
176
     1
 90
        4
176
     1
 62
     7
176
     1
 62
   257
176
     1
 90
        1
176
     1
 90
        1
176
     1
 40
1.0
176
     1
 90
        0
176
     1
 62
     7
176
     1
 40
1.0
176
     1
 90
        1
176
     1
 90
        6
176
     1
 90
        2
176
     1
 62
     7
176
     1
 90
        5
176
     1
 90
        0
176
     1
 90
        0
176
     1
290
     0
176
     1
 90
       13
176
     1
 40
0.0
176
     1
 90
        0
176
     1
290
     0
176
     1
290
     1
176
     1
290
     1
176
     1
290
     0
176
     1
290
     0
176
     1
290
     0
176
     1
290
     0
176
     1
290
     0
176
     1
290
     0
176
     1
 90
       50
176
     1
 40
0.0
176
     1
 40
1.0
176
     1
 90
        0
176
     1
 62
    18
420
        0
176
     1
 90
       50
176
     1
 90
        3
176
     1
 62
     5
420
      255
176
     1
290
     0
176
     1
 90
       50
176
     1
 90
       50
176
     1
 90
       50
176
     1
290
     0
176
     1
 90
       50
176
     1
 62
   256
176
     0
 40
1.0
176
     0
 90
        2
176
     1
  1
strokes_ogs.tif
176
     1
290
     0
176
     1
 40
1.0
176
     1
 40
1.0
176
     1
  0
VISUALSTYLE
  5
6ED
102
{ACAD_REACTORS
330
6E9
102
}
330
6E9
100
AcDbVisualStyle
  2
GouraudWithEdges
 70
     3
177
     3
291
     1
 70
    58
 90
        2
176
     1
 90
        2
176
     1
 90
        1
176
     1
 90
        2
176
     1
 40
0.6
176
     1
 40
30.0
176
     1
 62
     7
420
 16777215
176
     1
 90
        1
176
     1
 90
        4
176
     1
 62
     7
176
     1
 62
   257
176
     1
 90
        1
176
     1
 90
        1
176
     1
 40
1.0
176
     1
 90
        0
176
     1
 62
   257
176
     1
 40
1.0
176
     1
 90
        1
176
     1
 90
        6
176
     1
 90
        2
176
     1
 62
     7
176
     1
 90
        5
176
     1
 90
        0
176
     1
 90
        0
176
     1
290
     0
176
     1
 90
       13
176
     1
 40
0.0
176
     1
 90
        0
176
     1
290
     0
176
     1
290
     1
176
     1
290
     1
176
     1
290
     0
176
     1
290
     0
176
     1
290
     0
176
     1
290
     0
176
     1
290
     0
176
     1
290
     0
176
     1
 90
       50
176
     1
 40
0.0
176
     1
 40
1.0
176
     1
 90
        0
176
     1
 62
    18
420
        0
176
     1
 90
       50
176
     1
 90
        3
176
     1
 62
     5
420
      255
176
     1
290
     0
176
     1
 90
       50
176
     1
 90
       50
176
     1
 90
       50
176
     1
290
     0
176
     1
 90
       50
176
     1
 62
   256
176
     0
 40
1.0
176
     0
 90
        2
176
     1
  1
strokes_ogs.tif
176
     1
290
     0
176
     1
 40
1.0
176
     1
 40
1.0
176
     1
  0
VISUALSTYLE
  5
F83
102
{ACAD_REACTORS
330
6E9
102
}
330
6E9
100
AcDbVisualStyle
  2
Hidden
 70
     6
177
     3
291
     0
 70
    58
 90
        1
176
     1
 90
        2
176
     1
 90
        2
176
     1
 90
        0
176
     1
 40
0.6
176
     1
 40
30.0
176
     1
 62
     7
420
 16777215
176
     1
 90
        2
176
     1
 90
        2
176
     1
 62
     7
176
     1
 62
   257
176
     1
 90
        2
176
     1
 90
        1
176
     1
 40
40.0
176
     1
 90
        0
176
     1
 62
   257
176
     1
 40
1.0
176
     1
 90
        1
176
     1
 90
        6
176
     1
 90
        2
176
     1
 62
     7
176
     1
 90
        3
176
     1
 90
        0
176
     1
 90
        0
176
     1
290
     0
176
     1
 90
        1
176
     1
 40
0.0
176
     1
 90
        0
176
     1
290
     0
176
     1
290
     1
176
     1
290
     1
176
     1
290
     0
176
     1
290
     0
176
     1
290
     0
176
     1
290
     0
176
     1
290
     0
176
     1
290
     0
176
     1
 90
       50
176
     1
 40
0.0
176
     1
 40
1.0
176
     1
 90
        0
176
     1
 62
    18
420
        0
176
     1
 90
       50
176
     1
 90
        3
176
     1
 62
     5
420
      255
176
     1
290
     0
176
     1
 90
       50
176
     1
 90
       50
176
     1
 90
       50
176
     1
290
     0
176
     1
 90
       50
176
     1
 62
   256
176
     0
 40
1.0
176
     0
 90
        2
176
     1
  1
strokes_ogs.tif
176
     1
290
     0
176
     1
 40
1.0
176
     1
 40
1.0
176
     1
  0
VISUALSTYLE
  5
F89
102
{ACAD_REACTORS
330
6E9
102
}
330
6E9
100
AcDbVisualStyle
  2
JitterOff
 70
    20
177
     3
291
     1
 70
    58
 90
        2
176
     0
 90
        2
176
     0
 90
        0
176
     0
 90
        0
176
     0
 40
0.6
176
     0
 40
30.0
176
     0
 62
     7
420
 16777215
176
     0
 90
        1
176
     0
 90
        4
176
     0
 62
     7
176
     0
 62
   257
176
     0
 90
        1
176
     0
 90
        1
176
     0
 40
1.0
176
     0
 90
       10
176
     2
 62
     7
176
     0
 40
1.0
176
     0
 90
        1
176
     0
 90
        6
176
     0
 90
        2
176
     0
 62
     7
176
     0
 90
        5
176
     0
 90
        0
176
     0
 90
        0
176
     0
290
     0
176
     0
 90
        1
176
     0
 40
0.0
176
     0
 90
        0
176
     0
290
     0
176
     0
290
     1
176
     0
290
     1
176
     0
290
     0
176
     0
290
     0
176
     0
290
     0
176
     0
290
     0
176
     0
290
     0
176
     0
290
     0
176
     0
 90
       50
176
     0
 40
0.0
176
     0
 40
1.0
176
     0
 90
        0
176
     0
 62
    18
420
        0
176
     0
 90
       50
176
     0
 90
        3
176
     0
 62
     5
420
      255
176
     0
290
     0
176
     0
 90
       50
176
     0
 90
       50
176
     0
 90
       50
176
     0
290
     0
176
     0
 90
       50
176
     0
 62
   256
176
     0
 40
1.0
176
     0
 90
        2
176
     0
  1
strokes_ogs.tif
176
     0
290
     0
176
     0
 40
1.0
176
     0
 40
1.0
176
     0
  0
VISUALSTYLE
  5
6F7
102
{ACAD_REACTORS
330
6E9
102
}
330
6E9
100
AcDbVisualStyle
  2
Linepattern
 70
    14
177
     3
291
     1
 70
    58
 90
        2
176
     1
 90
        2
176
     1
 90
        0
176
     1
 90
        0
176
     1
 40
0.6
176
     1
 40
30.0
176
     1
 62
     7
420
 16777215
176
     1
 90
        1
176
     1
 90
        4
176
     1
 62
     7
176
     1
 62
   257
176
     1
 90
        7
176
     1
 90
        7
176
     1
 40
1.0
176
     1
 90
        8
176
     1
 62
     7
176
     1
 40
1.0
176
     1
 90
        1
176
     1
 90
        6
176
     1
 90
        2
176
     1
 62
     7
176
     1
 90
        5
176
     1
 90
        0
176
     1
 90
        0
176
     1
290
     0
176
     1
 90
        1
176
     1
 40
0.0
176
     1
 90
        0
176
     1
290
     0
176
     1
290
     1
176
     1
290
     1
176
     1
290
     0
176
     1
290
     0
176
     1
290
     0
176
     1
290
     0
176
     1
290
     0
176
     1
290
     0
176
     1
 90
       50
176
     1
 40
0.0
176
     1
 40
1.0
176
     1
 90
        0
176
     1
 62
    18
420
        0
176
     1
 90
       50
176
     1
 90
        3
176
     1
 62
     5
420
      255
176
     1
290
     0
176
     1
 90
       50
176
     1
 90
       50
176
     1
 90
       50
176
     1
290
     0
176
     1
 90
       50
176
     1
 62
   256
176
     0
 40
1.0
176
     0
 90
        2
176
     1
  1
strokes_ogs.tif
176
     1
290
     0
176
     1
 40
1.0
176
     1
 40
1.0
176
     1
  0
VISUALSTYLE
  5
F8A
102
{ACAD_REACTORS
330
6E9
102
}
330
6E9
100
AcDbVisualStyle
  2
OverhangOff
 70
    21
177
     3
291
     1
 70
    58
 90
        2
176
     0
 90
        2
176
     0
 90
        0
176
     0
 90
        0
176
     0
 40
0.6
176
     0
 40
30.0
176
     0
 62
     7
420
 16777215
176
     0
 90
        1
176
     0
 90
        4
176
     0
 62
     7
176
     0
 62
   257
176
     0
 90
        1
176
     0
 90
        1
176
     0
 40
1.0
176
     0
 90
        9
176
     2
 62
     7
176
     0
 40
1.0
176
     0
 90
        1
176
     0
 90
        6
176
     0
 90
        2
176
     0
 62
     7
176
     0
 90
        5
176
     0
 90
        0
176
     0
 90
        0
176
     0
290
     0
176
     0
 90
        1
176
     0
 40
0.0
176
     0
 90
        0
176
     0
290
     0
176
     0
290
     1
176
     0
290
     1
176
     0
290
     0
176
     0
290
     0
176
     0
290
     0
176
     0
290
     0
176
     0
290
     0
176
     0
290
     0
176
     0
 90
       50
176
     0
 40
0.0
176
     0
 40
1.0
176
     0
 90
        0
176
     0
 62
    18
420
        0
176
     0
 90
       50
176
     0
 90
        3
176
     0
 62
     5
420
      255
176
     0
290
     0
176
     0
 90
       50
176
     0
 90
       50
176
     0
 90
       50
176
     0
290
     0
176
     0
 90
       50
176
     0
 62
   256
176
     0
 40
1.0
176
     0
 90
        2
176
     0
  1
strokes_ogs.tif
176
     0
290
     0
176
     0
 40
1.0
176
     0
 40
1.0
176
     0
  0
VISUALSTYLE
  5
6F3
102
{ACAD_REACTORS
330
6E9
102
}
330
6E9
100
AcDbVisualStyle
  2
Realistic
 70
     8
177
     3
291
     0
 70
    58
 90
        2
176
     1
 90
        2
176
     1
 90
        0
176
     1
 90
        0
176
     1
 40
0.6
176
     1
 40
30.0
176
     1
 62
     7
420
 16777215
176
     1
 90
        1
176
     1
 90
        0
176
     1
 62
     7
176
     1
 62
   257
176
     1
 90
        1
176
     1
 90
        1
176
     1
 40
1.0
176
     1
 90
        8
176
     1
 62
     8
420
  7895160
176
     1
 40
1.0
176
     1
 90
        1
176
     1
 90
        6
176
     1
 90
        2
176
     1
 62
     7
176
     1
 90
        5
176
     1
 90
        0
176
     1
 90
        0
176
     1
290
     0
176
     1
 90
       13
176
     1
 40
0.0
176
     1
 90
        0
176
     1
290
     0
176
     1
290
     1
176
     1
290
     1
176
     1
290
     0
176
     1
290
     0
176
     1
290
     0
176
     1
290
     0
176
     1
290
     0
176
     1
290
     0
176
     1
 90
       50
176
     1
 40
0.0
176
     1
 40
1.0
176
     1
 90
        0
176
     1
 62
    18
420
        0
176
     1
 90
       50
176
     1
 90
        3
176
     1
 62
     5
420
      255
176
     1
290
     0
176
     1
 90
       50
176
     1
 90
       50
176
     1
 90
       50
176
     1
290
     0
176
     1
 90
       50
176
     1
 62
   256
176
     0
 40
1.0
176
     0
 90
        2
176
     1
  1
strokes_ogs.tif
176
     1
290
     0
176
     1
 40
1.0
176
     1
 40
1.0
176
     1
  0
VISUALSTYLE
  5
F88
102
{ACAD_REACTORS
330
6E9
102
}
330
6E9
100
AcDbVisualStyle
  2
Shaded
 70
    27
177
     3
291
     0
 70
    58
 90
        2
176
     1
 90
        2
176
     1
 90
        1
176
     1
 90
        2
176
     1
 40
0.6
176
     1
 40
30.0
176
     1
 62
     7
420
 16777215
176
     1
 90
        0
176
     1
 90
        4
176
     1
 62
     7
176
     1
 62
   257
176
     1
 90
        1
176
     1
 90
        1
176
     1
 40
1.0
176
     1
 90
        8
176
     1
 62
   257
176
     1
 40
1.0
176
     1
 90
        1
176
     1
 90
        6
176
     1
 90
        2
176
     1
 62
     8
420
  7895160
176
     1
 90
        3
176
     1
 90
        0
176
     1
 90
        0
176
     1
290
     0
176
     1
 90
        5
176
     1
 40
0.0
176
     1
 90
        0
176
     1
290
     0
176
     1
290
     1
176
     1
290
     1
176
     1
290
     0
176
     1
290
     0
176
     1
290
     0
176
     1
290
     0
176
     1
290
     0
176
     1
290
     0
176
     1
 90
       50
176
     1
 40
0.0
176
     1
 40
1.0
176
     1
 90
        0
176
     1
 62
    18
420
        0
176
     1
 90
       50
176
     1
 90
        3
176
     1
 62
     5
420
      255
176
     1
290
     0
176
     1
 90
       50
176
     1
 90
       50
176
     1
 90
       50
176
     1
290
     0
176
     1
 90
       50
176
     1
 62
   256
176
     0
 40
1.0
176
     0
 90
        2
176
     1
  1
strokes_ogs.tif
176
     1
290
     0
176
     1
 40
1.0
176
     1
 40
1.0
176
     1
  0
VISUALSTYLE
  5
F87
102
{ACAD_REACTORS
330
6E9
102
}
330
6E9
100
AcDbVisualStyle
  2
Shaded with edges
 70
    26
177
     3
291
     0
 70
    58
 90
        2
176
     1
 90
        2
176
     1
 90
        1
176
     1
 90
        2
176
     1
 40
0.6
176
     1
 40
30.0
176
     1
 62
     7
420
 16777215
176
     1
 90
        1
176
     1
 90
       10
176
     1
 62
     7
176
     1
 62
   257
176
     1
 90
        2
176
     1
 90
        1
176
     1
 40
1.0
176
     1
 90
        8
176
     1
 62
   257
176
     1
 40
1.0
176
     1
 90
        1
176
     1
 90
        6
176
     1
 90
        2
176
     1
 62
     7
176
     1
 90
        3
176
     1
 90
        0
176
     1
 90
        0
176
     1
290
     0
176
     1
 90
        5
176
     1
 40
0.0
176
     1
 90
        0
176
     1
290
     0
176
     1
290
     1
176
     1
290
     1
176
     1
290
     0
176
     1
290
     0
176
     1
290
     0
176
     1
290
     0
176
     1
290
     0
176
     1
290
     0
176
     1
 90
       50
176
     1
 40
0.0
176
     1
 40
1.0
176
     1
 90
        0
176
     1
 62
    18
420
        0
176
     1
 90
       50
176
     1
 90
        3
176
     1
 62
     5
420
      255
176
     1
290
     0
176
     1
 90
       50
176
     1
 90
       50
176
     1
 90
       50
176
     1
290
     0
176
     1
 90
       50
176
     1
 62
   256
176
     0
 40
1.0
176
     0
 90
        2
176
     1
  1
strokes_ogs.tif
176
     1
290
     0
176
     1
 40
1.0
176
     1
 40
1.0
176
     1
  0
VISUALSTYLE
  5
F84
102
{ACAD_REACTORS
330
6E9
102
}
330
6E9
100
AcDbVisualStyle
  2
Shades of Gray
 70
    23
177
     3
291
     0
 70
    58
 90
        2
176
     1
 90
        2
176
     1
 90
        3
176
     1
 90
        0
176
     1
 40
0.6
176
     1
 40
30.0
176
     1
 62
     7
420
 16777215
176
     1
 90
        2
176
     1
 90
        2
176
     1
 62
     7
176
     1
 62
     7
176
     1
 90
        1
176
     1
 90
        1
176
     1
 40
40.0
176
     1
 90
        8
176
     1
 62
     7
176
     1
 40
1.0
176
     1
 90
        1
176
     1
 90
        6
176
     1
 90
        2
176
     1
 62
     7
176
     1
 90
        3
176
     1
 90
        0
176
     1
 90
        0
176
     1
290
     0
176
     1
 90
        1
176
     1
 40
0.0
176
     1
 90
        0
176
     1
290
     0
176
     1
290
     1
176
     1
290
     1
176
     1
290
     0
176
     1
290
     0
176
     1
290
     0
176
     1
290
     0
176
     1
290
     0
176
     1
290
     0
176
     1
 90
       50
176
     1
 40
0.0
176
     1
 40
1.0
176
     1
 90
        0
176
     1
 62
    18
420
        0
176
     1
 90
       50
176
     1
 90
        3
176
     1
 62
     5
420
      255
176
     1
290
     0
176
     1
 90
       50
176
     1
 90
       50
176
     1
 90
       50
176
     1
290
     0
176
     1
 90
       50
176
     1
 62
   256
176
     0
 40
1.0
176
     0
 90
        2
176
     1
  1
strokes_ogs.tif
176
     1
290
     0
176
     1
 40
1.0
176
     1
 40
1.0
176
     1
  0
VISUALSTYLE
  5
F85
102
{ACAD_REACTORS
330
6E9
102
}
330
6E9
100
AcDbVisualStyle
  2
Sketchy
 70
    24
177
     3
291
     0
 70
    58
 90
        1
176
     1
 90
        2
176
     1
 90
        2
176
     1
 90
        0
176
     1
 40
0.6
176
     1
 40
30.0
176
     1
 62
     7
420
 16777215
176
     1
 90
        2
176
     1
 90
        2
176
     1
 62
     7
176
     1
 62
     7
176
     1
 90
        1
176
     1
 90
        1
176
     1
 40
40.0
176
     1
 90
       11
176
     1
 62
     7
176
     1
 40
1.0
176
     1
 90
        1
176
     1
 90
        6
176
     1
 90
        2
176
     1
 62
     7
176
     1
 90
        6
176
     1
 90
        0
176
     1
 90
        0
176
     1
290
     0
176
     1
 90
        1
176
     1
 40
0.0
176
     1
 90
        0
176
     1
290
     0
176
     1
290
     1
176
     1
290
     1
176
     1
290
     0
176
     1
290
     0
176
     1
290
     0
176
     1
290
     0
176
     1
290
     0
176
     1
290
     0
176
     1
 90
       50
176
     1
 40
0.0
176
     1
 40
1.0
176
     1
 90
        0
176
     1
 62
    18
420
        0
176
     1
 90
       50
176
     1
 90
        3
176
     1
 62
     5
420
      255
176
     1
290
     0
176
     1
 90
       50
176
     1
 90
       50
176
     1
 90
       50
176
     1
290
     0
176
     1
 90
       50
176
     1
 62
   256
176
     0
 40
1.0
176
     0
 90
        2
176
     1
  1
strokes_ogs.tif
176
     1
290
     0
176
     1
 40
1.0
176
     1
 40
1.0
176
     1
  0
VISUALSTYLE
  5
6F6
102
{ACAD_REACTORS
330
6E9
102
}
330
6E9
100
AcDbVisualStyle
  2
Thicken
 70
    13
177
     3
291
     1
 70
    58
 90
        2
176
     1
 90
        2
176
     1
 90
        0
176
     1
 90
        0
176
     1
 40
0.6
176
     1
 40
30.0
176
     1
 62
     7
420
 16777215
176
     1
 90
        1
176
     1
 90
        4
176
     1
 62
     7
176
     1
 62
   257
176
     1
 90
        1
176
     1
 90
        1
176
     1
 40
1.0
176
     1
 90
       12
176
     1
 62
     7
176
     1
 40
1.0
176
     1
 90
        1
176
     1
 90
        6
176
     1
 90
        2
176
     1
 62
     7
176
     1
 90
        5
176
     1
 90
        0
176
     1
 90
        0
176
     1
290
     0
176
     1
 90
        1
176
     1
 40
0.0
176
     1
 90
        0
176
     1
290
     0
176
     1
290
     1
176
     1
290
     1
176
     1
290
     0
176
     1
290
     0
176
     1
290
     0
176
     1
290
     0
176
     1
290
     0
176
     1
290
     0
176
     1
 90
       50
176
     1
 40
0.0
176
     1
 40
1.0
176
     1
 90
        0
176
     1
 62
    18
420
        0
176
     1
 90
       50
176
     1
 90
        3
176
     1
 62
     5
420
      255
176
     1
290
     0
176
     1
 90
       50
176
     1
 90
       50
176
     1
 90
       50
176
     1
290
     0
176
     1
 90
       50
176
     1
 62
   256
176
     0
 40
1.0
176
     0
 90
        2
176
     1
  1
strokes_ogs.tif
176
     1
290
     0
176
     1
 40
1.0
176
     1
 40
1.0
176
     1
  0
VISUALSTYLE
  5
F82
102
{ACAD_REACTORS
330
6E9
102
}
330
6E9
100
AcDbVisualStyle
  2
Wireframe
 70
     5
177
     3
291
     0
 70
    58
 90
        0
176
     1
 90
        2
176
     1
 90
        0
176
     1
 90
        0
176
     1
 40
0.6
176
     1
 40
30.0
176
     1
 62
     7
420
 16777215
176
     1
 90
        1
176
     1
 90
        4
176
     1
 62
     7
176
     1
 62
   257
176
     1
 90
        1
176
     1
 90
        1
176
     1
 40
1.0
176
     1
 90
        0
176
     1
 62
   257
176
     1
 40
1.0
176
     1
 90
        1
176
     1
 90
        6
176
     1
 90
        2
176
     1
 62
     7
176
     1
 90
        3
176
     1
 90
        0
176
     1
 90
        0
176
     1
290
     0
176
     1
 90
        1
176
     1
 40
0.0
176
     1
 90
        0
176
     1
290
     0
176
     1
290
     1
176
     1
290
     1
176
     1
290
     0
176
     1
290
     0
176
     1
290
     0
176
     1
290
     0
176
     1
290
     0
176
     1
290
     0
176
     1
 90
       50
176
     1
 40
0.0
176
     1
 40
1.0
176
     1
 90
        0
176
     1
 62
    18
420
        0
176
     1
 90
       50
176
     1
 90
        3
176
     1
 62
     5
420
      255
176
     1
290
     0
176
     1
 90
       50
176
     1
 90
       50
176
     1
 90
       50
176
     1
290
     0
176
     1
 90
       50
176
     1
 62
   256
176
     0
 40
1.0
176
     0
 90
        2
176
     1
  1
strokes_ogs.tif
176
     1
290
     0
176
     1
 40
1.0
176
     1
 40
1.0
176
     1
  0
VISUALSTYLE
  5
F86
102
{ACAD_REACTORS
330
6E9
102
}
330
6E9
100
AcDbVisualStyle
  2
X-Ray
 70
    25
177
     3
291
     0
 70
    58
 90
        2
176
     1
 90
        2
176
     1
 90
        1
176
     1
 90
        1
176
     1
 40
0.5
176
     1
 40
30.0
176
     1
 62
     7
420
 16777215
176
     1
 90
        1
176
     1
 90
        0
176
     1
 62
     7
176
     1
 62
   257
176
     1
 90
        1
176
     1
 90
        1
176
     1
 40
1.0
176
     1
 90
        8
176
     1
 62
     7
176
     1
 40
1.0
176
     1
 90
        1
176
     1
 90
        6
176
     1
 90
        2
176
     1
 62
     7
176
     1
 90
        3
176
     1
 90
        0
176
     1
 90
        0
176
     1
290
     0
176
     1
 90
       13
176
     1
 40
0.0
176
     1
 90
        0
176
     1
290
     0
176
     1
290
     1
176
     1
290
     1
176
     1
290
     0
176
     1
290
     0
176
     1
290
     0
176
     1
290
     0
176
     1
290
     0
176
     1
290
     0
176
     1
 90
       50
176
     1
 40
0.0
176
     1
 40
1.0
176
     1
 90
        0
176
     1
 62
    18
420
        0
176
     1
 90
       50
176
     1
 90
        3
176
     1
 62
     5
420
      255
176
     1
290
     0
176
     1
 90
       50
176
     1
 90
       50
176
     1
 90
       50
176
     1
290
     0
176
     1
 90
       50
176
     1
 62
   256
176
     0
 40
1.0
176
     0
 90
        2
176
     1
  1
strokes_ogs.tif
176
     1
290
     0
176
     1
 40
1.0
176
     1
 40
1.0
176
     1
  0
DICTIONARYVAR
  5
B5E
102
{ACAD_REACTORS
330
66
102
}
330
66
100
DictionaryVariables
280
     0
  1
1:1
  0
DICTIONARYVAR
  5
B5C
102
{ACAD_REACTORS
330
66
102
}
330
66
100
DictionaryVariables
280
     0
  1
STANDARD
  0
DICTIONARYVAR
  5
B5B
102
{ACAD_REACTORS
330
66
102
}
330
66
100
DictionaryVariables
280
     0
  1
STANDARD
  0
DICTIONARYVAR
  5
FBE
102
{ACAD_REACTORS
330
66
102
}
330
66
100
DictionaryVariables
280
     0
  1
Imperial24
  0
DICTIONARYVAR
  5
FBF
102
{ACAD_REACTORS
330
66
102
}
330
66
100
DictionaryVariables
280
     0
  1
Imperial24
  0
DICTIONARYVAR
  5
67
102
{ACAD_REACTORS
330
66
102
}
330
66
100
DictionaryVariables
280
     0
  1
2
  0
DICTIONARYVAR
  5
6B
102
{ACAD_REACTORS
330
66
102
}
330
66
100
DictionaryVariables
280
     0
  1
1
  0
DICTIONARYVAR
  5
FC0
102
{ACAD_REACTORS
330
66
102
}
330
66
100
DictionaryVariables
280
     0
  1
1
  0
DICTIONARYVAR
  5
FC1
102
{ACAD_REACTORS
330
66
102
}
330
66
100
DictionaryVariables
280
     0
  1
15
  0
DICTIONARYVAR
  5
B5F
102
{ACAD_REACTORS
330
66
102
}
330
66
100
DictionaryVariables
280
     0
  1
0
  0
DICTIONARYVAR
  5
B5D
102
{ACAD_REACTORS
330
66
102
}
330
66
100
DictionaryVariables
280
     0
  1
0
  0
DICTIONARY
  5
FBB
330
F8F
100
AcDbDictionary
280
     1
281
     1
  3
ACAD_XREC_ROUNDTRIP
360
FCD
  0
DICTIONARY
  5
761
330
59
100
AcDbDictionary
280
     1
281
     1
  0
DICTIONARY
  5
6DA
330
6D9
100
AcDbDictionary
280
     1
281
     1
  3
BUMPTILE
360
6DC
  3
DIFFUSETILE
360
6DB
  3
OPACITYTILE
360
6DF
  3
REFLECTIONTILE
360
6DE
  3
REFRACTIONTILE
360
6E0
  3
SPECULARTILE
360
6DD
  0
DICTIONARY
  5
6D2
330
6D1
100
AcDbDictionary
280
     1
281
     1
  3
BUMPTILE
360
6D4
  3
DIFFUSETILE
360
6D3
  3
OPACITYTILE
360
6D7
  3
REFLECTIONTILE
360
6D6
  3
REFRACTIONTILE
360
6D8
  3
SPECULARTILE
360
6D5
  0
DICTIONARY
  5
6E2
330
6E1
100
AcDbDictionary
280
     1
281
     1
  3
BUMPTILE
360
6E4
  3
DIFFUSETILE
360
6E3
  3
OPACITYTILE
360
6E7
  3
REFLECTIONTILE
360
6E6
  3
REFRACTIONTILE
360
6E8
  3
SPECULARTILE
360
6E5
  0
DICTIONARY
  5
FB9
330
F8D
100
AcDbDictionary
280
     1
281
     1
  3
ACAD_XREC_ROUNDTRIP
360
FCC
  0
DICTIONARY
  5
B58
330
6FB
100
AcDbDictionary
280
     1
281
     1
  3
ACAD_ROUNDTRIP_2008_TABLESTYLE_CELLSTYLEMAP
360
FCB
  0
XRECORD
  5
FCD
102
{ACAD_REACTORS
330
FBB
102
}
330
FBB
100
AcDbXrecord
280
     1
102
DISPLAYNAME
  1
Imperial24
102
FLAGS
 90
        0
  0
XRECORD
  5
6DC
102
{ACAD_REACTORS
330
6DA
102
}
330
6DA
100
AcDbXrecord
280
     1
270
     1
271
     1
  0
XRECORD
  5
6DB
102
{ACAD_REACTORS
330
6DA
102
}
330
6DA
100
AcDbXrecord
280
     1
270
     1
271
     1
  0
XRECORD
  5
6DF
102
{ACAD_REACTORS
330
6DA
102
}
330
6DA
100
AcDbXrecord
280
     1
270
     1
271
     1
  0
XRECORD
  5
6DE
102
{ACAD_REACTORS
330
6DA
102
}
330
6DA
100
AcDbXrecord
280
     1
270
     1
271
     1
  0
XRECORD
  5
6E0
102
{ACAD_REACTORS
330
6DA
102
}
330
6DA
100
AcDbXrecord
280
     1
270
     1
271
     1
  0
XRECORD
  5
6DD
102
{ACAD_REACTORS
330
6DA
102
}
330
6DA
100
AcDbXrecord
280
     1
270
     1
271
     1
  0
XRECORD
  5
6D4
102
{ACAD_REACTORS
330
6D2
102
}
330
6D2
100
AcDbXrecord
280
     1
270
     1
271
     1
  0
XRECORD
  5
6D3
102
{ACAD_REACTORS
330
6D2
102
}
330
6D2
100
AcDbXrecord
280
     1
270
     1
271
     1
  0
XRECORD
  5
6D7
102
{ACAD_REACTORS
330
6D2
102
}
330
6D2
100
AcDbXrecord
280
     1
270
     1
271
     1
  0
XRECORD
  5
6D6
102
{ACAD_REACTORS
330
6D2
102
}
330
6D2
100
AcDbXrecord
280
     1
270
     1
271
     1
  0
XRECORD
  5
6D8
102
{ACAD_REACTORS
330
6D2
102
}
330
6D2
100
AcDbXrecord
280
     1
270
     1
271
     1
  0
XRECORD
  5
6D5
102
{ACAD_REACTORS
330
6D2
102
}
330
6D2
100
AcDbXrecord
280
     1
270
     1
271
     1
  0
XRECORD
  5
6E4
102
{ACAD_REACTORS
330
6E2
102
}
330
6E2
100
AcDbXrecord
280
     1
270
     1
271
     1
  0
XRECORD
  5
6E3
102
{ACAD_REACTORS
330
6E2
102
}
330
6E2
100
AcDbXrecord
280
     1
270
     1
271
     1
  0
XRECORD
  5
6E7
102
{ACAD_REACTORS
330
6E2
102
}
330
6E2
100
AcDbXrecord
280
     1
270
     1
271
     1
  0
XRECORD
  5
6E6
102
{ACAD_REACTORS
330
6E2
102
}
330
6E2
100
AcDbXrecord
280
     1
270
     1
271
     1
  0
XRECORD
  5
6E8
102
{ACAD_REACTORS
330
6E2
102
}
330
6E2
100
AcDbXrecord
280
     1
270
     1
271
     1
  0
XRECORD
  5
6E5
102
{ACAD_REACTORS
330
6E2
102
}
330
6E2
100
AcDbXrecord
280
     1
270
     1
271
     1
  0
XRECORD
  5
FCC
102
{ACAD_REACTORS
330
FB9
102
}
330
FB9
100
AcDbXrecord
280
     1
102
DISPLAYNAME
  1
Imperial24
102
FLAGS
 90
        0
  0
CELLSTYLEMAP
  5
FCB
102
{ACAD_REACTORS
330
B58
102
}
330
B58
100
AcDbCellStyleMap
 90
        3
300
CELLSTYLE
  1
TABLEFORMAT_BEGIN
 90
        5
170
     1
 91
        0
 92
    32768
 62
   257
 93
        1
300
CONTENTFORMAT
  1
CONTENTFORMAT_BEGIN
 90
        0
 91
        0
 92
      512
 93
        0
300

 40
0.0
140
1.0
 94
        5
 62
     0
340
11
144
0.25
309
CONTENTFORMAT_END
171
     0
 94
        0
309
TABLEFORMAT_END
  1
CELLSTYLE_BEGIN
 90
        1
 91
        1
300
_TITLE
309
CELLSTYLE_END
300
CELLSTYLE
  1
TABLEFORMAT_BEGIN
 90
        5
170
     1
 91
        0
 92
        0
 62
   257
 93
        1
300
CONTENTFORMAT
  1
CONTENTFORMAT_BEGIN
 90
        0
 91
        0
 92
      512
 93
        0
300

 40
0.0
140
1.0
 94
        5
 62
     0
340
11
144
0.18
309
CONTENTFORMAT_END
171
     0
 94
        0
309
TABLEFORMAT_END
  1
CELLSTYLE_BEGIN
 90
        2
 91
        1
300
_HEADER
309
CELLSTYLE_END
300
CELLSTYLE
  1
TABLEFORMAT_BEGIN
 90
        5
170
     1
 91
        0
 92
        0
 62
   257
 93
        1
300
CONTENTFORMAT
  1
CONTENTFORMAT_BEGIN
 90
        0
 91
        0
 92
      512
 93
        0
300

 40
0.0
140
1.0
 94
        2
 62
     0
340
11
144
0.18
309
CONTENTFORMAT_END
171
     0
 94
        0
309
TABLEFORMAT_END
  1
CELLSTYLE_BEGIN
 90
        3
 91
        2
300
_DATA
309
CELLSTYLE_END
  0
ENDSEC
  0
SECTION
  2
ACDSDATA
 70
     2
 71
     6
  0
ACDSSCHEMA
 90
        0
  1
AcDb_Thumbnail_Schema
  2
AcDbDs::ID
280
    10
 91
        8
  2
Thumbnail_Data
280
    15
 91
        0
101
ACDSRECORD
 95
        0
 90
        1
  2
AcDbDs::TreatedAsObjectData
280
     1
291
     1
101
ACDSRECORD
 95
        0
 90
        2
  2
AcDbDs::Legacy
280
     1
291
     1
101
ACDSRECORD
  1
AcDbDs::ID
 90
        3
  2
AcDs:Indexable
280
     1
291
     1
101
ACDSRECORD
  1
AcDbDs::ID
 90
        4
  2
AcDbDs::HandleAttribute
280
     7
282
     1
  0
ACDSSCHEMA
 90
        1
  1
AcDbDs::TreatedAsObjectDataSchema
  2
AcDbDs::TreatedAsObjectData
280
     1
 91
        0
  0
ACDSSCHEMA
 90
        2
  1
AcDbDs::LegacySchema
  2
AcDbDs::Legacy
280
     1
 91
        0
  0
ACDSSCHEMA
 90
        3
  1
AcDbDs::IndexedPropertySchema
  2
AcDs:Indexable
280
     1
 91
        0
  0
ACDSSCHEMA
 90
        4
  1
AcDbDs::HandleAttributeSchema
  2
AcDbDs::HandleAttribute
280
     7
 91
        1
284
     1
  0
ACDSRECORD
 90
        0
  2
AcDbDs::ID
280
    10
320
59
  2
Thumbnail_Data
280
    15
 94
     2450
310
89504E470D0A1A0A0000000D49484452000000C500000100080300000034B4427100000300504C5445FFFFFF000000C8C8C80000000000000000000000000000000000000000000000000000330000660000990000CC0000FF0033000033330033660033990033CC0033FF0066000066330066660066990066CC0066FF0099
310
000099330099660099990099CC0099FF00CC0000CC3300CC6600CC9900CCCC00CCFF00FF0000FF3300FF6600FF9900FFCC00FFFF3300003300333300663300993300CC3300FF3333003333333333663333993333CC3333FF3366003366333366663366993366CC3366FF3399003399333399663399993399CC3399FF33CC00
310
33CC3333CC6633CC9933CCCC33CCFF33FF0033FF3333FF6633FF9933FFCC33FFFF6600006600336600666600996600CC6600FF6633006633336633666633996633CC6633FF6666006666336666666666996666CC6666FF6699006699336699666699996699CC6699FF66CC0066CC3366CC6666CC9966CCCC66CCFF66FF0066
310
FF3366FF6666FF9966FFCC66FFFF9900009900339900669900999900CC9900FF9933009933339933669933999933CC9933FF9966009966339966669966999966CC9966FF9999009999339999669999999999CC9999FF99CC0099CC3399CC6699CC9999CCCC99CCFF99FF0099FF3399FF6699FF9999FFCC99FFFFCC0000CC00
310
33CC0066CC0099CC00CCCC00FFCC3300CC3333CC3366CC3399CC33CCCC33FFCC6600CC6633CC6666CC6699CC66CCCC66FFCC9900CC9933CC9966CC9999CC99CCCC99FFCCCC00CCCC33CCCC66CCCC99CCCCCCCCCCFFCCFF00CCFF33CCFF66CCFF99CCFFCCCCFFFFFF0000FF0033FF0066FF0099FF00CCFF00FFFF3300FF3333
310
FF3366FF3399FF33CCFF33FFFF6600FF6633FF6666FF6699FF66CCFF66FFFF9900FF9933FF9966FF9999FF99CCFF99FFFFCC00FFCC33FFCC66FFCC99FFCCCCFFCCFFFFFF00FFFF33FFFF66FFFF99FFFFCCFFFFFF0000000D0D0D1A1A1A2828283535354343435050505D5D5D6B6B6B787878868686939393A1A1A1AEAEAEBB
310
BBBBC9C9C9D6D6D6E4E4E4F1F1F1FFFFFF000000000000000000000000000000000000000000000000000000000000B0E2D2350000064D4944415478DAED9D898EAB381045F9FFCF3C5F32D2BC046CE35A6C2071A50BE98D5A249DE6C4B55E2FB3B1FDC295144991141205EFAB78A1BD1CAF7CE3974A8AE8A3901449911449
310
B13C45E6EEA4488AA4488AA4F8435D52562049911449911449911449911449911449F1873B8BEC589322296EA3202956A160790AC2520CE66E92E2E31408D73F8B42BC161D0B3A37287F5EA210BB44B14CFCB529306E08F7961B0BAAE7A5F7E4EB53D43E0B9BCFC896A2A0792F3D77208677A37B3C916254E76989E2175BB1
310
3A72D14A772C5FB0688D389CF5364F528942C1B263316DF08B54BA388CE5F513DD941D86421DBDD529C0F3BD2F3F16A71F9A02F1FF1B5128F4DF8E4F11782C88E917B31FB044EE733674C1EBA8A01A48D3E4BD1AF3804A4EC42E09D30F08EF1781BCDB1603A38C059231458B51BF902F3AC23E11FD02212C058951279933A2
310
45BD4C0929C951CF2E05C817D0D53C8A3B4B52D07F5A640AD61F0BA120615B86C2705BD4027D0169EA5ADF1D8002CF2B9545AD3E16543984901685D077108402C70704190B758232925F8488B484CD17B7F5DD0128B0DABC086301A6EB07B1283D0084B0A8F77010D9BBE9B6771163144D02847031CAF80496A7F03D54A8AC
310
87743B6CEEA65915198CA2D59CD842663DA2FA05C61085B12882D451DE2E693D8B9AE8F5400C58DFDDC0E0A640585EB73A05AA6E406D512B53389C2A18C5391A402CBF40AE03C3A8CDE252F9280AA7F9E24A9AF96897443C0DC4C823A90D7EB91A2C5592481D2B7D21279845895A27C12D2A5ADFAD5585C658A05F4BC42843
310
C9C1BC3E41E19AB9972958702C10141264612140D6C3984B625B960277A4655B93A223AFC99A39B2777F85A2B7AFDBAE6991BDFBD37A54F7DB6F52629F026538BED725F597D422C528B68FA6F2E15E0F6AA5A73B161F8618DAAF5765EBF741273D8A4F43D814ED542465AAE8673D8C18C5ED85C9A045F17EF2FD8F9D2928FF
310
732F0537595473A24E673D2D55245B8562D76B3B7FA1BE73EC7355D7903C60FF039A79F77B7A1D675418D8E659CEF3088574364BB759A87F6EE8781242AC8AFCB3F60814142017AEA7283685A28EBD7CECBA95A238E1EB95FE782BB6C387D0A8E7A6343B0DAE5354AA54794ED9E1DFC6273197B86EB528411ED80A0CDF7607
310
432242A9472F50502905C7701C55D5FBDF60F13418C5981B8BF60010CA429C621CF6052228C38E61F38661311B697B474EEC12F35ED7FE0363265138B625A394D77E8A53946A0590C2B56996AFCDAFFE661BD3021C6B38379AEAEFE8F2AA48AE3F3C6D4CD01D86E76254636CCDD990036EAA9FB86365B7CB14B455394D61E2
310
AACAE4CDC9141C3C3C16BDD6417425459130468B7BC6E2FCD52229E222A8CFC39D12EF54BEB016DB6D5D0AB467C5FA48357FF8FD454D95A770E8A9ABD1C3B71517B093FDE49A9CE39B2D57519855148EACA456A38F506CF65632ACF3384602C2250A94048B5EA58E4B4BF4B764DFA31E9C121687EF30D91C14A9C787751345
310
E1F47BDBAD4D75781A23AC960073681D7A94A237F7BA541C99817923E39EB1386FC6A523F50C491A1E0F54839AB7D743E9EFF7402B433068586C9276D14DB1F6BE243CDF532911BA3BB7C15E0A4B15944FD230033D82EC362755EA222B73148EE1C790DD26D20703BDED9C1E85D212AAF52DCD24E074277B8902EF978B66D3
310
9EC26A4C1073F7DD6302065D5BF3A786B19ACCA799336AC4E294B2AF1F187D6D624D0E46BBECDCF7C74017C3656DD0E51066656E744D431177AE6375A8317AD9240D0E95F98D8A89731685ECD5CA42FAF37C8DF03160EA82F7E60BB7CA3474BCF6C9C770D7AEB37E81CBF0CA097DEBC09DCE3C683B33C555EF9EEBE0E60491
310
7292BDF7C63B29F0653D4F6C90737E575699D2A3DC6DE78520E33874E152DFBDE27593597FF74A8AA4488AA4884B41580A9222291EE04A8AA4488AA4488AA4488AA4488A2B14D1AFBF46C1B1276CDF6F78ACF7DFEF14FF63E946F97EBF735F3B02C732F0E273DE3B6C0696958C501C7FAEDEC4CAB67395B333AD7ECFB19E6A
310
9F7D393EE0FD6E8AA57C38A6C86729AAD582FB96BD72F53606C5BE38FAFDB4C740957FC535D13F44513FEDF154D4EBCEAB7993CAEC76B36C6C8BE6BDFBD31F378278F7E5AD3EBF14A39E627976D6E253B93B2992226BDAA4488AA4488AA4488AA4488AD4A39222299222299222297E2BF7651D95144991146128CEBAAE2CF9
310
2A62F0177E2973775224C56F53FCC2F51FC4216F527314983C0000000049454E44AE426082
  0
ACDSRECORD
 90
        0
  2
AcDbDs::ID
280
    10
320
22
  2
Thumbnail_Data
280
    15
 94
     2199
310
89504E470D0A1A0A0000000D4948445200000100000000870803000000CE6E778000000300504C5445212830000000C8C8C80000000000000000000000000000000000000000000000000000330000660000990000CC0000FF0033000033330033660033990033CC0033FF0066000066330066660066990066CC0066FF0099
310
000099330099660099990099CC0099FF00CC0000CC3300CC6600CC9900CCCC00CCFF00FF0000FF3300FF6600FF9900FFCC00FFFF3300003300333300663300993300CC3300FF3333003333333333663333993333CC3333FF3366003366333366663366993366CC3366FF3399003399333399663399993399CC3399FF33CC00
310
33CC3333CC6633CC9933CCCC33CCFF33FF0033FF3333FF6633FF9933FFCC33FFFF6600006600336600666600996600CC6600FF6633006633336633666633996633CC6633FF6666006666336666666666996666CC6666FF6699006699336699666699996699CC6699FF66CC0066CC3366CC6666CC9966CCCC66CCFF66FF0066
310
FF3366FF6666FF9966FFCC66FFFF9900009900339900669900999900CC9900FF9933009933339933669933999933CC9933FF9966009966339966669966999966CC9966FF9999009999339999669999999999CC9999FF99CC0099CC3399CC6699CC9999CCCC99CCFF99FF0099FF3399FF6699FF9999FFCC99FFFFCC0000CC00
310
33CC0066CC0099CC00CCCC00FFCC3300CC3333CC3366CC3399CC33CCCC33FFCC6600CC6633CC6666CC6699CC66CCCC66FFCC9900CC9933CC9966CC9999CC99CCCC99FFCCCC00CCCC33CCCC66CCCC99CCCCCCCCCCFFCCFF00CCFF33CCFF66CCFF99CCFFCCCCFFFFFF0000FF0033FF0066FF0099FF00CCFF00FFFF3300FF3333
310
FF3366FF3399FF33CCFF33FFFF6600FF6633FF6666FF6699FF66CCFF66FFFF9900FF9933FF9966FF9999FF99CCFF99FFFFCC00FFCC33FFCC66FFCC99FFCCCCFFCCFFFFFF00FFFF33FFFF66FFFF99FFFFCCFFFFFF0000000D0D0D1A1A1A2828283535354343435050505D5D5D6B6B6B787878868686939393A1A1A1AEAEAEBB
310
BBBBC9C9C9D6D6D6E4E4E4F1F1F1FFFFFF000000000000000000000000000000000000000000000000000000000000B21171F6000005524944415478DAED5DEBD6EC100CF5FEEFBBFF9FF59D991204411854BF739BD69A365BB2E5A6C718EF80610F70171263F73B50BE723600128CF07600CED6005C0D78B9065C002E0025
310
A9AE065C120405233CDEA501EF04C05C002E0097037C346061C189139E0500DF3FF0398F638507EF08FD57FAEFCF8100084C0056F2BF7F6C0F00446318C5C0291E21D2F3FEEA58802AF74B8321DC60E88500E0E50024047D1100BC58AF21C154647353623727783A00B81A70FD800B403633705781D301C08B01C0E5806B02
310
5703AE065C00EE323812806F4EE55352FBD4153E1F3E25067C2F7CCB0DE4EF04FD4C47A69D044905F55B47F9C2E984261516FFE739B7B309E081E111D80AE52A8CB08546577184590C80460D70C5233C530D382BA0C5355A6F2463F6D680939A695B00C0AEC22A017052D1B489034E2A9BB7007056CEB41E006C6DF3FD001C
310
D73854090052FE60F6585221D002006A455F06009DDA206257781300520F51C701885DE17D4C40018058FEE501409366402CFFFEDE5013003840700B809C040F911F513C2F04604BF963FD7E04AE06604F024068E396915149829BCA9FCA7B56F70A4F915F3D047192FB182079257533748602425FA170B1417E249A822B35
310
00BDA1800C0098FCC53E002C06F088410200BA43013104797C7A199062500100ABFF186102267FB12BF517842F050020947F1F009201004F822839405BAC8528F0834C03F695DF940251BBF2146C273E8733007814211E85C2FC9F03C04389C1481C217F0400DC2FBB28B8C606C36470F800709B2DD59106806E8D8603C576
310
79848ED3DEF273D4F658BC5B04483743C889CFDA0BD7F5613B3FE8897044AF33A0AC0124EC31084DC03533B81D541A2EBD619A62841FC701908A97ED9B0288F46E525D7F0B794CEF8441F244FE2A37FC1700C43C70C8119900650262D1A4ABC97D32A8D841AE3971956F2DC84E700C003CBE33CEF40D41C50F3CA0FECCE22C
310
CE8845C0362D7ACD6AA0B4582F7F3779EB7A59C8A4351C9F05F44F99100A197028C1313438F4669F2C458127B07858DB6548913363E069F4D22E9F687517B1B7F7D618AA018AED92B33BD2850AC0FC36C09C37A88C8E2852B5DF20371EF38086FD4F5F3AE5A6E0A5C4FD35C0F5F13301E088F981083474E19F50009B810DE7
310
BE5DFF516BA223FC9D6C4DD7F76F699BBF17D0EEC0FF1DD00391170D6F430B0FC08414C81CC4C3F786C1EDF6A1715000C382EF1443FD7CF31AE0D51DDD1AC01347F78461BE9EA4727C51E2CA6D6D31D9E278EF3376064D2DBAE8D7018D4926EEECF70F7A97A4469887E65BA30C00E583192E49B59FDCE73B05F5F54C1FC620
310
666E520034A41D50B506E4D2D268C102E9E1D064866E632827E6851637C0628A59DCBE072AE4FE23AC9A6F36603D48C52AB5D06A15667E5024831E2529D4A55AD7A5DF3B960923685024ED3071AA22890140CF3DFABE724C7A2AD1ED38066A2CC80A14562500505877D7A204AF358044C6BF79282838E068969F664FB5D360
310
58C448F2C4F2EB2A505B0FB0A2BEF403D09B2D98CE12BCB137974167240CA11A4A0589E27C04BE88FC1841012A1A3087C22AAC04B5D91668A45BFAB512E3214A40B54225A4FFAD4A252B41CA39432E8533D917AA5329C8BE828B48C2C44F8DCFA2B63A61A6370C6EAF9B1C008C30FA998A04B6D4E1A5CAE76C86C4042631AC
310
A49997474000C0A4C265F7ADD1D64CC5B959DCCE822502F901A9013E15C0EC2CF841B466DA0592E737600CBB5322DA5930F4C1A137ACD610B80D84DCCE82C50F344380B23DE8CDF7B4A42FD67B26FD9BA11582727B1AB7B3602587A7318900798E86F4952FF2FF2E6298256400A03B0BF699784500E8CE82AA27C86F4D9FC8
310
18A8D71228467D1B288F72410CEA899E2EEDF807F0B3C841F170B1960000000049454E44AE426082
  0
ENDSEC
  0
EOF
